#TITLE:Empty My Heart;
#SUBTITLE:;
#ARTIST:BinBin WAVES;
#TITLETRANSLIT:;
#SUBTITLETRANSLIT:;
#ARTISTTRANSLIT:;
#GENRE:;
#CREDIT:;
#BANNER:Bing Bing WAVES- Empty My Heart.png;
#BACKGROUND:;
#LYRICSPATH:;
#CDTITLE:;
#MUSIC:Bing Bing WAVES- Empty My Heart.ogg;
#OFFSET:-0.378000;
#SAMPLESTART:40.351002;
#SAMPLELENGTH:18.000000;
#SELECTABLE:YES;
#BPMS:0.000000=132.000000
;
#STOPS:
;
#BGCHANGES:;
#KEYSOUNDS:;
#ATTACKS:;

//---------------dance-single - ----------------
#NOTES:
     dance-single:
     :
     Beginner:
     1:
     0.064933,0.128404,0.018181,0.045453,0.000000,50.000000,48.000000,2.000000,5.000000,0.000000,0.000000,0.064933,0.128404,0.018181,0.045453,0.000000,50.000000,48.000000,2.000000,5.000000,0.000000,0.000000:
0000
0000
0000
0000
,
0000
0000
0000
0000
,
0000
0000
0000
0000
,
0000
0000
0000
0000
,
0000
0000
0000
0000
,
0000
0000
0000
0000
,
1000
0000
0000
0000
,
0001
0000
0000
0000
,
1000
0000
0000
0000
,
0001
0000
0000
0000
,
0100
0000
0000
0000
,
0010
0000
0000
0000
,
0100
0000
0000
0000
,
0001
0000
0000
0000
,
1001
0000
0000
0000
,
1000
0000
0000
0000
,
0010
0000
0000
0000
,
1000
0000
0000
0000
,
0001
0000
0000
0000
,
0100
0000
0000
0000
,
0001
0000
0001
0000
,
0001
0000
0000
0000
,
1001
0000
0000
0000
,
1000
0000
0000
0000
,
0001
0000
0000
0000
,
1000
0000
0000
0000
,
0001
0000
0000
0000
,
0001
0000
0000
0000
,
2000
0000
0000
0000
,
0000
3000
0000
0000
,
0010
0000
0000
0000
,
0100
0000
0000
0000
,
0010
0000
0000
0000
,
0100
0000
0000
0000
,
0010
0000
0000
0000
,
0100
0000
0000
0000
,
0100
0000
0100
0000
,
0100
0000
0000
0000
,
0002
0000
0000
0000
,
0000
0003
0000
0000
,
2000
0000
0000
0000
,
3000
0000
0000
0000
,
0002
0000
0000
0000
,
0003
0000
0000
0000
,
1000
0000
0000
0000
,
0001
0000
0000
0000
,
0001
0000
0000
0000
,
1000
0000
0000
0000
,
0001
0000
0000
0000
,
0100
0000
0000
0000
,
0001
0000
0000
0000
,
1000
0000
0000
0000
,
0010
0000
0000
0000
,
1000
0000
0000
0000
,
0001
0000
0000
0000
,
0002
0000
0000
0000
,
0000
0000
0003
0000
;

//---------------dance-single - ----------------
#NOTES:
     dance-single:
     :
     Easy:
     4:
     0.157137,0.203629,0.018181,0.109087,0.000000,121.000000,119.000000,2.000000,12.000000,0.000000,0.000000,0.157137,0.203629,0.018181,0.109087,0.000000,121.000000,119.000000,2.000000,12.000000,0.000000,0.000000:
0000
0000
0000
0000
,
0000
0000
0000
0000
,
1000
0000
0001
0000
,
1000
0000
0000
0000
,
1000
0000
0010
0000
,
1000
0000
0000
0000
,
1000
0000
0001
0000
,
1000
0100
0010
0000
,
0001
0000
0100
0000
,
0001
0010
0100
0000
,
1000
0000
0010
0000
,
0100
0000
0001
0000
,
0100
0000
0100
0000
,
0010
0000
0010
0000
,
1001
0000
1000
0000
,
0001
0000
1000
0100
,
0010
0000
0001
0000
,
1000
0000
0001
0010
,
0100
0000
1000
0000
,
0010
0000
0100
0000
,
0001
0000
0001
0000
,
1000
0000
1000
0000
,
1001
0000
0001
0010
,
0100
0000
1000
0000
,
0100
0000
0010
0001
,
0010
0000
0001
0010
,
0100
0000
1000
0001
,
1000
0001
1000
0000
,
2000
0000
0001
0000
,
3001
0000
0100
0000
,
0010
1000
0010
0000
,
0100
0001
0100
0000
,
0010
0010
0010
0000
,
0100
0100
0001
0000
,
0010
0010
0100
0000
,
0100
0000
0100
1000
,
0100
0010
0001
0000
,
0200
0000
0320
0000
,
2030
0000
0000
0000
,
3001
0000
0000
0000
,
0100
0000
0010
0000
,
0100
0000
0001
0000
,
0002
0000
0000
0000
,
1003
0000
0000
0000
,
0002
0000
0023
0000
,
0032
0000
2003
0000
,
3000
0000
0000
0000
,
1000
0100
1000
0100
,
1000
0000
0001
0000
,
0001
0100
0001
0100
,
0001
0000
0000
0000
,
0000
1000
0100
0010
,
0001
0000
0100
0000
,
0100
0000
0001
0000
,
0200
0000
0302
0000
,
0203
0000
0000
0000
,
0300
0000
0000
0000
;

//---------------dance-single - ----------------
#NOTES:
     dance-single:
     :
     Medium:
     6:
     0.210382,0.256809,0.054543,0.236355,0.000000,162.000000,156.000000,6.000000,26.000000,0.000000,0.000000,0.210382,0.256809,0.054543,0.236355,0.000000,162.000000,156.000000,6.000000,26.000000,0.000000,0.000000:
0000
0000
0000
0000
,
0000
0000
0000
0000
,
1000
1001
0001
0100
,
0001
0100
0001
0100
,
0010
1000
0010
1000
,
0001
0000
0100
0000
0100
0000
0100
0010
,
0100
0000
0001
0000
1000
0000
0100
0010
,
0000
0010
0000
0010
0000
0010
0000
0000
,
0001
0000
0100
0000
0010
0000
0000
0100
,
0000
0100
0000
0100
0000
0100
0000
0000
,
0001
0000
1000
0000
0001
0000
1000
0001
,
0000
0001
0000
0001
0000
0001
0000
0000
,
1000
0000
0010
0000
,
0200
0000
0320
0000
,
0030
0000
0000
0000
1000
0000
0000
0001
,
0000
0002
0000
0000
0000
0000
0003
0000
,
1000
0000
0001
0000
0100
0000
0100
0010
,
0000
0010
0000
0020
0000
0000
0030
0000
,
0100
0000
0000
0000
0010
0000
0000
0100
,
0000
0100
0000
0100
0000
0000
0000
0000
,
0220
0330
0220
0330
,
2002
0000
3003
0000
,
0100
0001
0010
0100
,
1000
0100
0010
0002
,
0003
0100
0100
0010
,
0010
0100
0010
0200
,
0300
0001
1000
0001
,
0001
1000
0001
0100
,
0002
0003
0020
0030
,
0100
1000
0010
0100
,
0001
1000
0100
0010
,
0100
1000
0002
0003
,
0000
0001
0010
0100
,
0010
0001
2000
3000
,
0000
0001
0100
0010
,
0100
0001
1000
0001
,
0100
0000
0000
0100
0000
0000
0100
0000
,
0020
0030
0200
0300
,
0020
0030
1000
0000
,
0001
0000
1000
1000
,
1001
0000
0001
0000
,
1001
0000
1000
0000
,
0002
0000
2003
0000
,
3001
0000
0000
0100
,
0020
0000
0030
0000
,
1000
0000
0001
0001
,
0000
0000
0000
0000
,
0000
1000
0100
0010
,
0100
1000
0020
0030
,
0000
0100
0010
0001
,
0010
0100
0002
0003
,
0100
1000
0100
1000
,
0100
0000
0001
0000
,
0100
0000
1000
0000
,
0100
0000
0001
0000
,
2000
0000
0000
0000
3000
0000
0000
0002
,
0000
0000
0003
0000
;

//---------------dance-single - from pop n music 18----------------
#NOTES:
     dance-single:
     :
     Hard:
     9:
     0.338949,0.410894,0.154540,0.199993,0.059089,261.000000,244.000000,17.000000,22.000000,0.000000,0.000000,0.338949,0.410894,0.154540,0.199993,0.059089,261.000000,244.000000,17.000000,22.000000,0.000000,0.000000:
// measure 0
0000
0000
0000
0000
,  // measure 1
0000
0000
0000
0000
,  // measure 2
1000
0000
0000
0000
0001
0000
0000
0100
0010
0000
0100
0000
0010
0000
0100
0000
,  // measure 3
0010
0000
0000
0000
1000
0000
0100
0000
1000
0000
0000
0001
0000
0000
0000
0000
,  // measure 4
1000
0000
0000
0000
0100
0000
0010
0001
0000
0010
0001
0000
0100
0000
0000
0000
,  // measure 5
0010
0000
0010
0000
0010
0000
0000
0000
1000
0000
0100
1000
0000
0100
1000
0000
,  // measure 6
0001
0000
0100
0000
0010
0000
0100
0010
,  // measure 7
0000
0100
0000
0010
0000
0100
0000
0010
,  // measure 8
0100
0000
0001
0000
0010
0000
0001
1000
,  // measure 9
0000
0001
0000
0100
0000
0010
0100
0000
,  // measure 10
0110
0000
0001
0000
1000
0000
0100
0010
,  // measure 11
0000
0100
0000
1000
0000
0100
0000
0001
,  // measure 12
0000
0100
2000
0000
3001
0000
0100
0000
,  // measure 13
0001
0100
0002
0000
0103
0001
0100
0000
,  // measure 14
0101
0000
1010
0000
1000
0100
0010
0002
,  // measure 15
0000
0000
2003
0000
0000
0000
3000
0000
0010
0000
0100
0000
0010
0000
0100
0010
,  // measure 16
0100
0000
0001
0000
0010
0000
0100
0100
,  // measure 17
0000
1000
0000
0002
0000
0003
0000
0100
,  // measure 18
0010
0000
1000
0000
0001
0000
0100
0010
,  // measure 19
0000
0010
0000
0100
0000
0001
1000
0000
,  // measure 20
0002
0003
2000
3000
,  // measure 21
0010
0000
0000
0100
0000
0000
0010
0000
0200
0000
0000
0000
0300
0000
0000
0000
,  // measure 22
0110
1001
1100
0011
,  // measure 23
0001
1000
0010
0100
,  // measure 24
0110
0001
1000
0100
,  // measure 25
0011
1100
0110
0020
,  // measure 26
0030
1000
0100
0010
,  // measure 27
1000
0000
0010
0000
0001
0000
1000
0010
,  // measure 28
0001
0000
0010
0200
0000
0000
0300
0000
,  // measure 29
0010
0000
0010
0000
0100
0010
0100
0010
,  // measure 30
0100
0001
1001
1000
,  // measure 31
1100
0000
0010
0000
0001
0000
1000
0100
,  // measure 32
0010
0000
0001
0010
1000
0000
0001
0100
,  // measure 33
1000
0000
0001
0000
0100
0000
0001
0100
,  // measure 34
0010
0000
1000
0010
0200
0000
0301
0000
,  // measure 35
0010
1100
1100
0011
,  // measure 36
0002
0000
0100
0103
0000
0000
0010
0000
,  // measure 37
1000
0000
0001
0000
1000
0000
0000
0000
0001
1000
0000
0001
1000
0000
0000
0000
,  // measure 38
2000
0000
0010
0000
0010
0010
3010
0000
,  // measure 39
0010
0100
0100
0010
,  // measure 40
0200
0000
0000
0000
0300
0001
0000
1000
,  // measure 41
0001
0100
0010
0000
,  // measure 42
0200
0000
0000
0300
,  // measure 43
0010
0000
0010
0000
0000
0100
0000
0010
,  // measure 44
0100
0000
0000
0001
,  // measure 45
2000
0000
0000
0000
3001
0001
1000
1000
,  // measure 46
0000
0000
0000
0000
0000
0000
0000
0000
0000
0000
0000
0000
0100
0010
0100
0000
,  // measure 47
0010
1000
0001
0100
,  // measure 48
0010
0000
0000
0000
0100
0000
0001
0000
0100
0000
0000
0001
0100
0000
0000
0000
,  // measure 49
0010
0100
1000
0100
,  // measure 50
0010
0000
1000
0000
1000
0000
0010
0100
,  // measure 51
0001
0010
0100
0010
,  // measure 52
0100
1000
0001
0010
,  // measure 53
0100
0000
0100
0200
0000
0000
1300
0000
,  // measure 54
0002
1000
1003
0000
2020
0000
3030
0000
,  // measure 55
0001
0000
0100
0000
0000
0000
0001
0010
0002
0000
0013
0000
0000
0000
0200
0000
,  // measure 56
0000
0000
0300
0000
;
