#VERSION:0.83;
#TITLE:Dream Drop;
#SUBTITLE:;
#ARTIST:glimmerXP;
#TITLETRANSLIT:;
#SUBTITLETRANSLIT:;
#ARTISTTRANSLIT:;
#GENRE:;
#ORIGIN:;
#CREDIT:;
#BANNER:;
#BACKGROUND:;
#PREVIEWVID:;
#JACKET:;
#CDIMAGE:;
#DISCIMAGE:;
#LYRICSPATH:;
#CDTITLE:;
#MUSIC:glimmerxp - Dream Drop.mp3;
#OFFSET:-0.433000;
#SAMPLESTART:8.400000;
#SAMPLELENGTH:12.000000;
#SELECTABLE:YES;
#BPMS:0.000=127.000;
#STOPS:;
#DELAYS:;
#WARPS:;
#TIMESIGNATURES:0.000=4=4;
#TICKCOUNTS:0.000=4;
#COMBOS:0.000=1;
#SPEEDS:0.000=1.000=0.000=0;
#SCROLLS:0.000=1.000;
#FAKES:;
#LABELS:0.000=Song Start;
#BGCHANGES:;
#KEYSOUNDS:;
#ATTACKS:
;

//---------------dance-single - hardedit----------------
#NOTEDATA:;
#CHARTNAME:;
#STEPSTYPE:dance-single;
#DESCRIPTION:hardedit;
#CHARTSTYLE:;
#DIFFICULTY:Edit;
#METER:9;
#RADARVALUES:0.582627,0.863016,0.370763,0.344280,0.370763,308.000000,280.000000,28.000000,26.000000,0.000000,0.000000,0.000000,0.000000,0.000000,0.582627,0.863016,0.370763,0.344280,0.370763,308.000000,280.000000,28.000000,26.000000,0.000000,0.000000,0.000000,0.000000,0.000000;
#CREDIT:;
#NOTES:
0000
0000
0000
0000
0000
0000
0000
0000
0000
0000
0000
0000
0000
0000
0000
0000
0000
0000
0000
0000
0000
0000
0000
0000
1001
0000
0000
0000
0000
0000
0000
0000
0000
0000
0000
0000
0000
0000
0000
0000
0000
0000
0000
0000
0000
0000
0000
0000
0000
0000
0000
0000
0000
0000
0000
0000
0000
0000
0000
0000
0000
0000
0000
0000
0000
0000
0000
0000
0000
0000
0000
0000
1000
0000
0000
0000
0000
0000
0000
0000
0000
0000
0000
0000
0000
0000
0000
0000
0100
0000
0000
0000
0000
0000
0000
0000
0000
0000
0000
0000
0000
0000
0000
0000
0010
0000
0000
0000
0000
0000
0000
0000
0000
0000
0000
0000
0000
0000
0000
0000
0001
0000
0000
0000
0000
0000
0000
0000
0000
0000
0000
0000
0000
0000
0000
0000
0000
0000
0000
0000
0000
0000
0000
0000
0010
0000
0000
0000
0000
0000
0001
0000
0000
0000
0000
0000
0010
0000
0000
0000
0000
0000
0001
0000
0000
0000
0000
0000
0020
0000
0000
0000
0000
0000
0000
0000
0000
0000
0000
0000
0000
0000
0000
0000
0000
0000
0000
0000
0000
0000
0000
0000
,
0000
0000
0000
0031
0000
0010
0000
0010
0000
0001
0000
0000
0101
0000
0000
0010
0000
0000
0100
0000
0000
0110
0000
0000
,
0000
0001
1000
0010
1000
0011
0010
2000
,
0100
3020
0000
2030
3200
0300
0010
0011
,
0010
0001
1000
0020
0030
0010
0001
0020
,
0000
0000
0000
0031
0000
0100
0000
0010
0000
1000
0000
0000
0110
0000
0000
0000
0000
0000
0100
0000
0000
1010
0000
0000
,
0000
0010
0100
0010
0000
0110
0000
0002
,
0010
0023
0000
2030
3002
0003
1000
0110
,
1000
0001
1000
0001
0100
0010
0001
2000
,
0010
0000
0000
3100
0000
0010
0000
0010
0000
1000
0000
0000
0110
0000
0000
0000
0000
0000
0010
0000
0000
0011
0000
0000
,
0100
0010
0100
0010
0001
1000
0001
0001
,
0011
0011
0000
0010
0001
0000
0010
1100
,
1000
0100
1000
0001
0001
0010
0010
2000
,
0000
0000
0000
3010
0000
1000
0000
0001
0000
1000
0000
0000
0110
0000
0000
0000
0000
0000
0100
0000
0000
0110
0000
0000
,
0000
0001
0001
1000
0000
0010
0001
0200
,
0010
0000
0000
0000
0310
0000
0000
0000
0001
0000
0000
0000
0010
0000
0000
0000
0001
0000
0000
0000
0000
0000
0000
0000
0001
1000
0001
1000
0002
0000
0000
0000
,
0000
0000
0000
0203
0000
0000
0000
0320
,
0000
0000
0000
1030
0000
1000
0000
0001
0000
0001
0000
0000
0200
0000
0000
0300
0000
0000
0010
0000
0000
1010
0000
0000
,
0000
0010
0001
0010
0000
0100
0001
0010
,
0000
0001
1000
0010
1000
0010
1000
0100
,
0010
0001
1000
0010
0100
0010
0000
2000
,
0010
3100
0000
0010
0001
0100
0010
0110
,
0001
1000
0000
1000
0001
1000
0001
1000
,
0010
0100
0000
0100
0101
0000
0010
1001
,
0010
0110
1000
0002
0013
0001
0000
2000
,
0000
0000
0000
3010
0000
0100
0000
0010
0000
0100
0000
0000
0001
0000
0000
0000
0000
0000
0100
0000
0000
1010
0000
0000
,
0000
0010
0001
0100
0010
0101
0000
0001
,
0110
0101
0010
0100
0110
0000
0001
0011
,
0002
0003
0001
1000
0001
0000
0001
1000
,
0000
0000
0110
0000
0001
0000
0000
0000
0100
0000
0010
0000
0010
0000
1000
0001
,
1000
0000
0000
0001
0000
0000
0100
0000
0000
0010
0000
0000
0100
0000
0000
0001
0000
0000
0100
0000
0000
0010
0000
0000
1000
0000
0000
0010
0000
0000
0100
0000
0000
0001
0000
0000
0100
0000
0000
0000
0000
0000
1000
0000
0000
0000
0100
0000
,
0000
0000
0000
0000
0000
0000
0000
0000
0010
0000
0000
0000
0000
0000
0000
0000
0000
0000
0000
0000
0000
0000
0000
0000
0100
0000
0000
0000
0000
0000
0000
0000
0000
0000
0000
0000
0000
0000
0000
0000
0010
0000
0000
0000
0000
0000
0000
0000
0000
0000
0000
0000
0000
0000
0000
0000
0001
0000
0000
0000
0000
0000
0000
0000
0000
0000
0000
0000
0000
0000
0000
0000
1000
0000
0000
0000
0000
0000
0000
0000
0000
0000
0000
0000
0000
0000
0000
0000
0010
0000
0000
0000
0000
0000
0000
0000
0000
0000
0000
0000
0000
0000
0000
0000
0100
0000
0000
0000
0000
0000
0000
0000
0000
0000
0000
0000
0000
0000
0000
0000
0001
0000
0000
0000
0000
0000
1000
0000
0000
0000
0000
0000
0001
0000
0000
0000
0000
0000
1000
0000
0000
0000
0000
0000
0001
0000
0000
0000
0000
0000
1000
0000
0000
0000
0000
0000
0001
0000
0000
0000
0000
0000
1000
0000
0000
0000
0000
0000
0001
0000
0000
0000
0000
0000
0000
0000
0000
0000
0000
0000
0000
0000
0000
0000
0000
0000
0000
0000
0000
0000
0000
0000
,
0000
0000
0000
0000
0100
0010
0100
0000
0001
0000
0200
0000
0000
0000
0020
0000
,
0000
0000
0300
0000
0000
0000
0030
0000
0000
0000
0000
0000
0000
0100
1000
0000
,
0000
0100
0010
0000
0000
0001
1000
0000
0000
0100
0010
0000
0000
0010
1000
0000
,
0000
0001
0100
0000
0000
0010
0100
0000
0000
1000
0001
0000
0000
0010
0010
0000
,
0000
0100
0100
0000
0000
0001
0100
0000
0000
1000
0010
0000
0000
0100
0001
0000
,
0000
0100
0010
0000
0000
0010
1000
0000
0000
0001
0001
0000
0000
0000
2000
0000
,
0000
0010
0000
0010
0000
0010
0000
3002
,
0000
0000
0003
0000
;
