#VERSION:0.83;
#TITLE:Dilemma;
#SUBTITLE:;
#ARTIST:JP THE WAVY & Riri;
#TITLETRANSLIT:;
#SUBTITLETRANSLIT:;
#ARTISTTRANSLIT:;
#GENRE:;
#ORIGIN:;
#CREDIT:;
#BANNER:JP THE WAVYRIRI - Dilemma.png;
#BACKGROUND:;
#PREVIEWVID:;
#JACKET:;
#CDIMAGE:;
#DISCIMAGE:;
#LYRICSPATH:;
#CDTITLE:;
#MUSIC:JP-THE-WAVYRIRI-Dilemma.ogg;
#OFFSET:-0.361000;
#SAMPLESTART:17.711000;
#SAMPLELENGTH:16.000000;
#SELECTABLE:YES;
#BPMS:0.000=160.000;
#STOPS:;
#DELAYS:;
#WARPS:;
#TIMESIGNATURES:0.000=4=4;
#TICKCOUNTS:0.000=4;
#COMBOS:0.000=1;
#SPEEDS:0.000=1.000=0.000=0;
#SCROLLS:0.000=1.000;
#FAKES:;
#LABELS:0.000=Song Start;
#BGCHANGES:;
#KEYSOUNDS:;
#ATTACKS:
;

//---------------dance-single - ----------------
#NOTEDATA:;
#CHARTNAME:;
#STEPSTYPE:dance-single;
#DESCRIPTION:;
#CHARTSTYLE:;
#DIFFICULTY:Easy;
#METER:4;
#RADARVALUES:0.261084,0.326509,0.267241,0.137931,0.000000,212.000000,181.000000,31.000000,16.000000,0.000000,0.000000,0.000000,0.000000,0.000000,0.261084,0.326509,0.267241,0.137931,0.000000,212.000000,181.000000,31.000000,16.000000,0.000000,0.000000,0.000000,0.000000,0.000000;
#CREDIT:;
#NOTES:
0000
0000
0000
0000
,
0000
0000
0000
0000
,
0000
0000
0000
0000
,
0000
0000
0100
0000
,
0000
0000
0000
0010
0000
0100
0000
0000
,
0010
0000
1000
0000
,
0000
0000
0000
0010
0000
0100
0000
0000
,
0000
0001
0000
1000
,
0000
0000
0000
0100
0000
0010
0000
0000
,
0100
0000
0000
0001
,
0000
0000
0000
1000
,
0000
0000
0100
0010
,
0000
0100
0110
0000
,
0101
0000
0100
0010
,
0000
0000
0011
0000
,
1010
0000
0000
0110
,
0000
0000
0101
0000
,
1010
0000
0100
0001
,
0100
0000
0011
0000
,
0101
0000
0010
0200
,
0300
0000
0110
0000
,
1001
0000
0010
0100
,
0010
0000
1000
0000
,
1010
0000
0001
0100
,
0001
0000
1010
0000
,
1001
0000
0100
0010
,
0000
0000
0000
0100
,
0000
0000
0010
0100
,
0000
0001
1000
0000
,
0001
0000
0100
0100
,
0000
0001
1000
0000
,
0001
0001
0000
0110
,
0000
0100
0110
0000
,
0010
0000
0000
1000
,
0000
0001
0110
0000
,
0010
0000
0100
0011
,
0000
0100
0001
0000
,
0001
0100
0010
0001
,
0000
1000
0010
0000
,
0010
1000
0001
0010
,
0100
0000
0010
0000
,
0110
0000
1000
1000
,
0000
0001
0001
0000
,
0100
0010
0100
0010
,
0000
0100
0100
0000
,
0101
0000
0001
0100
,
0000
0001
0100
0001
,
1000
0010
0100
0001
,
0000
0100
1100
0000
,
0101
0000
1000
1001
,
0000
0001
0101
0000
,
1100
0000
0001
1000
,
0001
0000
0010
0000
,
0100
0000
0001
0000
,
0100
0000
0010
0000
,
0100
0001
0001
1000
,
0000
0010
0100
0000
,
0010
0100
0010
2000
,
0000
3002
0000
0203
,
0000
0302
0000
1003
,
0000
0100
0220
0330
,
2002
3003
0100
0010
,
0000
0010
0100
0000
,
0001
0100
0010
1001
,
0000
0010
0202
0303
,
2002
3003
0100
0001
,
0000
0100
0001
0010
,
0001
0000
1000
0001
,
0000
0010
0200
0000
,
0301
0001
0001
1001
,
0000
0010
0100
0000
,
0010
0001
1000
1000
,
0000
0010
2000
0000
,
3010
0100
0010
0100
,
0010
0010
0010
1000
,
0001
1000
0020
0030
;

//---------------dance-single - ----------------
#NOTEDATA:;
#CHARTNAME:;
#STEPSTYPE:dance-single;
#DESCRIPTION:;
#CHARTSTYLE:;
#DIFFICULTY:Medium;
#METER:7;
#RADARVALUES:0.396552,0.457112,0.284483,0.112069,0.025862,322.000000,289.000000,33.000000,13.000000,0.000000,0.000000,0.000000,0.000000,0.000000,0.396552,0.457112,0.284483,0.112069,0.025862,322.000000,289.000000,33.000000,13.000000,0.000000,0.000000,0.000000,0.000000,0.000000;
#CREDIT:;
#NOTES:
0000
0000
0000
0000
,
0000
0000
0000
0000
,
0000
0000
0000
0000
,
0000
0000
0100
0000
,
0000
0000
0000
0010
0000
0100
0000
0000
,
0010
0000
1000
0000
,
0000
0000
0000
0001
0000
0100
0000
0000
,
0000
1000
0001
1000
0020
0000
1030
0000
,
0000
0000
0000
0100
0000
0010
0000
0000
,
0100
0010
0100
0002
,
0000
0003
2000
0000
,
3000
0010
0100
0110
,
0001
0100
0010
0100
,
0101
0010
0100
0010
,
0100
0001
0100
0001
,
1000
0000
0010
0000
0100
0010
0100
0000
,
0010
0100
0000
0101
0000
0010
0000
0000
,
1010
0000
0100
0001
0100
0000
0001
0000
,
0100
0010
0010
0100
,
0101
0000
0010
0110
,
0100
0010
0000
0100
0000
0010
0000
0000
,
1001
0000
0100
0000
0010
0100
0001
0000
,
1000
0010
0000
1000
0000
0101
0000
0000
,
1010
0000
0000
0000
0001
0010
0100
0000
,
0000
0001
0000
0100
0000
0010
0000
0000
,
1010
0000
0100
0010
0100
0010
0100
0000
,
0010
0010
0100
0000
,
0001
0001
0010
0101
,
1000
0000
0000
0001
0000
0000
1000
0000
0010
1000
0000
0000
,
0001
0000
0000
0010
0000
0000
0100
0000
1000
0010
0000
0000
,
1000
0001
1000
0001
,
1001
0000
0000
0001
0000
0010
0001
0000
0000
0110
0000
0000
,
0010
0010
0100
0000
,
0010
1000
0010
1000
,
0001
0001
0022
0033
,
0220
0330
0100
0011
,
0001
0010
0100
1000
,
0001
0010
0100
1000
,
0001
0000
0000
1000
0000
0000
0010
0000
0100
0010
0000
0000
,
0010
0000
1000
0010
0001
0000
0010
0000
,
0100
0000
0000
0001
0000
0000
0010
0000
0000
0001
0000
0100
,
0010
0000
1000
0000
0001
0010
0001
0000
,
0010
0000
0000
0001
0000
0100
0001
0000
0000
0010
0000
0000
,
0100
0010
0000
0011
,
0100
0000
0001
0000
0100
0000
0010
0100
,
0001
0000
1000
0000
0001
0010
0100
0000
,
1000
0000
1000
0100
0010
0000
0001
0000
,
1010
0100
0010
0011
,
0100
0000
1000
0000
1000
0000
0001
0100
,
0001
1000
0100
1001
,
0100
0001
0100
0011
,
1000
0010
0100
0110
,
0001
0000
0001
0000
,
0200
0000
0300
0000
0001
0100
0010
0000
,
0100
0000
0100
0001
,
1000
0000
0001
1000
0001
0000
1010
0000
,
0100
0001
0100
0110
,
0000
0010
0000
0000
0010
0000
2000
0000
,
0001
3002
0100
0203
,
0001
0000
0302
0000
1000
0003
1001
0000
,
0100
0001
0000
0100
0000
0110
0000
0000
,
1001
0000
0000
0000
0100
0001
1000
0000
,
0001
0001
0000
0100
0000
0010
0000
0000
,
0001
0000
0100
0000
0010
1000
0100
0000
,
0010
0010
0000
0100
0000
0011
0000
0000
,
1010
0000
0100
0010
0100
0000
0001
0000
,
1000
0010
0000
1010
0000
0101
0000
0000
,
0001
0000
1000
1001
,
0010
0100
0000
0001
0000
0100
0000
0000
,
0001
0010
0001
0000
0001
0100
0001
0000
,
0100
0010
0000
0100
0000
1001
0000
0000
,
0010
0000
1000
0000
0100
1000
0100
0000
,
0010
0001
0000
1000
0000
0010
0000
0000
,
0000
1000
0001
1000
0001
0000
1000
0000
,
0010
0100
0010
1000
,
0001
0010
0002
0003
;

//---------------dance-single - ----------------
#NOTEDATA:;
#CHARTNAME:;
#STEPSTYPE:dance-single;
#DESCRIPTION:;
#CHARTSTYLE:;
#DIFFICULTY:Hard;
#METER:8;
#RADARVALUES:0.509852,0.619343,0.517241,0.431034,0.099138,414.000000,354.000000,60.000000,50.000000,0.000000,0.000000,0.000000,0.000000,0.000000,0.509852,0.619343,0.517241,0.431034,0.099138,414.000000,354.000000,60.000000,50.000000,0.000000,0.000000,0.000000,0.000000,0.000000;
#CREDIT:;
#NOTES:
0000
0000
0000
0000
,
0000
0000
0000
0000
,
0000
0000
0000
0000
,
0000
0000
0200
0000
,
0300
0000
0000
0010
0000
0100
0000
0000
,
0001
0000
0000
0001
2000
0000
3000
0000
,
0000
0000
0000
0020
0000
0230
0000
0300
,
0000
0100
0010
0100
0020
0030
0200
0000
,
0300
0000
0000
0002
0000
2003
0000
3000
,
0010
0100
0010
0020
,
0000
0000
0030
0000
0200
0000
0000
0301
,
1000
0010
1000
0000
0001
0000
1001
0000
,
0100
0010
0000
0100
0000
0101
0000
0000
,
0110
0000
0001
0000
0100
0001
0101
0000
,
0010
0110
0000
1001
0000
1100
0000
0000
,
0100
0010
0100
0000
0001
1000
1010
0000
,
0100
0001
0000
0100
0000
0101
0000
0000
,
0000
1000
0100
0010
0001
0100
1001
0000
,
0010
0000
0100
0000
0000
0000
0100
0010
0100
0000
0001
0000
0000
0000
0000
0000
,
0001
1000
0001
0000
0010
0000
0110
0000
,
1000
0001
0000
0110
0000
1010
0000
0000
,
0010
0100
0010
0000
1000
0100
0011
0000
,
0001
1000
0000
1001
0000
0101
0000
0000
,
1000
0001
0010
0000
0100
0010
0110
0000
,
0010
0001
0000
1000
0001
0200
0000
0300
,
0010
2000
3002
2003
3002
0203
0320
0000
,
0230
0302
0000
0203
0000
0320
0000
0000
,
0000
0030
0100
0011
,
0100
0000
0000
0100
0010
0100
0010
0000
0010
0100
0000
0000
,
0000
0000
0000
0001
1000
0001
1000
0000
0010
0100
0000
0000
,
0000
0000
0000
0001
0000
1000
0001
0000
0000
0001
0000
0000
,
1010
0101
0000
1000
,
0000
0100
0110
0000
,
0001
0010
0001
0010
0000
0000
0001
1000
0001
1000
0000
0000
,
0100
0011
2002
3003
,
0202
0000
0303
0000
1010
0000
0101
0001
,
0010
0100
1000
0100
1000
0010
0101
0010
,
1000
0001
0100
0001
0100
0010
0100
0001
,
0001
1000
1000
0010
1000
0100
0010
0000
,
0100
0010
0001
0020
,
1030
0100
0010
0000
0002
0000
0013
0001
,
0010
0000
2000
0000
3100
1000
0100
0000
,
0200
0000
0310
0001
1000
0000
0010
0000
,
0100
0001
0001
1000
,
0010
0000
0000
0100
0001
0100
0001
0000
0000
0010
0000
0000
,
1000
0000
0000
1010
0000
0000
0100
0001
0100
0001
0000
0000
,
0110
0101
1010
1100
,
0010
0000
0100
0000
0010
0000
0100
0000
0000
0000
0000
0000
1000
0000
0000
0001
0000
0000
0100
0000
0000
0010
0000
0000
,
1000
0000
0000
0001
0000
0000
0100
0000
0000
0000
0000
0000
0001
0000
0000
0000
0000
0000
1000
0000
0100
0000
1000
0000
,
0100
0000
0000
1000
0100
1000
0100
0000
0000
0100
0000
0000
,
0001
0000
0000
0000
0202
0303
0000
0000
0220
0330
0000
0000
0002
0003
0000
0000
,
2000
3000
0000
0000
0200
0300
0000
0000
0020
0030
0000
0000
0011
0000
0000
0000
,
1001
0000
1000
0010
0100
0001
1000
0001
,
0220
0000
0330
0000
1000
0001
0100
0000
,
0001
0000
0100
0010
0100
0000
0001
0100
,
0010
0000
0100
0000
0010
0000
0100
0000
0010
0000
0000
0000
0100
0010
0100
0000
,
0001
1000
0010
0100
0001
0010
0001
0100
,
0010
1010
0000
0100
2000
3000
0002
0000
,
0203
0320
2030
3200
,
2300
0000
3200
0300
1001
0000
0110
0000
,
0100
0101
0000
0010
1000
0010
0000
0000
,
0110
0000
0000
0000
1000
0010
0110
0000
,
0001
0110
0000
0011
0000
0011
0000
0000
,
0010
0100
0000
0000
1000
0100
1001
0000
,
0100
1010
0000
1010
0000
0101
0000
0000
,
0000
0001
1000
0010
0100
0010
1001
0000
,
0100
0100
0000
0010
0010
0100
0000
0000
,
0010
0011
0000
0000
0100
0000
0011
0000
,
0100
0010
0000
0110
0000
1001
0000
1000
,
1000
0000
0010
0000
0100
0010
0101
0000
,
0010
1100
0000
1000
0000
0010
0000
0000
,
0100
0100
0000
0000
1000
0001
1010
0000
,
0100
0101
0000
0010
0000
0110
0000
0000
,
1000
0010
0100
0001
0100
0010
1000
0000
,
0000
0002
0000
2003
0000
3020
0000
0000
,
0130
0000
0001
0100
0001
0100
0000
0000
;

//---------------dance-single - ----------------
#NOTEDATA:;
#CHARTNAME:;
#STEPSTYPE:dance-single;
#DESCRIPTION:;
#CHARTSTYLE:;
#DIFFICULTY:Challenge;
#METER:10;
#RADARVALUES:0.715517,0.880118,0.836207,0.250000,0.543103,581.000000,484.000000,97.000000,29.000000,0.000000,0.000000,0.000000,0.000000,0.000000,0.715517,0.880118,0.836207,0.250000,0.543103,581.000000,484.000000,97.000000,29.000000,0.000000,0.000000,0.000000,0.000000,0.000000;
#CREDIT:;
#NOTES:
0000
0000
0000
0000
,
0000
0000
0000
0000
,
0000
0000
0000
0000
,
0000
0000
0200
0000
,
0300
0000
0000
0010
0000
0100
0000
0000
,
0001
0000
0000
0010
2000
0000
0000
3000
,
0000
0000
0000
0020
0000
0230
0000
0300
,
0000
0100
0010
0100
0020
0030
0200
0000
,
0300
0000
0000
0001
0000
1000
0000
0000
,
0010
0100
0010
0010
,
0000
0000
0000
0000
0200
0000
0000
0301
,
1000
0000
0010
0000
1000
0000
0000
0000
0001
0010
0001
0000
0011
0000
0000
0000
,
0110
0110
0000
0100
0000
0101
0000
0000
,
0110
0000
1000
0001
0100
0101
0101
0000
,
0110
0000
0110
0000
1000
0001
0100
0000
1010
0000
0101
0000
0000
0000
0000
0000
,
0100
0010
0100
0000
0001
0001
1010
0000
,
0101
0011
0000
0100
0000
0101
0000
0000
,
0110
0000
1100
0000
1100
0000
0110
0000
0110
0000
0011
0000
0011
0000
1000
0100
,
0010
0000
0110
0000
0000
0000
0100
0010
0100
0000
1001
0000
0000
0000
0000
0000
,
0001
1000
0001
0000
0110
0000
0110
0000
,
1000
0100
0001
0000
0100
0000
0010
0000
0000
0000
0010
0000
0000
0000
0110
0000
,
0110
0000
1001
0000
1100
0000
0000
0000
1100
0000
0110
0000
0011
0000
0001
0010
,
0001
1001
0000
0011
0101
1010
0000
0000
,
0010
0000
0001
0000
0010
0000
0000
0000
0100
0000
0010
0000
0110
0000
1000
0010
,
0100
0000
1010
0000
0000
0000
1001
0000
1000
0000
1100
0000
0010
0100
0010
0000
,
0010
1100
0110
0011
1001
0110
0020
0000
,
0230
0300
0002
0000
0000
0000
0203
0000
0000
0000
0020
0000
0300
0000
0030
0000
,
0100
0001
0100
0011
,
1000
0010
0100
0001
1000
1000
0001
0000
0001
1000
0000
0000
,
0010
0100
0010
0100
0001
1000
0001
1000
0010
0010
0000
0000
,
0100
0010
0100
0001
0100
0010
0100
0000
0000
0011
0000
0000
,
1100
0000
0000
0101
0000
0010
0100
0010
1000
0001
0000
0000
,
0010
0100
0101
0010
,
1000
0010
1000
0010
0100
0001
0100
0001
1000
0010
0000
0000
,
0100
0011
1001
0100
,
0101
0000
0000
0000
1010
0000
0110
0010
,
1000
0000
0110
0000
0001
0000
0100
0000
0001
0000
0010
0100
0010
0000
0110
0000
,
1001
0000
0000
0000
0000
0000
0011
0000
0000
0000
0000
0000
0011
0000
0000
0000
0000
0000
0001
0000
0000
0000
0000
0000
0100
0000
0000
0010
0000
0000
1000
0000
0000
0000
0000
0000
1000
0000
0000
0000
0001
0000
0000
0000
0100
0000
0000
0000
,
0001
0100
0001
1000
0001
1000
0001
0000
1000
0010
0000
0000
,
0100
0010
1000
0001
0001
1000
0010
0000
0000
0010
1000
0001
,
1000
1000
0100
0010
0000
0000
0001
0010
0100
1000
0100
1000
,
0010
0000
0000
1000
0100
0000
1000
0100
1000
0100
0000
0000
,
0100
0010
0000
0100
0010
0100
0010
0000
0000
0010
0001
0001
,
0100
0010
1000
0001
0000
0001
0000
0001
0000
1001
0000
0000
,
0010
0000
0000
1000
0100
0010
0001
0000
0000
0010
1000
0010
,
0001
0100
1000
0100
0000
0000
0100
0010
1000
0001
0100
0010
,
0100
0000
0000
0100
0010
0000
0010
0100
0010
1000
0000
0000
,
0010
0100
0010
0100
0010
1000
0010
0000
0000
0100
0010
1000
,
0001
0100
0010
1000
0000
0000
0001
1000
0001
1000
0010
0100
,
0001
0000
0000
1000
0001
0100
0010
1000
0100
0010
0000
0000
,
2000
3000
0001
0100
0001
0100
0020
0030
0100
0001
1000
0010
,
0100
0000
0010
0000
1000
0000
0010
0000
0000
0000
0010
0000
0000
0000
0000
0100
0000
0000
0110
0000
0000
0000
0000
0000
,
0011
0000
1000
0000
0110
0001
1000
0001
,
0220
0000
0000
0000
0330
0000
0000
0000
1000
0000
0001
0000
0100
0001
0100
0000
,
0001
0000
1000
0000
0100
0010
0001
0000
0001
0010
0100
0000
1000
0000
0100
0000
,
1000
0000
0010
0000
0101
0000
0010
0000
0110
0000
0000
0000
0100
0010
0100
0000
,
0001
1000
0001
0000
1000
0100
0010
0000
0001
1000
0100
0000
0011
0000
0100
0000
,
0010
1010
0000
0100
2000
3000
0002
0000
,
0203
0320
2030
3020
,
2030
0000
0000
0000
3200
0000
0300
0000
1000
0001
1000
0000
0110
0000
0000
0000
,
0100
0000
0101
0000
1000
0100
0010
0000
0001
0000
0020
0000
0030
0000
0000
0000
,
0100
0010
0100
0000
0000
0000
0001
0000
1000
0000
0010
0000
0110
0000
0000
0000
,
1000
0001
1000
0000
0000
0000
0011
0000
0000
0000
0011
0000
0000
0000
0000
0000
,
0110
0000
0110
0000
0010
1000
0100
0000
0010
0000
0100
0000
0010
0000
0000
0000
,
1001
1010
0000
0100
0000
0020
0030
0000
,
0110
0000
0001
1000
0001
0000
1000
0010
0100
0000
0001
0010
0100
0000
0000
0000
,
0100
0010
0100
0000
0000
0000
0010
1000
0010
0000
0200
0000
0300
0000
0000
0000
,
0011
0010
0000
0000
0100
0000
0011
0000
,
0100
0010
0100
0000
0001
0000
1001
0000
0000
0000
1001
0000
0000
0000
1000
0001
,
1000
0000
0010
0100
0010
0000
0000
0000
0100
0000
0010
0000
0101
0000
0010
1000
,
0100
0000
1010
0000
0000
0000
0110
0000
0000
0000
0011
0000
1000
0001
1000
0000
,
0110
0000
0010
0000
0110
0000
0000
0000
1000
0000
1010
0000
1010
0000
0100
0001
,
0100
0101
0000
0010
0000
0110
0000
0001
,
0010
0100
1001
0100
0011
0100
1001
0000
,
0001
0100
0000
2000
0000
3020
0000
0030
,
0100
0000
0001
0100
0001
0100
0000
0000
;

//---------------dance-single - ----------------
#NOTEDATA:;
#CHARTNAME:;
#STEPSTYPE:dance-single;
#DESCRIPTION:;
#CHARTSTYLE:;
#DIFFICULTY:Beginner;
#METER:3;
#RADARVALUES:0.129310,0.195905,0.181034,0.051724,0.000000,105.000000,84.000000,21.000000,6.000000,0.000000,0.000000,0.000000,0.000000,0.000000,0.129310,0.195905,0.181034,0.051724,0.000000,105.000000,84.000000,21.000000,6.000000,0.000000,0.000000,0.000000,0.000000,0.000000;
#CREDIT:;
#NOTES:
// measure 0
0000
0000
0000
0000
,  // measure 1
0000
0000
0000
0000
,  // measure 2
0000
0000
0000
0000
,  // measure 3
0000
0000
0000
0000
,  // measure 4
0000
0000
0000
0000
,  // measure 5
0000
0000
0000
0000
,  // measure 6
0000
0000
0000
0000
,  // measure 7
0000
0000
0000
1000
,  // measure 8
0000
0000
0000
1000
,  // measure 9
0000
0000
0000
0001
,  // measure 10
0000
0000
0000
0002
,  // measure 11
0000
0003
0000
0110
,  // measure 12
0000
0100
0000
0010
,  // measure 13
0000
0000
0000
1001
,  // measure 14
0000
0001
0000
1000
,  // measure 15
0000
0000
0000
0110
,  // measure 16
0000
0010
0000
0100
,  // measure 17
0000
0000
0000
1001
,  // measure 18
0000
1000
0000
0001
,  // measure 19
0000
0000
0000
0100
,  // measure 20
0000
0010
0000
0100
,  // measure 21
0000
0000
0000
0010
,  // measure 22
0000
0100
0000
0010
,  // measure 23
0000
0000
0000
1000
,  // measure 24
0000
0001
0000
0100
,  // measure 25
0000
0000
0000
0020
,  // measure 26
0000
0000
0000
0000
,  // measure 27
0000
0030
0000
0100
,  // measure 28
0000
0000
0000
0000
,  // measure 29
0001
0000
0000
1001
,  // measure 30
0000
0000
1001
0000
,  // measure 31
0000
0000
0000
0110
,  // measure 32
0000
0000
0110
0000
,  // measure 33
0000
0000
0000
1100
,  // measure 34
0000
0000
1100
0000
,  // measure 35
0000
0000
0000
0002
,  // measure 36
0000
0000
0000
0003
,  // measure 37
0000
0000
0000
2000
,  // measure 38
0000
0000
0000
3000
,  // measure 39
0000
0000
0000
1001
,  // measure 40
0000
0000
1001
0000
,  // measure 41
0000
0000
0000
0101
,  // measure 42
0000
0000
0101
0000
,  // measure 43
0000
0000
0000
1000
,  // measure 44
0000
0001
0000
0100
,  // measure 45
0000
0001
0000
1000
,  // measure 46
0000
0010
0000
0100
,  // measure 47
0000
0010
0000
1000
,  // measure 48
0000
0000
0001
0000
,  // measure 49
0000
0000
0000
0110
,  // measure 50
0000
0000
0000
0100
,  // measure 51
0000
0010
0000
0100
,  // measure 52
0000
0000
0000
0000
,  // measure 53
0000
0000
0000
1001
,  // measure 54
0000
0000
1001
0000
,  // measure 55
0000
0000
0000
1000
,  // measure 56
0000
0001
0000
0100
,  // measure 57
0000
0001
0000
0010
,  // measure 58
0000
0000
0000
0000
,  // measure 59
0000
0000
0000
1001
,  // measure 60
0000
1000
0000
0010
,  // measure 61
0000
0000
0000
1010
,  // measure 62
0000
0010
0000
1000
,  // measure 63
0000
0000
0000
0001
,  // measure 64
0000
0100
0000
0001
,  // measure 65
0000
0000
0000
1000
,  // measure 66
0000
0010
0000
1000
,  // measure 67
0000
0000
0000
1001
,  // measure 68
0000
0001
0000
0100
,  // measure 69
0000
0000
0000
0010
,  // measure 70
0000
0100
0000
0010
,  // measure 71
0000
0000
0000
0101
,  // measure 72
0000
0001
0000
1000
,  // measure 73
0000
0000
0000
0002
,  // measure 74
0000
0000
0003
2000
,  // measure 75
0000
0000
0000
3000
;
