#TITLE:Dilemma (Japanese Remix);
#SUBTITLE:;
#ARTIST:Ren;
#TITLETRANSLIT:;
#SUBTITLETRANSLIT:;
#ARTISTTRANSLIT:;
#GENRE:;
#CREDIT:;
#BANNER:;
#BACKGROUND:;
#LYRICSPATH:;
#CDTITLE:;
#MUSIC:Ren - Dilemma (Japanese Remix).mp3;
#OFFSET:-0.070000;
#SAMPLESTART:15.953000;
#SAMPLELENGTH:13.000000;
#SELECTABLE:YES;
#BPMS:0.000000=195.134995
;
#STOPS:
;
#BGCHANGES:;
#KEYSOUNDS:;
#ATTACKS:;

//---------------dance-single - ----------------
#NOTES:
     dance-single:
     :
     Beginner:
     2:
     0.103166,0.152033,0.047510,0.019004,0.000000,76.000000,71.000000,5.000000,2.000000,0.000000,0.000000,0.103166,0.152033,0.047510,0.019004,0.000000,76.000000,71.000000,5.000000,2.000000,0.000000,0.000000:
0000
0000
0000
0000
,
0000
0000
0000
0000
,
0000
0000
0000
0000
,
0000
0000
0000
0000
,
1000
0000
0000
0000
,
0001
0000
0000
0000
,
1000
0000
0000
0000
,
0001
0000
0000
0000
,
1000
0000
0000
0000
,
0001
0000
0000
0000
,
1000
0000
0000
0000
,
0200
0000
0000
0000
,
0301
0000
0000
0000
,
1000
0000
0000
0000
,
1000
0000
0000
0000
,
1001
0000
0000
0000
,
0001
0000
0000
0000
,
1000
0000
0000
0000
,
0010
0000
0000
0000
,
0110
0000
0000
0000
,
0100
0000
0000
0000
,
0100
0000
0000
0000
,
0010
0000
0000
0000
,
0110
0000
0000
0000
,
1000
0000
0000
0000
,
0001
0000
0000
0000
,
1000
0000
0000
0000
,
1001
0000
0000
0000
,
1000
0000
0000
0000
,
0001
0000
0000
0000
,
1000
0000
0000
0000
,
0100
0000
0000
0000
,
1000
0000
0000
0000
,
0001
0000
0000
0000
,
1000
0000
0000
0000
,
0001
0000
0000
0000
,
0100
0000
0000
0000
,
0010
0000
0000
0000
,
1000
0000
0000
0000
,
0001
0000
0000
0000
,
1000
0000
0000
0000
,
0001
0000
0000
0000
,
1000
0000
0000
0000
,
0001
0000
0000
0000
,
1001
0000
0000
0000
,
1000
0000
0000
0000
,
1000
0000
0000
0000
,
0001
0000
0000
0000
,
0001
0000
0000
0000
,
1000
0000
0000
0000
,
0100
0000
0000
0000
,
0100
0000
0100
0000
,
0200
0000
0000
0000
,
0300
0000
0000
0000
,
1000
0000
0000
0000
,
0001
0000
0000
0000
,
0001
0000
0000
0000
,
1000
0000
0000
0000
,
1000
0000
0000
0000
,
0001
0000
0000
0000
,
0100
0000
0000
0000
,
0100
0000
0000
0000
,
0010
0000
0000
0000
,
0010
0000
0000
0000
,
0100
0000
0000
0000
,
0100
0000
0000
0000
,
0010
0000
0000
0000
,
0010
0000
0000
0000
,
1000
0000
0000
0000
,
0000
0000
0000
0000
,
0001
0000
0000
0000
,
0000
0000
0000
0000
,
1000
0000
0000
0000
,
0000
0000
0000
0000
,
0100
0000
0000
0000
,
0000
0000
0000
0000
,
0001
0000
0000
0000
,
0000
0000
0000
0000
,
1000
0000
0000
0000
,
0000
0000
0000
0000
,
0001
0000
0000
0000
;

//---------------dance-single - ----------------
#NOTES:
     dance-single:
     :
     Easy:
     3:
     0.180540,0.304067,0.133029,0.085519,0.000000,133.000000,119.000000,14.000000,9.000000,0.000000,0.000000,0.180540,0.304067,0.133029,0.085519,0.000000,133.000000,119.000000,14.000000,9.000000,0.000000,0.000000:
0000
0000
0000
0000
,
0000
0000
0000
0000
,
0000
0000
0000
0000
,
0000
0000
0000
0000
,
0100
0000
0000
0000
,
0010
0000
0000
0000
,
1000
0000
0000
0000
,
0001
0000
0000
0000
,
2000
0000
3000
0000
,
0002
0000
0003
0000
,
0200
0000
0300
0000
,
0110
0000
0110
0000
,
0110
0000
0001
0000
,
1000
0000
0010
0000
,
0100
0000
0100
0000
,
0010
0000
0010
0000
,
1000
0000
0001
0000
,
0100
0000
0101
0000
,
0001
0000
1000
0000
,
0001
0000
1001
0000
,
1000
0000
0100
0000
,
0001
0000
1000
0000
,
0001
0000
0100
0000
,
0010
0000
0110
0000
,
0100
0000
0100
0000
,
0010
0000
0010
0000
,
1000
0000
0001
0000
,
0010
0000
0100
0000
,
2000
0000
0000
0000
,
3002
0000
0000
0000
,
1003
0000
0000
0000
,
0001
0000
0000
0000
,
1000
0000
1000
0000
,
1000
0000
0000
0000
,
0001
0000
0001
0000
,
0001
0000
0000
0000
,
0001
0000
0000
0000
,
1000
0000
0100
0000
,
0010
0000
0000
0000
,
1000
0000
0100
0000
,
0010
0000
0000
0000
,
0001
0000
0010
0000
,
0100
0000
0000
0000
,
1000
0000
0001
0000
,
0100
0000
0000
0000
,
0110
0000
0000
0000
,
0100
0000
0000
0000
,
0110
0000
0000
0000
,
0001
0000
0000
0000
,
1000
0000
0000
0000
,
0001
0000
1000
0000
,
0001
0000
1000
0000
,
0002
0000
0000
0000
,
1003
0000
0100
0000
,
0010
0000
0001
0000
,
1000
0000
0001
0000
,
0100
0000
0100
0000
,
0010
0000
0010
0000
,
0100
0000
0001
0000
,
1000
0000
0000
0000
,
1001
0000
0000
0000
,
0100
0000
0100
0000
,
0010
0000
0000
0000
,
0100
0000
0010
0000
,
0010
0000
0000
0000
,
1000
0000
0001
0000
,
1001
0000
0000
0000
,
0001
0000
1000
0000
,
1001
0000
0000
0000
,
0100
0000
0010
0000
,
0100
0000
0001
0000
,
1000
0000
0001
0000
,
1001
0000
1000
0000
,
0001
0000
1000
0000
,
1001
0000
0001
0000
,
1000
0000
0001
0000
,
2000
0000
0000
0000
,
3002
0000
0000
0000
,
2003
0000
0000
0000
,
3001
0000
0000
0000
,
0101
0000
0000
0000
;

//---------------dance-single - ----------------
#NOTES:
     dance-single:
     :
     Medium:
     6:
     0.309497,0.380084,0.142531,0.076017,0.000000,228.000000,213.000000,15.000000,8.000000,0.000000,0.000000,0.309497,0.380084,0.142531,0.076017,0.000000,228.000000,213.000000,15.000000,8.000000,0.000000,0.000000:
// measure 0
0000
0000
0000
0000
,  // measure 1
0000
0000
0000
0000
,  // measure 2
0000
0000
0000
0000
,  // measure 3
0000
0000
0000
0000
,  // measure 4
0110
0000
0000
0000
,  // measure 5
0100
0000
0000
0000
,  // measure 6
0100
0000
0000
0000
,  // measure 7
0010
0000
0000
0000
,  // measure 8
0100
0000
0000
0000
,  // measure 9
0010
0000
0000
0000
0000
1000
0000
0000
,  // measure 10
0001
0000
0000
0000
,  // measure 11
1000
0001
1000
0100
,  // measure 12
0010
0000
0001
0000
0000
0001
0000
1000
,  // measure 13
0000
0000
1001
0010
,  // measure 14
0100
0000
0000
0100
0000
0100
0000
0000
,  // measure 15
0100
0000
1001
0000
,  // measure 16
0100
0000
0000
0001
0000
1000
0000
0000
,  // measure 17
0010
0000
0000
0100
0001
0000
0001
0000
,  // measure 18
1000
0000
0000
0010
0000
1000
0000
0000
,  // measure 19
0001
0000
0000
0100
0001
0000
0000
0000
,  // measure 20
1000
0100
0010
0001
,  // measure 21
1000
0000
0000
0001
1000
0000
0000
0000
,  // measure 22
0001
0010
0100
1000
,  // measure 23
0100
0000
0000
0010
0001
0000
0000
0000
,  // measure 24
0100
0000
0000
0100
0000
0100
0000
0000
,  // measure 25
0010
0000
0000
0010
0100
0000
0000
0000
,  // measure 26
1000
0000
0000
0010
0000
0010
0000
0000
,  // measure 27
0200
0000
0010
0000
,  // measure 28
0310
1000
0100
0001
,  // measure 29
0100
1000
0010
0100
,  // measure 30
0001
0000
1001
0000
,  // measure 31
0100
0000
0000
0010
0100
0000
0000
0000
,  // measure 32
0100
0010
0100
0010
,  // measure 33
0100
0000
0000
0001
1000
0000
0000
0000
,  // measure 34
0001
1000
0001
1000
,  // measure 35
0100
0000
0000
0010
0001
0000
0000
0000
,  // measure 36
0110
0000
1000
0100
,  // measure 37
0001
0000
0100
1000
,  // measure 38
0100
0001
0010
0010
,  // measure 39
0001
0000
0000
0001
0100
0000
0000
0000
,  // measure 40
1000
0001
1000
0001
,  // measure 41
0100
0100
0100
0100
,  // measure 42
0110
0000
0010
0000
,  // measure 43
0110
0000
0000
0010
0000
0000
0010
0000
,  // measure 44
0100
0000
0001
1000
,  // measure 45
0010
0000
1000
0100
,  // measure 46
0010
0000
0010
0100
,  // measure 47
1000
0000
0010
0100
,  // measure 48
0010
0000
0100
0001
,  // measure 49
0100
0001
0100
0010
,  // measure 50
1000
0001
0100
0100
,  // measure 51
0001
1000
0100
0010
,  // measure 52
0002
0000
1000
0000
,  // measure 53
1003
0000
0000
1000
0001
0000
0100
0000
,  // measure 54
0010
0000
0000
0010
0000
0010
0000
0000
,  // measure 55
0010
0000
0000
0010
0100
0000
0000
0000
,  // measure 56
1001
0000
0000
1000
0000
1000
0000
0000
,  // measure 57
0001
0000
0000
1000
0100
0000
0001
0000
,  // measure 58
0100
0000
1000
0000
,  // measure 59
0002
0000
1003
0000
,  // measure 60
0100
0000
0000
0100
0000
0100
0000
0000
,  // measure 61
2000
0000
0000
3001
1000
0000
0100
0000
,  // measure 62
0001
0100
1000
0000
,  // measure 63
1000
0000
0000
0001
0100
0000
0000
0000
,  // measure 64
0100
0000
0000
0100
0000
0100
0000
0000
,  // measure 65
0001
0000
0000
0001
1000
0000
0100
0000
,  // measure 66
0010
0000
0000
0100
0000
0100
0000
0000
,  // measure 67
2000
0000
0000
3000
,  // measure 68
0001
0000
0000
0001
0000
1000
0000
0110
,  // measure 69
0000
0000
1010
0000
,  // measure 70
1001
0000
0000
0001
0000
1000
0000
1100
,  // measure 71
0000
0000
1001
0000
,  // measure 72
0001
0000
0000
1000
0000
0100
0000
1000
,  // measure 73
0000
0000
0101
0000
,  // measure 74
0100
0000
0000
0001
0000
1000
0000
0001
,  // measure 75
0000
0000
1001
0000
,  // measure 76
2000
0000
0000
0000
,  // measure 77
3200
0000
0000
0000
,  // measure 78
2300
0000
0000
0000
,  // measure 79
3001
0000
0000
0000
,  // measure 80
0100
0000
0000
0000
;

//---------------dance-single - ----------------
#NOTES:
     dance-single:
     :
     Hard:
     8:
     0.548406,0.646142,0.247054,0.313569,0.047510,404.000000,378.000000,26.000000,33.000000,0.000000,0.000000,0.548406,0.646142,0.247054,0.313569,0.047510,404.000000,378.000000,26.000000,33.000000,0.000000,0.000000:
0000
0000
0000
0000
,
0000
0000
0000
0000
,
0000
0000
0000
0000
,
0000
0000
0000
0000
0000
0000
0000
1000
,
0000
0000
0000
0001
,
1000
0000
0000
0000
0000
0010
0001
0000
,
0100
0000
0000
0010
,
0100
0000
0000
1000
,
0001
0000
0000
2000
,
3020
0000
0030
0000
0000
0200
0000
0300
,
0020
0030
0000
1000
,
1000
0001
1000
0001
1000
0001
0010
0100
,
0010
0000
0010
0100
0000
1000
0000
1001
,
0000
0000
0100
0010
0100
0000
0001
1000
,
1001
0000
1000
0001
0000
0100
0000
0000
,
0110
0000
0010
0100
0010
0000
0100
0001
,
0100
0000
0001
0010
0000
0200
0300
2000
,
0000
3000
0001
0010
1000
0000
0001
0010
,
0011
0000
0010
0001
0000
0002
0000
0003
,
2000
0000
3001
0010
0100
0000
0100
0010
,
0001
0000
0100
0001
0000
0001
0000
0100
,
0001
0100
0001
0100
0010
0010
1000
0100
,
1001
0000
1000
0010
0000
0100
0000
0020
,
0000
0030
0100
0010
0100
0000
0100
0010
,
1000
0000
0010
0100
0000
0010
0000
2000
,
0000
3000
0010
1000
0010
0000
0100
0001
,
0100
0000
0010
0010
0000
0100
0000
0000
,
0020
0000
0030
0000
,
0100
0000
0000
0100
0001
0000
0010
0000
0100
0000
1000
0000
0001
0000
0010
0000
,
0100
0010
0001
0010
1000
0010
0100
0000
,
0101
0000
1000
0000
0010
0000
0000
1000
0100
0000
0010
0000
0001
0000
0000
0000
,
0001
0100
0010
1000
0010
0010
0100
0000
,
0001
1000
1000
1000
0010
0100
1000
0000
,
0001
0010
0100
1000
0010
0000
1001
0000
,
1000
0010
0100
0010
1000
0010
0100
0100
,
0001
0001
1000
1000
0010
0100
0010
0000
,
0100
0110
0000
0001
1000
0010
1000
1000
,
0001
0010
1000
0010
0001
1000
0001
0000
,
0100
0010
0100
0010
1000
0100
0010
0000
,
0100
0010
0001
0010
0100
0010
0001
0000
,
0100
0110
0000
0001
1000
0010
1000
0100
,
0010
0000
0100
0010
0100
0000
0001
0000
,
1010
0000
0000
0000
0000
0000
0010
0000
0100
0000
0010
0000
0000
0000
0000
0100
,
0010
0000
0000
1000
0001
0000
0000
0100
0010
0000
0000
0100
0001
0000
0000
0000
,
0101
0000
0000
0000
0000
0000
0100
0000
0010
0000
0200
0000
0000
0300
0000
0000
,
1000
0000
0000
0010
0000
0000
0100
0000
0001
0000
0000
0000
0100
0000
0000
0000
,
0010
1000
1000
0100
0100
0010
0000
0010
,
0100
0100
1000
0010
0010
0000
0100
0000
,
0110
0000
0010
0000
1000
0001
0100
0010
,
0100
0010
0100
0000
0001
1000
0100
0010
,
0100
1000
0100
0000
1010
0000
0110
0000
,
0011
0000
1000
0010
1000
0010
0100
0010
,
2000
0000
0001
0001
3000
0010
0000
1001
,
0000
0000
0100
0010
0100
0001
0001
0010
,
0100
0000
0010
0100
0000
1000
0000
2001
,
0000
3000
0100
0010
0100
0000
0001
1000
,
0110
0000
0000
0000
0100
0000
0010
0000
0000
0000
0100
0001
0000
0000
0020
0000
,
0000
0000
1030
0100
1000
0000
0010
0010
,
0100
0000
0100
0010
0000
0200
0000
0320
,
0000
0030
1000
0001
1000
0000
1000
0100
,
0010
0000
0000
0000
0100
0000
0000
0010
0000
0000
0001
0000
0000
0000
0010
0000
,
0002
0000
0003
0000
0000
1000
1000
0010
,
0100
0000
0001
0100
0000
0010
0000
0220
,
0000
0330
0100
0001
,
1001
0000
0100
0010
0000
0200
0000
0302
,
0000
0000
0013
0100
0010
0000
0001
0010
,
0100
0000
0010
0011
0000
0100
0000
0000
,
0020
0000
0130
0001
0100
0000
0001
0000
,
0110
0000
1000
0010
0000
0100
0010
0100
,
0000
0020
0000
1000
,
1030
0000
0100
0020
0000
0000
0130
0000
,
0000
0000
0100
0001
0100
0002
0000
0003
,
1010
0000
0100
0001
0000
0100
0010
0100
,
0010
0000
0000
0100
0010
0000
0000
0000
1000
0000
1000
0000
0010
0000
0100
0000
,
0010
0200
0000
0001
,
0301
0100
0002
0000
0000
0000
0003
0000
,
0220
0000
0000
0330
,
0100
0000
0000
0020
0000
0000
0030
0000
,
2002
0000
0000
3003
,
0001
0000
0100
0010
0100
0000
0000
0000
,
0110
0000
0000
0000
;
