#VERSION:0.83;
#TITLE:Cloud Nine;
#SUBTITLE:;
#ARTIST:Grant Bowtie;
#TITLETRANSLIT:;
#SUBTITLETRANSLIT:;
#ARTISTTRANSLIT:;
#GENRE:;
#ORIGIN:;
#CREDIT:;
#BANNER:;
#BACKGROUND:;
#PREVIEWVID:;
#JACKET:;
#CDIMAGE:;
#DISCIMAGE:;
#LYRICSPATH:;
#CDTITLE:;
#MUSIC:Grant Bowtie - Cloud Nine.ogg;
#OFFSET:-0.110000;
#SAMPLESTART:6.100000;
#SAMPLELENGTH:18.000000;
#SELECTABLE:YES;
#BPMS:0.000=160.000;
#STOPS:;
#DELAYS:;
#WARPS:;
#TIMESIGNATURES:0.000=4=4;
#TICKCOUNTS:0.000=4;
#COMBOS:0.000=1;
#SPEEDS:0.000=1.000=0.000=0;
#SCROLLS:0.000=1.000;
#FAKES:;
#LABELS:0.000=Song Start;
#BGCHANGES:;
#KEYSOUNDS:;
#ATTACKS:
;

//---------------dance-single - ----------------
#NOTEDATA:;
#CHARTNAME:;
#STEPSTYPE:dance-single;
#DESCRIPTION:;
#CHARTSTYLE:;
#DIFFICULTY:Beginner;
#METER:2;
#RADARVALUES:0.113596,0.192872,0.093052,0.169186,0.000000,94.000000,83.000000,11.000000,20.000000,0.000000,0.000000,0.000000,0.000000,0.000000,0.113596,0.192872,0.093052,0.169186,0.000000,94.000000,83.000000,11.000000,20.000000,0.000000,0.000000,0.000000,0.000000,0.000000;
#CREDIT:;
#NOTES:
0020
0000
0000
0000
,
0000
0000
0000
0000
,
0000
0000
0000
0000
,
0030
0000
0000
0000
,
0010
0000
0000
0001
,
0000
0000
0000
0000
,
1000
0000
0000
0001
,
0000
0000
0000
0000
,
1000
0000
0000
0010
,
0000
0000
0000
0000
,
0100
0000
0000
0010
,
0000
0000
0000
0000
,
1001
0000
0000
0010
,
0000
0000
0000
0000
,
0001
0000
0000
0010
,
0000
0000
0000
0000
,
1010
0000
0000
0100
,
0000
0000
0000
0000
,
0010
0000
0000
0010
,
0000
0000
1000
0000
,
2000
0000
0000
0000
,
0000
0000
0000
0000
,
0000
0000
0000
0000
,
0000
0000
0000
0000
,
0000
0000
0002
0000
,
0000
0000
3000
0000
,
0000
0000
0000
0000
,
0000
0000
0000
0003
,
2000
0000
0000
0000
,
3020
0000
0000
0000
,
0230
0000
0000
0000
,
0302
0000
0000
0000
,
2003
0000
0000
0000
,
3020
0000
0000
0000
,
0230
0000
0000
0000
,
0302
0000
0013
0000
,
0020
0000
0030
0000
,
0001
0000
1000
0000
,
0200
0000
0310
0000
,
0001
0000
1000
0000
,
0020
0000
0030
0000
,
0100
0000
0001
0000
,
0002
0000
0003
0000
,
1000
0000
0001
0000
,
0002
0000
0000
0000
,
0000
0000
0000
0000
,
2003
0000
0000
0000
,
0000
0000
0000
0000
,
3002
0000
0000
0000
,
0000
0000
0000
0000
,
2003
0000
0000
0000
,
0000
0000
3000
0000
,
0001
0000
0010
0000
,
0000
0000
0100
0000
,
0011
0000
1000
0000
,
0000
0000
0001
0000
,
1100
0000
0010
0000
,
0000
0000
0100
0000
,
0101
0000
0001
0000
,
0000
0000
0100
0000
,
0000
0110
0000
0110
,
0000
0000
0010
0000
,
0100
0000
0001
0000
,
0000
0000
1000
0000
,
1001
0000
1000
0000
,
0000
0000
0010
0000
,
0001
0000
1000
0000
,
0000
0000
0010
0000
,
0001
0000
0100
0000
,
0000
0000
0020
0000
,
0130
0000
1000
0000
,
0000
0000
0110
0000
,
0001
0000
1000
0000
,
0000
0000
0110
0000
,
0110
0000
0001
0000
,
0000
0000
1000
0000
,
0010
0000
0000
0000
;

//---------------dance-single - ----------------
#NOTEDATA:;
#CHARTNAME:;
#STEPSTYPE:dance-single;
#DESCRIPTION:;
#CHARTSTYLE:;
#DIFFICULTY:Easy;
#METER:4;
#RADARVALUES:0.182479,0.258855,0.109971,0.186105,0.000000,151.000000,138.000000,13.000000,22.000000,0.000000,0.000000,0.000000,0.000000,0.000000,0.182479,0.258855,0.109971,0.186105,0.000000,151.000000,138.000000,13.000000,22.000000,0.000000,0.000000,0.000000,0.000000,0.000000;
#CREDIT:;
#NOTES:
2000
0000
0000
0000
,
0000
0000
0000
0000
,
0000
0000
0000
0000
,
3000
0000
0010
0000
,
0010
0100
0010
1000
,
0000
0000
0010
0000
,
1000
0000
0000
0010
0000
0000
0100
0000
,
0000
0001
0010
0001
,
1000
0000
1000
0010
,
0000
0000
0010
0000
,
1000
0001
0010
0010
,
0000
0000
0100
0000
,
1001
0000
0000
0110
,
0000
0000
0100
0000
,
0001
0000
0000
1000
0000
0000
0010
0000
,
0000
0000
0100
0000
,
1010
0000
0000
0001
,
0000
0000
0010
0000
,
0001
0000
0000
0001
0000
0000
1000
0000
,
0000
0000
0010
0000
,
2002
0000
0000
0000
,
0000
0000
0000
0000
,
0003
0000
0000
0000
,
0000
0000
0000
0000
,
0000
0000
0002
0000
,
0000
0000
3000
0000
,
1000
0000
1000
0000
,
1000
0000
1000
0003
,
1000
0000
0001
0000
,
0010
0000
0100
0000
,
0001
0000
0010
0000
,
0100
0000
1000
0000
,
1000
0100
1000
0000
,
1000
0100
0010
0001
,
1000
0000
0010
1000
,
0010
1000
0010
0000
,
0020
0000
0030
1000
,
0010
0000
1000
0100
,
0020
0000
0031
0100
,
0001
0000
1000
0010
,
0200
0000
0301
0001
,
0010
0000
0100
0001
,
0200
0000
0310
0100
,
0001
0000
1000
0001
,
0002
0000
0000
0000
,
0000
0000
0000
0000
,
2003
0000
0000
0000
,
0000
0000
0000
0000
,
3200
0000
0000
0000
,
0000
0000
0000
0000
,
0320
0000
0000
0000
,
0000
0000
0030
0000
,
1001
0000
0010
0200
,
0000
0000
0301
0000
,
0011
0000
0001
2000
,
0000
0000
3010
0000
,
1001
0000
0010
2000
,
0000
0000
3001
0000
,
0110
0000
1000
0002
,
0000
0000
0103
0000
,
0000
0100
0000
0110
,
0000
0000
0010
0100
,
0010
0000
1000
0200
,
0000
0000
0300
0000
,
1000
0000
0001
0020
,
0000
0000
0031
0000
,
1001
0000
1000
0020
,
0000
0000
1030
0000
,
0001
0000
0010
0001
,
0000
0000
0200
0000
,
0301
0000
1000
0010
,
0000
0000
0100
0100
,
0001
0000
0110
0000
,
0000
0000
1010
0000
,
0110
0000
0010
0200
,
0000
0000
0301
0000
,
0020
0000
0030
0000
;

//---------------dance-single - ----------------
#NOTEDATA:;
#CHARTNAME:;
#STEPSTYPE:dance-single;
#DESCRIPTION:;
#CHARTSTYLE:;
#DIFFICULTY:Medium;
#METER:6;
#RADARVALUES:0.292450,0.420639,0.219942,0.203023,0.000000,242.000000,216.000000,26.000000,24.000000,0.000000,0.000000,0.000000,0.000000,0.000000,0.292450,0.420639,0.219942,0.203023,0.000000,242.000000,216.000000,26.000000,24.000000,0.000000,0.000000,0.000000,0.000000,0.000000;
#CREDIT:;
#NOTES:
// measure 0
2000
0000
0000
0000
,  // measure 1
0000
0000
0000
0000
,  // measure 2
0000
0000
0000
0000
,  // measure 3
3000
0000
0010
0000
,  // measure 4
0010
0000
0100
0001
0010
0000
0001
0000
,  // measure 5
0001
1000
0100
0000
0010
0001
0000
0000
,  // measure 6
0001
0000
0100
0010
0100
0000
0001
0000
,  // measure 7
0000
0010
0001
0000
0010
0001
1000
0000
,  // measure 8
1000
0000
0001
0010
0100
0000
0010
0000
,  // measure 9
0010
0001
0100
0000
0001
1000
0000
0000
,  // measure 10
1000
0000
0001
0100
0000
0000
0011
0000
,  // measure 11
0000
0001
0010
0000
0100
0000
0000
0000
,  // measure 12
1001
0000
0010
0100
0010
0000
0100
0000
,  // measure 13
0100
0001
0100
0000
0001
0000
0000
0000
,  // measure 14
0100
0000
0001
1000
0001
0000
0010
0000
,  // measure 15
0000
0001
1000
0000
0100
0000
0000
0000
,  // measure 16
1010
0000
0010
0100
0001
0000
1000
0000
,  // measure 17
1000
0010
0100
0000
0001
0010
0000
0000
,  // measure 18
0011
0000
0000
1001
0000
0000
0100
0000
,  // measure 19
0000
0000
0001
0000
0010
0001
0000
0000
,  // measure 20
2001
0000
0000
0000
,  // measure 21
0000
0000
0000
0000
,  // measure 22
0000
0000
0000
0000
,  // measure 23
0000
0000
0000
0000
,  // measure 24
0000
0000
0002
0000
,  // measure 25
0000
0000
3000
0000
,  // measure 26
1000
0000
1000
0000
,  // measure 27
1000
0000
1000
0003
,  // measure 28
1000
0100
0010
0100
,  // measure 29
0010
0000
0001
0000
0100
0000
0010
0100
,  // measure 30
0001
0000
0010
0000
0010
0000
0001
1000
,  // measure 31
0010
0000
0100
0000
0001
0000
1000
0010
,  // measure 32
1000
0000
0001
0000
0001
0000
1000
0010
,  // measure 33
0100
0000
0001
0000
0001
0000
1000
0100
,  // measure 34
0010
0000
0100
0000
0100
0000
1000
0001
,  // measure 35
1000
0100
0010
0000
,  // measure 36
1020
0000
0000
0230
0000
0000
0000
0000
,  // measure 37
0000
0300
0000
0100
,  // measure 38
0200
0000
0000
2300
0000
0000
0000
0000
,  // measure 39
0000
0000
3100
0000
1000
0000
0010
0100
,  // measure 40
0020
0000
0000
0230
0000
0000
0000
0000
,  // measure 41
0010
0000
0300
0000
0100
0000
0001
0100
,  // measure 42
0002
0000
0000
2003
0000
0000
0000
0000
,  // measure 43
0000
3000
0100
1000
,  // measure 44
0002
0000
0000
2000
0000
0000
0000
0000
,  // measure 45
0000
0000
0000
0000
0000
3000
0003
0000
,  // measure 46
2000
0000
0000
0002
0000
0000
0000
0000
,  // measure 47
0000
0000
0000
0000
0000
0003
3000
0000
,  // measure 48
0200
0000
0000
0020
0000
0000
0000
0000
,  // measure 49
0000
0000
0000
0000
0000
0030
0300
0000
,  // measure 50
0020
0000
0000
0002
0000
0000
0000
0000
,  // measure 51
0000
0000
0033
0000
,  // measure 52
1001
0000
0000
0100
0010
0000
0100
0000
,  // measure 53
0000
0110
0000
0000
0001
0000
0000
0000
,  // measure 54
0101
0000
0000
0100
0010
0000
0110
0000
,  // measure 55
0000
1001
0000
0000
0010
0100
0010
0000
,  // measure 56
0100
0000
0000
0100
0010
0000
0100
0000
,  // measure 57
0000
0101
0000
0000
0001
0000
0000
0000
,  // measure 58
1000
0000
0000
1000
0001
0000
0011
0000
,  // measure 59
0000
0101
0000
0000
0002
0000
0003
0000
,  // measure 60
0000
0000
0100
0000
0000
0010
1000
0000
,  // measure 61
0000
1100
0000
0000
1000
0000
0010
0000
,  // measure 62
0100
0000
0000
0100
0010
0000
0110
0000
,  // measure 63
0000
0101
0000
0000
0010
0000
0000
0000
,  // measure 64
1001
0000
0000
0001
1000
0000
1001
0000
,  // measure 65
0000
0110
0000
0000
0001
0000
0000
0000
,  // measure 66
0011
0000
0000
0001
1000
0000
0001
0000
,  // measure 67
0000
2002
0000
0000
3003
0000
0000
0000
,  // measure 68
0001
0010
0100
0010
,  // measure 69
0000
0002
0000
0003
1000
0000
1000
0000
,  // measure 70
0100
0000
0010
0001
,  // measure 71
0001
0000
0000
0000
,  // measure 72
0011
0000
0000
0000
1000
0000
0000
1000
,  // measure 73
0000
0001
0000
0000
0010
0001
0010
0000
,  // measure 74
0011
0000
0000
0010
0100
0000
0100
0000
,  // measure 75
0000
1001
0000
0000
0010
0000
0000
0000
,  // measure 76
0020
0000
0030
0000
;

//---------------dance-single - ----------------
#NOTEDATA:;
#CHARTNAME:;
#STEPSTYPE:dance-single;
#DESCRIPTION:;
#CHARTSTYLE:;
#DIFFICULTY:Hard;
#METER:8;
#RADARVALUES:0.490640,0.614780,0.439884,0.279157,0.059215,406.000000,354.000000,52.000000,33.000000,0.000000,0.000000,0.000000,0.000000,0.000000,0.490640,0.614780,0.439884,0.279157,0.059215,406.000000,354.000000,52.000000,33.000000,0.000000,0.000000,0.000000,0.000000,0.000000;
#CREDIT:;
#NOTES:
2000
0000
0000
0000
,
0000
0000
0000
0000
,
0000
0000
0000
0000
,
3010
0100
0010
0000
0110
0000
0000
0000
,
0010
0000
0100
0001
0000
0010
0001
0100
,
0010
1000
0100
0000
0011
0000
0001
0010
,
0011
0000
0100
0010
0100
1000
0001
0010
,
0001
0010
0001
0000
0010
0001
0001
0000
,
1100
0000
0001
0001
0000
1000
0010
0100
,
0010
1000
1100
0000
0100
0000
1000
0100
,
0010
0001
0001
0100
0010
0100
0010
1000
,
0000
1000
0010
0000
0110
0000
0010
0100
,
1001
0000
0010
0001
0000
0001
0100
0001
,
0010
0010
0001
0000
0110
0000
0100
0010
,
1001
0000
0001
0100
0000
0110
0010
0100
,
0010
1000
0001
0000
0100
0010
0100
0000
,
1010
0000
0100
0001
0000
0010
0001
1000
,
0100
0010
0001
0000
0010
0100
1000
0100
,
0011
0000
0001
0101
0000
0001
0010
0001
,
0000
0010
0100
0000
0010
0011
0000
0000
,
2002
0000
0000
0000
,
0000
0000
0000
0000
,
0003
0000
0000
0000
,
3001
0000
0000
0000
0010
0100
0010
0000
,
0100
0001
0100
0000
1000
0001
0010
0000
,
0100
0001
0100
0000
1001
0000
0001
0000
,
1000
0000
1000
0001
1000
0000
1000
0010
,
1000
0000
0001
0100
0001
0000
1000
0001
,
1000
0100
0010
0001
0001
0010
0001
1000
,
0010
0100
0001
1000
0100
1000
0010
0100
,
0001
0010
0001
0010
0010
0100
0100
1000
,
0010
1000
0001
1000
0010
0100
0001
0000
,
0110
0000
0000
0010
0000
0000
0100
0000
0000
0010
0000
0000
0100
0000
0010
0000
,
0110
0000
0000
0001
0000
0000
0010
0000
0000
0001
0000
0000
0010
0000
0100
0000
,
1001
0000
0000
0010
0000
0000
0001
0000
0000
0010
0000
0000
0001
0000
0010
0000
,
1001
0000
0000
0100
0000
0000
0010
0000
0010
0000
0100
0000
0010
0000
0000
0000
,
0020
0000
0000
0230
0001
0000
0001
0000
,
0310
0000
0001
0000
0010
0001
0010
0001
,
0200
0000
0000
0302
0010
0000
0103
0000
,
0001
0000
0001
0000
0100
0000
0010
0000
1000
0000
0000
0001
1000
0000
0001
0000
,
0020
0000
0000
0230
1000
0000
0010
0000
,
1000
0000
1300
0010
0100
0010
0100
0010
,
2000
0000
0000
3002
0010
0000
0100
0000
,
0013
0000
0100
0001
0010
0001
0100
0000
,
1002
0000
0000
2000
0000
0000
0000
0000
,
0000
0000
0000
0000
0000
3000
0000
0000
,
2003
0000
0000
0002
0000
0000
0000
0000
,
0000
0000
0000
0000
0000
0003
0000
0000
,
3200
0000
0000
0020
0000
0000
0000
0000
,
0000
0000
0000
0000
0000
0030
0000
0000
,
0320
0000
0000
0002
0000
0000
0000
0000
,
0000
0000
0033
0000
,
1001
0000
0000
0000
1000
0000
0000
0000
0000
0000
0100
0010
0200
0000
0000
0000
,
0300
0011
0000
0000
0001
0010
0001
0010
,
0011
0000
0000
0000
0101
0000
0000
0000
0000
0000
0010
0100
0020
0000
0000
0000
,
0030
0110
0000
0000
0010
0100
0001
0010
,
0100
0000
0000
0000
0011
0000
0000
0000
0000
0000
0001
0100
0002
0000
0000
0000
,
0003
0110
0000
0000
0011
0100
0010
0000
,
1001
0000
0000
0000
0010
0000
0000
0000
0000
0000
1000
0010
2000
0000
0000
0000
,
3000
1001
0000
0000
0010
0200
0300
0000
,
0100
0000
0110
0000
0001
0010
0200
0000
,
0300
0011
0000
0000
0100
0010
0100
0010
,
1010
0000
1100
0000
0100
0010
0002
0000
,
0003
1010
0000
0000
0010
0010
0010
0010
,
1001
0000
0010
0100
1001
0000
0200
0000
,
0300
0101
0000
0000
0001
1000
0001
1000
,
0011
0000
0000
0000
0100
0000
0000
0000
0000
0000
0001
0010
0002
0000
0000
0000
,
0003
2002
0000
0000
3003
0000
0000
0000
,
1001
0000
0110
0000
0100
0001
0100
0001
,
0000
0011
0100
0001
0011
0000
0110
0000
,
0010
0001
0010
0100
1000
0010
0100
0110
,
0000
1010
0000
0100
0010
0100
0010
0100
,
1001
0000
0001
0010
0001
0100
0000
0010
,
0000
0100
0000
0000
0010
0100
0010
0100
,
0110
0000
0000
0000
1000
0000
0000
0000
0000
0000
0001
1000
0002
0000
0000
0000
,
0003
1001
0000
0000
0010
0002
0003
0000
,
0120
0000
0030
0000
;

//---------------dance-single - ----------------
#NOTEDATA:;
#CHARTNAME:;
#STEPSTYPE:dance-single;
#DESCRIPTION:;
#CHARTSTYLE:;
#DIFFICULTY:Challenge;
#METER:10;
#RADARVALUES:0.733543,0.905992,0.465262,0.296076,0.676745,607.000000,552.000000,55.000000,35.000000,0.000000,0.000000,0.000000,0.000000,0.000000,0.733543,0.905992,0.465262,0.296076,0.676745,607.000000,552.000000,55.000000,35.000000,0.000000,0.000000,0.000000,0.000000,0.000000;
#CREDIT:;
#NOTES:
2000
0000
0000
0000
,
0000
0000
0000
0000
,
0000
0000
0000
0000
,
3010
0000
0010
0100
0010
0000
0101
0000
0110
0000
0000
0000
0000
0000
0000
0000
,
0110
0000
0100
0001
0000
0010
0001
0100
,
0010
0000
1000
0100
1000
0000
0110
0000
0110
0000
0000
0000
0001
0000
0010
0000
,
1001
0000
0000
0000
0100
0000
0110
0000
0100
0000
0001
0100
0001
0000
0110
0000
,
0000
0000
0010
1000
0100
0000
0000
0000
1010
0000
0101
0000
0101
0000
0000
0000
,
1001
0000
0001
0001
0000
1000
0010
0100
,
0010
0000
1000
0010
0100
0000
0001
0000
0101
0000
0000
0000
1000
0000
0100
0000
,
0110
0000
0001
0000
0001
1000
0100
0000
0010
0000
0001
0000
0010
0000
0001
0000
,
0000
0000
0001
0100
0010
0000
0000
0000
0110
0000
0000
0000
0010
0000
0001
0000
,
1001
0000
0000
0000
0011
0000
0101
0000
0000
0000
0100
0010
0100
0000
0001
0000
,
0010
0000
0001
0100
0001
0000
0000
0000
0100
0000
0010
0000
0100
0000
0010
0000
,
1000
0000
0000
0000
0001
0000
0100
0000
1000
0100
0010
0000
0100
0000
0001
0000
,
0010
0001
1000
0000
0110
0011
0101
0000
,
1010
0000
0000
0000
0011
0000
0011
0000
0000
0000
0100
0001
0100
0000
0001
0000
,
1000
0000
0010
0100
0010
0000
0000
0000
0010
0000
0100
0000
1000
0000
0100
0000
,
0010
0000
1000
0000
0001
1000
0001
0000
0100
0000
0001
0010
0001
0000
1000
0000
,
0001
0000
0100
0001
0100
0000
0000
0000
0010
0000
0011
0000
0000
0000
0000
0000
,
2002
0000
0000
0000
,
0000
0000
0003
0000
,
0001
0000
0000
0000
,
0001
0000
0000
0000
,
0001
0000
0000
0000
,
0002
0000
0000
0000
3003
0000
1000
0001
,
1000
0001
1000
0001
1000
0001
1010
0110
,
1001
0010
1000
0001
1000
0010
1001
0011
,
1001
0000
0100
0000
0010
0100
0010
0100
0010
0000
1000
0000
0100
0001
0100
0001
,
0100
0000
1000
0000
0010
0100
0010
1000
0010
0000
1000
0000
0001
0010
0001
0010
,
0001
0000
0100
0000
0001
0100
0010
1000
0010
0000
0100
0000
0010
0100
0001
0010
,
0001
0000
1000
0000
1000
0010
0100
0001
0100
0000
0001
0000
0010
0001
0010
0100
,
0010
0000
0000
0010
0000
0000
0100
0010
0000
0010
0000
0010
0100
0000
0010
0000
,
0110
0000
0000
0001
0000
0100
0010
0000
0100
0001
0000
0001
0010
0000
0100
0000
,
1001
0000
0000
0010
0000
0100
0001
0000
0010
0100
0000
1000
0001
0000
0010
0000
,
1001
0000
0000
0100
0000
0000
0010
0100
0010
0000
0100
0010
0100
0000
0000
0000
,
0020
0000
0000
0230
0001
0000
0001
0001
,
0310
0000
0001
1000
0001
1000
0001
0000
1000
0100
0010
0100
1000
0010
0100
0000
,
0010
0000
0010
0100
0000
0100
0010
0000
0010
0100
0010
0001
0010
0100
0010
0000
,
0100
0001
0010
0001
1000
0001
0010
0000
1001
0000
0001
0010
0100
0010
0100
0010
,
0002
0000
0000
0000
0000
0000
0203
0000
0310
0000
0000
0000
0100
0010
0100
0001
,
0100
0000
0001
0000
1000
0100
0010
0100
0010
0100
0010
0100
1000
0100
0000
0000
,
0002
1000
1003
0020
0000
0100
0130
0000
,
0100
0001
0010
0001
0010
0100
0010
0100
0010
0001
0010
0001
0010
0000
0000
0000
,
0002
0000
0000
2000
0000
0000
0000
0000
,
0000
0000
0000
0000
0000
3000
0000
0000
,
2003
0000
0000
0000
0001
0000
3002
0000
0000
0000
0000
0000
1003
0010
1000
0010
,
1000
0000
0000
0000
0001
0100
0001
0010
0001
0000
0000
0000
1000
0010
1000
0010
,
0200
0000
0000
0020
0000
0000
0000
0000
,
0000
0000
0000
0000
0000
0030
0000
0000
,
0320
0000
0000
0000
0100
0000
0200
0000
0330
0000
0000
0000
0010
0100
0010
0100
,
0010
1000
0001
1000
0001
1000
0002
0000
0000
0000
0003
0000
0000
0000
0000
0000
,
1001
0000
0000
0010
1000
0000
0010
0100
0010
0000
0100
0010
2000
0000
0000
0100
,
3000
0000
0001
0000
0000
0000
0000
0000
0001
0010
0001
0000
1000
0001
1000
0000
,
0011
0000
0000
0100
0001
0000
0010
0100
1000
0000
0010
0100
0002
0000
0000
0003
,
0010
0100
0020
0000
0030
0000
0000
0000
0010
0001
0010
0001
0010
0100
0010
0100
,
0010
0000
0000
0001
0010
0000
0001
1000
0010
0000
0001
0100
0002
0000
0000
0100
,
0003
0000
0110
0000
0000
0000
0000
0000
0011
0000
0100
0010
0100
0000
1000
0001
,
1000
0000
0000
0100
0010
0000
0001
1000
0010
0000
0100
0001
0020
0000
0000
0030
,
0000
0000
0110
0000
0000
0000
0000
0000
0010
0100
0010
0100
0010
0000
0000
0000
,
0100
0000
0000
0010
0110
0000
1000
0100
0010
0000
0001
0100
0020
0000
0000
0100
,
0030
0000
0110
0000
0000
0000
0000
0000
0100
0010
0100
0010
0100
0000
0010
0000
,
0101
0000
0000
0010
0100
0000
0001
0100
0001
0000
0100
0010
0200
0000
0000
0010
,
0300
0000
1000
0000
0000
0000
0000
0000
1000
0100
1000
0100
0010
0100
0010
0100
,
1000
0000
0000
0010
0100
0000
0010
1000
0001
0000
0100
0010
0200
0000
0000
0300
,
0010
0100
0020
0000
0000
0000
0030
0000
1000
0001
0100
0000
0001
1000
0100
0000
,
0011
0000
0000
0100
0001
0000
1000
0010
1000
0000
0001
0010
0002
0000
0000
0103
,
0000
0000
0000
2002
0000
0000
0000
0000
0000
3003
0000
0000
0100
0000
0010
0000
0100
0000
0010
0000
1000
0000
0001
0000
,
1000
0000
0010
0000
0110
0001
0110
1000
,
0000
0000
0011
0000
0101
0000
0001
0000
0100
0010
1000
0001
0010
0000
0100
1000
,
0000
0000
0000
0000
0010
0100
0010
0000
1000
0010
0000
0010
0000
0010
0100
0000
,
0000
0000
0220
0000
0330
0000
0001
0000
1000
0001
0100
0010
1000
0001
0100
0010
,
0100
0000
0000
0000
0001
0000
0010
0001
0010
0000
0100
0000
0000
1000
0001
0000
,
0000
0100
0010
0000
0000
0000
0000
0000
0010
0100
0001
1000
0001
1000
0001
0000
,
0110
0000
0000
0000
1001
0000
0100
0010
0100
0000
0001
1000
0002
0000
0000
0103
,
0000
0000
1001
0000
0000
0000
0000
0000
0010
0000
0100
0001
1000
0000
0000
0000
,
0120
0000
0030
0000
;
