#VERSION:0.83;
#TITLE:Before You (Rachel Foxx Flip);
#SUBTITLE:;
#ARTIST:J-Louis;
#TITLETRANSLIT:;
#SUBTITLETRANSLIT:;
#ARTISTTRANSLIT:;
#GENRE:;
#ORIGIN:;
#CREDIT:;
#BANNER:;
#BACKGROUND:;
#PREVIEWVID:;
#JACKET:;
#CDIMAGE:;
#DISCIMAGE:;
#LYRICSPATH:;
#CDTITLE:;
#MUSIC:J-Louis - Before You (Rachel Foxx Flip).ogg;
#OFFSET:-0.154000;
#SAMPLESTART:25.611000;
#SAMPLELENGTH:12.640000;
#SELECTABLE:YES;
#BPMS:0.000=115.199,
155.000=99.100,
159.000=91.000,
162.000=82.000,
165.000=74.000,
167.000=69.500,
171.000=65.500;
#STOPS:;
#DELAYS:;
#WARPS:;
#TIMESIGNATURES:0.000=4=4;
#TICKCOUNTS:0.000=4;
#COMBOS:0.000=1;
#SPEEDS:0.000=1.000=0.000=0;
#SCROLLS:0.000=1.000;
#FAKES:;
#LABELS:0.000=Song Start;
#BGCHANGES:;
#KEYSOUNDS:;
#ATTACKS:
;

//---------------dance-single - ----------------
#NOTEDATA:;
#CHARTNAME:;
#STEPSTYPE:dance-single;
#DESCRIPTION:;
#CHARTSTYLE:;
#DIFFICULTY:Medium;
#METER:7;
#RADARVALUES:0.325745,0.369569,0.202901,0.251210,0.178746,236.000000,215.000000,21.000000,26.000000,0.000000,0.000000,0.000000,0.000000,0.000000,0.325745,0.369569,0.202901,0.251210,0.178746,236.000000,215.000000,21.000000,26.000000,0.000000,0.000000,0.000000,0.000000,0.000000;
#CREDIT:;
#NOTES:
0000
0000
0000
0000
,
0000
0000
0000
0000
0000
0200
0000
0300
,
0020
0000
0000
0000
0030
0000
0000
0200
0000
0000
0000
0000
0000
0000
0000
0000
,
0000
0300
0000
0000
0000
0000
0000
0000
0000
0000
0020
0000
0000
0000
0030
0000
,
0100
0002
0000
0000
0103
0000
0000
0020
0000
0000
0000
0000
0030
0000
0000
0000
,
0000
0000
1000
0000
0000
0002
0000
0003
,
0020
0000
0000
0000
0000
0000
0000
0200
0030
0000
0000
0000
0000
0000
0000
0000
,
0000
0300
0000
0000
0000
0000
1000
0000
0010
0000
1000
0000
0010
0000
0000
0000
,
0100
0000
0000
0000
0010
0000
0100
0010
0000
0000
1000
0000
0001
0000
0000
0000
,
0000
0000
0001
0000
1000
0000
1000
0010
0000
0000
0000
0000
0010
0000
0000
0000
,
0100
0000
0001
0000
1100
0000
0000
0001
0000
0000
0000
0010
0100
0000
0000
0000
,
0010
0000
0100
0000
0010
0000
0100
0010
0000
0000
0000
0000
0100
0000
0010
0000
,
0100
0000
0101
0010
1010
0000
0100
0010
,
0011
0000
0000
0000
0100
0001
0000
0100
0001
0000
0000
0000
0200
0000
0000
0000
,
0310
0000
0110
0010
0110
0000
1000
0001
,
1001
0000
0000
0000
1000
0010
0000
1000
0010
0000
0000
0000
0002
0000
0003
0000
,
0020
0000
0000
0100
0030
0000
0000
0100
0000
0010
0000
0100
0000
0000
0000
0000
,
1000
0000
0000
0010
0000
0100
0000
0100
0000
0000
0000
0000
0100
0000
0000
0000
,
0100
0000
0010
0100
0010
0000
1000
0010
,
0100
0000
1000
0001
0100
0000
0010
0000
,
0110
0000
0000
0000
0001
0000
0000
1000
0000
0000
0010
0000
0100
0000
0010
0000
,
0110
0000
0000
0000
0100
0000
0000
0010
0000
0000
0100
0000
0010
0000
0000
0000
,
0020
0030
0100
0000
0020
0030
0100
0001
,
0101
0000
0000
0000
1010
0000
0000
0110
0000
0000
0010
0000
0100
0000
0000
0000
,
0002
0000
0203
0000
0320
0000
1030
0001
,
0100
0000
0000
0000
1000
0000
0000
0010
0000
0000
0000
0000
0000
0000
0010
0000
,
0010
0000
0000
0000
1000
0000
0000
0001
0100
0000
0010
0000
0100
0000
0001
0000
,
1001
0000
0000
0000
1000
0000
0000
0010
0000
0000
0000
0100
0010
0000
0000
0000
,
0001
1000
1001
0010
0100
0001
0010
0001
,
1000
0000
0000
0000
0010
0000
0000
0100
0000
0000
0001
0000
1000
0000
0000
0000
,
0020
0000
0030
0000
0100
0000
0000
0100
0010
0000
1000
0000
0001
0000
0000
0100
,
0010
0000
1000
0000
0001
0000
0000
0001
0010
0000
0100
0000
1000
0000
0000
0000
,
1100
0000
0000
0000
0011
0000
0000
0010
0100
0000
0000
0000
1000
0000
0000
0100
,
1000
0000
0000
0000
0010
0000
0100
0010
0000
0000
1000
0000
0100
0000
0010
0000
,
0100
0000
1000
0001
0001
0000
0001
1000
,
1000
0001
0011
1000
,
1100
0000
0011
0000
0011
0000
1000
0100
,
1000
0001
0010
0010
0001
0000
0010
0000
,
1000
0100
0010
0001
,
0100
0000
0010
0000
0010
0000
0010
0100
,
0010
0000
1000
0100
0020
0030
0100
0010
,
0002
0103
0001
1001
,
0020
0000
0000
0000
0000
0000
0030
2000
0000
0000
0000
0000
3200
0000
0000
0000
,
0300
0000
0000
0000
0000
0100
0000
0000
0010
0000
0200
0000
0020
0000
0000
0330
,
0000
0000
0000
0000
0000
0002
0000
0000
0000
0000
0000
0000
0000
0000
0000
0000
,
0003
0000
0000
0000
;

//---------------dance-single - ----------------
#NOTEDATA:;
#CHARTNAME:;
#STEPSTYPE:dance-single;
#DESCRIPTION:;
#CHARTSTYLE:;
#DIFFICULTY:Hard;
#METER:8;
#RADARVALUES:0.513462,0.499658,0.222224,0.202901,0.719814,372.000000,349.000000,23.000000,21.000000,0.000000,0.000000,0.000000,0.000000,0.000000,0.513462,0.499658,0.222224,0.202901,0.719814,372.000000,349.000000,23.000000,21.000000,0.000000,0.000000,0.000000,0.000000,0.000000;
#CREDIT:;
#NOTES:
// measure 0
0000
0000
0000
0000
,  // measure 1
0000
0000
0000
0000
0000
0220
0000
0330
,  // measure 2
0020
0000
0000
0000
0030
0000
0000
0200
0000
0000
0000
0000
0000
0000
0000
0000
,  // measure 3
0000
0300
0000
0000
0000
0000
0000
0000
0000
0000
0020
0000
0000
0000
0030
0000
,  // measure 4
0100
0000
0001
1000
0100
0010
0001
0010
0000
0100
0010
0100
0010
0000
0000
0000
,  // measure 5
0000
0000
0000
1000
0100
0010
0001
0100
0000
0001
0100
0010
1000
0000
0000
0000
,  // measure 6
0020
0000
0000
0130
0100
0010
1000
0100
0000
0010
0000
0100
0010
0000
0001
0000
,  // measure 7
0000
0000
0000
0000
0000
0001
1000
0002
0003
0110
0000
0110
0000
1000
0001
0000
,  // measure 8
0100
0000
0000
0010
0100
0001
0100
0010
0000
1000
0001
1000
0001
0000
0000
0000
,  // measure 9
0000
0000
0000
0010
1000
0010
1000
0010
0000
1010
0000
0110
0000
0101
0000
0000
,  // measure 10
0100
0000
0000
1000
0100
0010
0001
1000
0100
0000
0010
0001
0000
0100
0000
0000
,  // measure 11
0000
0000
0000
0000
0000
0010
0100
0010
1000
0000
0001
0000
0001
1000
0001
1000
,  // measure 12
0100
0000
0000
0000
0101
0000
0010
1000
0001
0000
0000
0000
0110
0000
0001
1000
,  // measure 13
0010
0000
0000
0000
0000
0010
0001
1000
0000
0011
0000
0200
0000
0020
0330
0000
,  // measure 14
0010
0000
0000
0000
0100
0010
1000
0000
0001
0100
0010
0000
1000
0001
0100
0000
,  // measure 15
1001
0000
0000
0000
0000
1000
0100
1000
0000
0110
0000
0100
0001
0200
0000
0000
,  // measure 16
0320
0030
0000
0100
0000
0001
0000
0100
0000
0010
0000
0100
0000
0000
0001
0010
,  // measure 17
0001
0000
0000
0001
0000
0100
0010
0100
0000
0010
0000
0000
1000
0010
0100
0000
,  // measure 18
0002
0003
0010
0100
0110
0000
1000
0010
,  // measure 19
0101
0000
1000
0001
0000
0100
0001
0100
0010
0100
0000
0010
0000
1000
0001
0010
,  // measure 20
0100
0000
0000
0000
0001
0000
0000
0100
0000
0000
0010
0100
0010
0000
0010
0000
,  // measure 21
1001
0000
0000
0000
0100
0000
0000
0010
0000
0000
0100
0000
0010
0000
0000
0000
,  // measure 22
0020
0000
0030
0000
0100
0000
0000
0010
0000
1000
0001
0000
0100
0000
0001
0100
,  // measure 23
0010
0000
0000
0000
1010
0000
0000
0100
0010
0000
0010
0000
0100
0000
0010
1000
,  // measure 24
0020
0000
1000
0000
0130
0000
0000
0001
0010
0100
1000
0000
1000
0000
0010
0100
,  // measure 25
0001
0000
0000
0000
1001
0000
0000
0010
0000
0000
0010
0000
0000
0000
0100
0010
,  // measure 26
0100
0000
0001
0100
0001
0000
0000
0001
0100
0000
0010
0100
0010
0000
1000
0000
,  // measure 27
1001
0000
0000
0001
1000
0001
0100
0010
0100
0000
0000
0010
0000
0010
0000
0000
,  // measure 28
0001
0000
1000
0100
0010
0000
0000
0001
0100
0001
0010
0000
0010
0000
0001
0100
,  // measure 29
0010
0000
0000
0000
0010
0100
0010
0100
0010
0000
1000
0000
1100
0000
0020
0000
,  // measure 30
0032
0000
0003
0000
0100
0000
0000
0100
0010
1000
0001
0000
0001
0000
1000
0010
,  // measure 31
0100
0000
0000
0000
1000
0001
0010
0001
0000
0100
0000
0100
0000
0010
0000
0000
,  // measure 32
0010
0000
0100
0000
0110
0000
0000
1000
0001
0100
0010
0000
0010
0000
0100
0001
,  // measure 33
0010
0000
0000
0000
0100
0001
0100
0001
0010
0000
0001
0000
1000
0000
0100
0010
,  // measure 34
0001
0000
0000
0000
1000
0000
0001
0010
0001
0000
0001
0010
0001
0000
1000
0100
,  // measure 35
1000
0000
0000
0000
0001
0010
0001
1000
0000
0001
0000
1000
0000
0010
0000
0000
,  // measure 36
1001
0000
0000
0000
0001
0000
1000
0010
1000
0000
0100
0000
1000
0100
1000
0000
,  // measure 37
0100
0000
0000
0000
0010
0001
0010
0001
0000
1000
0100
1000
0000
0010
0000
0000
,  // measure 38
1100
0000
0000
0100
0000
0010
0000
0010
0000
0000
0000
0000
0001
0000
0000
0000
,  // measure 39
0100
0000
0000
0100
0000
0010
0000
0010
0000
0000
1000
0000
0100
0000
0010
0000
,  // measure 40
0110
0000
1000
0100
0020
0030
0100
0010
,  // measure 41
0002
0000
0000
0000
0103
0000
0000
0000
0001
1000
0001
0000
1001
0000
0000
0000
,  // measure 42
0020
0000
0030
0100
0010
0100
1000
0100
0010
1000
0100
0010
0001
0000
0000
0000
,  // measure 43
0000
0000
0100
0010
0100
0001
1000
0010
0100
0001
0100
0020
0000
0000
0030
1000
,  // measure 44
0000
0000
0000
0000
0000
0000
0000
0000
0000
0000
0002
0000
0000
0000
0000
0000
0000
0000
0000
0000
0000
0000
0000
0000
0000
0000
0000
0000
0000
0000
0000
0003
;

//---------------dance-single - ----------------
#NOTEDATA:;
#CHARTNAME:;
#STEPSTYPE:dance-single;
#DESCRIPTION:;
#CHARTSTYLE:;
#DIFFICULTY:Easy;
#METER:3;
#RADARVALUES:0.133887,0.194567,0.048310,0.106281,0.024155,97.000000,92.000000,5.000000,11.000000,0.000000,0.000000,0.000000,0.000000,0.000000,0.133887,0.194567,0.048310,0.106281,0.024155,97.000000,92.000000,5.000000,11.000000,0.000000,0.000000,0.000000,0.000000,0.000000;
#CREDIT:;
#NOTES:
0000
0000
0000
0000
,
0000
0000
0000
0000
,
0000
0000
0000
0000
,
0000
0000
0000
0000
0000
2000
0000
0000
,
3002
0000
0000
0000
,
0003
0000
0000
0000
0000
0200
0000
0000
,
0320
0000
0000
0000
,
0030
0000
0000
0000
0000
1000
0000
0000
,
0001
0000
0000
0000
0000
0000
0000
0100
0000
0000
0000
0000
0000
0000
0000
0000
,
0010
0000
0000
0000
0000
1000
0000
0000
,
0001
0000
0000
0000
0000
0000
0000
0100
0000
0000
0000
0000
0000
0000
0000
0000
,
0010
0000
0000
0000
0000
0100
0000
0000
,
0100
0010
0010
0000
,
1000
0001
0001
0000
,
0100
0010
0010
0000
,
0001
1000
1000
0000
,
0002
0000
0000
0000
,
1003
0000
0000
0000
0000
0010
0000
0000
,
0100
0000
0000
0000
0000
0000
0000
0010
0000
0000
0000
0000
0000
0000
0000
0000
,
0100
0100
0100
0000
,
0110
0000
0010
1000
,
0010
0000
0100
0001
,
0100
0000
0010
0000
,
0100
0000
1000
0000
,
0100
0000
0001
0010
,
0100
0000
0000
0000
,
0210
0000
0301
0000
,
0001
0010
0100
0000
,
2100
0000
3001
0000
,
0100
0010
0001
0000
,
0200
0000
0310
0000
,
0010
1000
0010
0000
,
0100
0000
0010
0010
,
0010
0000
0100
0000
,
0110
0000
0010
0010
,
0010
0000
0100
0100
,
0100
0000
0001
0001
,
0001
0000
1000
0001
,
1000
0000
0000
0000
,
0100
0000
0010
0000
,
0110
1000
0001
0000
,
0100
0010
0010
0200
,
0020
0300
0000
0000
,
0030
0000
0000
0000
0000
0000
0000
0000
0000
0001
0000
0000
0000
0000
0000
0002
,
0000
0000
0000
0003
;
