#VERSION:0.83;
#TITLE:Ajisai no hana;
#SUBTITLE:;
#ARTIST:Frances Maya;
#TITLETRANSLIT:;
#SUBTITLETRANSLIT:;
#ARTISTTRANSLIT:;
#GENRE:;
#ORIGIN:;
#CREDIT:from pop n music 13;
#BANNER:Frances-Maya -Ajisai no hana.png;
#BACKGROUND:;
#PREVIEWVID:;
#JACKET:;
#CDIMAGE:;
#DISCIMAGE:;
#LYRICSPATH:;
#CDTITLE:;
#MUSIC:Frances-Maya -Ajisai no hana.ogg;
#OFFSET:-0.086000;
#SAMPLESTART:21.270000;
#SAMPLELENGTH:17.000000;
#SELECTABLE:YES;
#BPMS:0.000=85.000,
64.000=110.100,
132.000=103.000,
156.000=85.000;
#STOPS:;
#DELAYS:;
#WARPS:;
#TIMESIGNATURES:0.000=4=4;
#TICKCOUNTS:0.000=4;
#COMBOS:0.000=1;
#SPEEDS:0.000=1.000=0.000=0;
#SCROLLS:0.000=1.000;
#FAKES:;
#LABELS:0.000=Song Start;
#BGCHANGES:;
#KEYSOUNDS:;
#ATTACKS:
;

//---------------dance-single - ----------------
#NOTEDATA:;
#CHARTNAME:;
#STEPSTYPE:dance-single;
#DESCRIPTION:;
#CHARTSTYLE:;
#DIFFICULTY:Beginner;
#METER:3;
#RADARVALUES:0.134550,0.171652,0.056511,0.009419,0.000000,100.000000,94.000000,6.000000,1.000000,0.000000,0.000000,0.000000,0.000000,0.000000,0.134550,0.171652,0.056511,0.009419,0.000000,100.000000,94.000000,6.000000,1.000000,0.000000,0.000000,0.000000,0.000000,0.000000;
#CREDIT:;
#NOTES:
0000
0000
0000
0100
,
0010
0100
0001
0001
,
1000
0001
0001
0000
,
1001
1000
0100
0010
,
0001
0000
0000
1000
0000
0001
0000
1000
,
0000
0000
0000
0001
0000
1000
0000
0000
,
1001
0000
0100
0000
,
0010
0000
0110
0000
,
0110
0000
0001
0000
,
1000
0000
0001
0010
,
0100
0000
0001
0000
,
1000
0000
1000
0000
,
0100
0010
0001
0010
,
0100
0000
0001
0000
,
1001
0000
1000
0100
,
0010
0000
0001
0000
,
1000
0000
0000
1000
,
0001
0000
0000
0000
,
1000
0000
0000
0000
,
0001
0000
1000
0000
,
0001
0000
0100
0000
,
0001
1000
0001
0000
,
1000
0000
0010
0000
,
0100
0001
0100
0000
,
0001
0000
1000
0000
,
1001
0000
0001
0000
,
1000
0000
0001
0000
,
0100
0000
0010
0000
,
0010
0000
1000
0000
,
1000
0000
0001
0000
,
0001
0000
1000
1000
,
1000
0000
0001
0000
,
0001
0000
1000
0000
,
0001
0000
0001
0000
,
1000
0000
0001
0000
,
1000
1000
0001
0000
,
0001
0001
1000
0000
,
1000
0000
0001
0000
,
0100
0000
0010
0000
,
0100
0000
0001
0000
,
2000
0000
3000
0000
;

//---------------dance-single - ----------------
#NOTEDATA:;
#CHARTNAME:;
#STEPSTYPE:dance-single;
#DESCRIPTION:;
#CHARTSTYLE:;
#DIFFICULTY:Easy;
#METER:6;
#RADARVALUES:0.259682,0.289619,0.216626,0.056511,0.004709,193.000000,170.000000,23.000000,6.000000,0.000000,0.000000,0.000000,0.000000,0.000000,0.259682,0.289619,0.216626,0.056511,0.004709,193.000000,170.000000,23.000000,6.000000,0.000000,0.000000,0.000000,0.000000,0.000000;
#CREDIT:;
#NOTES:
// measure 0
0000
0000
0000
0000
0000
0100
0000
0010
,  // measure 1
0000
0100
0000
0002
0000
0000
1003
0000
,  // measure 2
1000
1001
0001
0010
,  // measure 3
1001
1000
1100
0110
,  // measure 4
0011
0000
0000
1000
0001
1000
0000
1000
,  // measure 5
0001
1000
0000
0001
0000
0010
0000
0000
,  // measure 6
1001
1000
0100
0010
,  // measure 7
0001
1000
1100
0110
,  // measure 8
0110
0000
0000
0000
0001
1000
0001
1000
,  // measure 9
0000
0000
0001
0000
0001
0000
0010
0100
,  // measure 10
0010
0000
1000
0000
0001
1000
0001
1000
,  // measure 11
0000
1001
1100
0010
,  // measure 12
0101
0000
0010
0100
0010
0000
0010
0100
,  // measure 13
0010
0100
1001
1100
,  // measure 14
1001
0000
1000
0100
1000
0100
1000
0200
,  // measure 15
0000
0300
1001
0000
,  // measure 16
1000
1000
1000
1000
,  // measure 17
0001
0000
0100
0001
0100
0000
0001
1000
,  // measure 18
0001
0000
0100
0001
0100
0000
0000
0000
,  // measure 19
1001
0000
1000
0100
1000
0000
1000
0001
,  // measure 20
1000
0000
0010
0100
0010
0000
0100
0000
,  // measure 21
0101
1000
1001
0001
,  // measure 22
1000
0000
0001
0100
0001
0000
1000
0000
,  // measure 23
0110
0000
0001
0000
0100
0010
0100
0000
,  // measure 24
0001
1001
1001
0000
,  // measure 25
1000
0000
0100
0000
1000
0100
1000
0100
,  // measure 26
0000
0000
1000
0000
0001
0000
0100
0001
,  // measure 27
0100
0000
0001
0000
0100
0001
0100
0001
,  // measure 28
0000
0001
1000
0100
,  // measure 29
1000
0100
0001
0100
,  // measure 30
1000
0000
0100
1000
0100
0000
1000
0000
,  // measure 31
1001
0000
0100
0000
0001
0000
1000
0100
,  // measure 32
1000
0000
0001
0000
,  // measure 33
0001
0000
0000
0001
0000
0001
0000
1000
,  // measure 34
0000
0001
0000
0001
0000
2000
0000
3000
,  // measure 35
0000
0000
0001
0000
1000
0000
0000
0002
,  // measure 36
0000
0003
0000
0000
1000
0000
0100
0000
,  // measure 37
1000
0000
0100
0000
0010
0000
0000
0001
,  // measure 38
0000
1000
0000
0010
0000
0100
0000
0000
,  // measure 39
0100
0000
0000
0000
0100
0010
0100
0000
,  // measure 40
0001
0000
0000
1000
0000
0000
0002
0000
0000
0000
0000
0000
0000
2000
0000
0000
0000
0000
0000
0000
0000
0000
0000
0000
,  // measure 41
3003
0000
0000
0000
;

//---------------dance-single - ----------------
#NOTEDATA:;
#CHARTNAME:;
#STEPSTYPE:dance-single;
#DESCRIPTION:;
#CHARTSTYLE:;
#DIFFICULTY:Medium;
#METER:8;
#RADARVALUES:0.348485,0.386159,0.150696,0.113022,0.028256,259.000000,243.000000,16.000000,12.000000,0.000000,0.000000,0.000000,0.000000,0.000000,0.348485,0.386159,0.150696,0.113022,0.028256,259.000000,243.000000,16.000000,12.000000,0.000000,0.000000,0.000000,0.000000,0.000000;
#CREDIT:;
#NOTES:
0000
0000
0000
0100
0010
0100
0000
0020
,
0000
0000
0230
0000
0000
0000
0301
0000
0000
0001
1000
0000
0001
0000
0000
0000
,
1000
0000
0100
0000
1001
0000
0100
0000
0001
0000
0000
0001
0000
0000
0001
0000
,
1001
1000
1000
0100
0100
0000
0010
0001
,
0011
0000
0001
1000
0001
1000
0000
1000
,
0100
1000
0100
0001
0000
0100
0000
1000
,
1100
0000
0000
0000
1000
0000
0100
0000
0010
0000
0000
0001
0000
0000
0010
0000
,
0001
1000
0001
0100
0100
0010
0110
0100
,
0110
0000
0001
1000
0100
1000
0100
1100
,
0000
0010
0011
0001
0011
1000
0001
0100
,
0020
0000
1030
0100
0010
0001
1000
2000
,
0000
3000
0001
0010
0100
1000
0100
0010
,
0001
0100
0010
0200
0310
0010
0100
0200
,
0000
0310
0100
0001
1001
0000
1100
0000
,
1000
0100
0010
0100
0010
0001
1000
1200
,
0000
0000
1300
0001
2000
0000
0000
0000
,
3001
0001
1000
1000
,
0001
0000
0100
0010
1000
0000
0100
0010
,
1000
0000
0001
0100
0010
0000
0100
0010
,
1000
0000
0010
0100
0010
0000
0001
0010
,
0001
0000
0100
0010
1000
0000
0010
0100
,
0101
0000
1000
0100
0010
0001
1000
0100
,
1000
0000
0001
0010
0001
0000
1000
0100
,
0110
0000
0001
0010
0100
0010
0001
0010
,
0100
0000
0010
0001
0010
0001
0100
0010
,
0200
0000
0301
0000
1000
0100
1000
0100
,
0000
0100
1000
0000
0001
0000
0101
0001
,
0101
0000
0001
0000
0100
0001
0010
0001
,
0000
0001
0100
0000
0010
1000
0100
0010
,
0001
0100
0010
0100
0000
0010
0100
0001
,
0000
1000
0100
0001
0000
0000
1000
0000
,
1000
0000
0010
0100
0001
0100
0001
0010
,
0000
0010
0100
0010
0100
0000
1000
0001
,
0001
0000
1000
0001
0000
0001
0000
1000
,
0000
0100
0000
0100
0000
2000
0001
3000
,
0001
0010
0001
0000
1000
0100
1000
0200
,
0000
0300
1000
0100
,
1000
0100
0010
0100
0010
0001
0000
0100
,
0000
1000
0000
0010
0000
1000
0000
0100
,
0001
0000
0000
0010
0000
0010
0000
0000
0100
0000
0010
0000
0100
0000
0010
0000
,
0001
0000
0000
1000
0000
0000
0002
0000
0000
1000
0000
0000
0000
1000
0000
0000
0000
0000
0000
0000
0000
0000
0000
0000
,
0003
0000
0000
0000
;

//---------------dance-single - ----------------
#NOTEDATA:;
#CHARTNAME:;
#STEPSTYPE:dance-single;
#DESCRIPTION:;
#CHARTSTYLE:;
#DIFFICULTY:Hard;
#METER:9;
#RADARVALUES:0.403650,0.405466,0.178952,0.197789,0.117731,300.000000,281.000000,19.000000,21.000000,0.000000,0.000000,0.000000,0.000000,0.000000,0.403650,0.405466,0.178952,0.197789,0.117731,300.000000,281.000000,19.000000,21.000000,0.000000,0.000000,0.000000,0.000000,0.000000;
#CREDIT:;
#NOTES:
0000
0000
0000
0100
0010
0200
0000
0320
,
1000
0000
1030
0000
0100
0000
0020
0000
0000
0031
1000
0000
1000
0100
1000
0000
,
1100
0000
0100
0000
1000
0000
0100
0000
0010
0000
0000
0001
0000
0000
0100
0000
,
0110
0010
0100
0010
0100
0001
0010
0001
,
0011
0001
0001
1100
0100
0100
1000
0100
,
0010
0000
0001
0100
0001
0000
0002
0000
0000
0000
0203
0000
0000
0000
0300
0000
,
0110
0000
0000
0000
1000
0000
0100
0000
0010
0000
0000
0001
0000
0000
0010
0000
,
0001
0000
1000
0000
0100
1000
0100
0000
0110
0000
0001
0000
0011
0000
0100
0000
,
0110
0000
0000
0000
0010
0000
0100
0000
0100
0000
0001
0000
0100
0010
0200
0000
,
0000
0310
0110
1000
0100
0001
0100
1000
,
0010
0000
0010
0000
1010
0000
0100
0000
0110
0000
0001
0000
1000
0100
2000
0000
,
0000
0000
3001
0000
0001
0000
0010
0000
0001
0010
0001
0000
1000
0100
1000
0000
,
0001
0000
0001
0000
0010
0100
0010
0000
0001
0000
0010
0000
0100
0000
2000
0000
,
0000
3010
0100
0010
0200
0300
0002
1003
,
1000
0100
0010
0001
1000
0001
1000
2000
,
0000
3001
0001
0001
2000
0000
0000
0000
,
3001
0001
1000
1000
,
0001
0000
0100
0010
0100
0000
0010
0100
,
0010
0000
0010
0001
0010
0000
1000
0010
,
1000
0000
1000
0100
1000
0000
0100
0001
,
0100
0000
0010
0001
1000
0100
0110
0001
,
0101
0000
0000
0000
1000
0100
0000
0010
0001
0000
1000
0000
0100
0000
0100
0000
,
1000
0100
0010
0001
0100
0000
0010
0100
,
0110
0000
0000
0000
0010
0100
0000
0010
1000
0000
0010
0000
0100
0000
0010
0000
,
0110
0001
0011
0010
0001
0001
0100
0100
,
0200
0000
0301
1000
0001
0100
1000
0100
,
0000
0100
0001
0010
0001
0000
0101
0100
,
0001
1000
0100
1000
0001
0010
0001
0020
,
0000
0031
0100
0010
0100
1000
0100
0001
,
1000
0100
0010
0100
0010
0001
0100
0001
,
0000
1000
0100
1100
0000
0010
1010
0000
,
1000
0100
0010
0001
0001
0100
0010
0200
,
0000
0310
0100
0001
0100
0000
0001
1000
,
0001
0000
0000
0000
1000
0000
0001
0000
0000
0100
0001
0000
0000
1000
0010
0000
,
0000
0000
0100
0000
0010
0100
0010
0000
2000
0000
0000
0000
3001
0010
0001
0000
,
0000
0000
0100
0000
0001
0100
1000
0200
,
0000
0001
0301
1000
0002
0000
0003
0000
,
0100
0000
0001
0000
0010
0000
0100
0000
0010
0001
0010
0000
0000
0000
0100
0000
,
0000
0000
1000
0000
0000
0000
0010
0000
0000
0000
1000
0000
0000
0000
0100
0010
,
0100
0000
0000
2000
0000
3020
0000
0030
0100
0000
0010
0100
0010
0000
0100
0000
,
0001
0000
0000
1000
0000
0000
0002
0000
0000
0000
0000
0000
0000
1000
0000
0000
0000
0000
0000
0000
0000
0000
0000
0000
,
0003
0000
0000
0000
;
