#VERSION:0.83;
#TITLE:Ai ga yukou;
#SUBTITLE:;
#ARTIST:Headstand Hipopotamus;
#TITLETRANSLIT:;
#SUBTITLETRANSLIT:;
#ARTISTTRANSLIT:;
#GENRE:;
#ORIGIN:;
#CREDIT:from pop n music 9 AC / 7 CS;
#BANNER:Headstand Hipopotamus - Ai ga yukou.png;
#BACKGROUND:;
#PREVIEWVID:;
#JACKET:;
#CDIMAGE:;
#DISCIMAGE:;
#LYRICSPATH:;
#CDTITLE:Popn_music_9_logo_small.png;
#MUSIC:Headstand Hipopotamus - Ai ga yukou.mp3;
#OFFSET:-0.401000;
#SAMPLESTART:44.359001;
#SAMPLELENGTH:16.000000;
#SELECTABLE:YES;
#BPMS:0.000=120.000;
#STOPS:;
#DELAYS:;
#WARPS:;
#TIMESIGNATURES:0.000=4=4;
#TICKCOUNTS:0.000=4;
#COMBOS:0.000=1;
#SPEEDS:0.000=1.000=0.000=0;
#SCROLLS:0.000=1.000;
#FAKES:;
#LABELS:0.000=Song Start;
#BGCHANGES:;
#KEYSOUNDS:;
#ATTACKS:
;

//---------------dance-single - ----------------
#NOTEDATA:;
#CHARTNAME:;
#STEPSTYPE:dance-single;
#DESCRIPTION:;
#CHARTSTYLE:;
#DIFFICULTY:Beginner;
#METER:2;
#RADARVALUES:0.089540,0.120534,0.012053,0.012053,0.000000,52.000000,51.000000,1.000000,1.000000,0.000000,0.000000,0.000000,0.000000,0.000000,0.089540,0.120534,0.012053,0.012053,0.000000,52.000000,51.000000,1.000000,1.000000,0.000000,0.000000,0.000000,0.000000,0.000000;
#CREDIT:;
#NOTES:
0000
0000
0000
0000
,
0001
0000
0000
0000
,
1000
0000
0000
0000
,
0001
0000
0000
0000
,
1000
0000
0000
0000
,
1001
0000
1000
0000
,
0000
0001
0000
0000
,
0010
0000
0000
0000
,
0100
0000
0000
0000
,
1000
0000
0000
0000
,
0001
0000
0000
0000
,
1000
0000
0100
0000
,
2000
0000
3000
0000
,
0001
0000
0010
0000
,
0001
0000
0000
0000
,
0100
0000
0000
0000
,
0010
0000
0000
0000
,
0100
0000
0000
0000
,
0001
0000
0000
0000
,
1000
0000
0000
0000
,
0001
0000
0000
0000
,
1000
0000
1000
0000
,
1000
0000
0000
0000
,
0001
0000
0100
0000
,
0001
0000
0000
0000
,
0100
0000
0010
0000
,
0100
0000
0000
0000
,
0010
0000
0100
0000
,
0001
0000
0000
0000
,
1000
0000
0000
0000
,
0001
0000
0000
0000
,
1000
0000
0000
0000
,
0010
0000
0000
0000
,
1000
0000
0010
0000
,
0000
0000
0000
0100
,
0000
0010
0000
0100
,
0000
0001
0000
1000
,
0000
0001
0000
1000
,
0000
0000
0000
0001
,
0001
0000
0000
0000
,
0100
0000
0000
0000
;

//---------------dance-single - ----------------
#NOTEDATA:;
#CHARTNAME:;
#STEPSTYPE:dance-single;
#DESCRIPTION:;
#CHARTSTYLE:;
#DIFFICULTY:Easy;
#METER:6;
#RADARVALUES:0.289282,0.312410,0.156694,0.120534,0.000000,168.000000,155.000000,13.000000,10.000000,0.000000,0.000000,0.000000,0.000000,0.000000,0.289282,0.312410,0.156694,0.120534,0.000000,168.000000,155.000000,13.000000,10.000000,0.000000,0.000000,0.000000,0.000000,0.000000;
#CREDIT:;
#NOTES:
0000
0000
0000
0000
0000
0000
0000
0002
,
0000
0000
1003
0000
0010
0000
0100
0010
,
0100
0000
0001
0000
1000
0000
0001
1000
,
0001
0000
1000
0000
0000
0010
0010
0010
,
0000
0100
0010
1000
,
1001
0000
0110
0000
1000
0001
1000
0001
,
0000
0000
0100
0000
0010
0000
0100
0010
,
1000
0000
0001
0010
0001
0000
0000
0000
,
0100
0000
0010
0100
0010
0000
0100
0000
,
0100
0010
0100
0000
0001
0000
0010
0000
,
0001
0000
1000
0100
,
1000
0000
0000
0000
0100
0000
0000
2000
,
0000
3000
0001
0000
0100
0000
0010
0000
,
0101
0000
0000
0000
0010
0010
0010
0010
,
0000
0000
0100
0001
0100
0001
0000
0200
,
0000
0300
0001
1000
0001
0000
1000
0000
,
0020
0000
0030
0000
1000
0000
0000
0200
,
0000
0300
1000
0100
1000
0000
0010
0000
,
0101
0000
0001
0000
0000
1000
0000
0020
,
0000
0230
0000
0300
0000
0020
0000
0030
,
0100
0000
0010
0000
1000
0001
1000
0000
,
0000
0001
1000
0001
0000
0000
1000
0000
,
0110
0000
0000
0001
0000
0100
0000
0010
,
0000
0100
0000
0010
0100
0010
0000
0100
,
0000
0001
0000
1001
0000
0000
0000
0010
,
0000
0100
0000
0001
0010
0001
0000
1001
,
0000
1000
0000
0110
0000
0000
0000
0001
,
0000
1000
0000
0100
1000
0100
0000
0000
,
0000
0001
0010
0001
0000
0000
0000
2000
,
0000
0000
0000
3000
0000
0001
0000
0001
,
0000
0100
0000
0100
0000
0010
0000
1000
,
0000
0001
0000
1000
0001
1000
0000
0010
,
0000
0100
0000
0110
0000
0000
0000
0001
,
0000
0100
0000
0010
0100
0010
0000
0110
,
0000
0100
0000
0001
0000
0000
0000
1000
,
0000
0001
0000
0100
0000
0010
0100
0010
,
0000
0000
1000
0000
0000
0001
0000
0002
,
0000
0003
0000
0000
0000
1000
0001
1000
,
0000
0010
0100
0001
,
1000
0000
0110
0000
0000
0110
0000
0110
;

//---------------dance-single - ----------------
#NOTEDATA:;
#CHARTNAME:;
#STEPSTYPE:dance-single;
#DESCRIPTION:;
#CHARTSTYLE:;
#DIFFICULTY:Medium;
#METER:8;
#RADARVALUES:0.382266,0.362733,0.084374,0.301336,0.000000,222.000000,215.000000,7.000000,25.000000,0.000000,0.000000,0.000000,0.000000,0.000000,0.382266,0.362733,0.084374,0.301336,0.000000,222.000000,215.000000,7.000000,25.000000,0.000000,0.000000,0.000000,0.000000,0.000000;
#CREDIT:;
#NOTES:
// measure 0
0000
0000
0000
0000
0000
0000
0000
0002
,  // measure 1
0000
1003
0001
0000
0010
0100
1000
0020
,  // measure 2
0000
0130
0002
0000
0003
1000
0000
2000
,  // measure 3
0000
3000
0010
0100
0000
0010
0010
0110
,  // measure 4
0000
0000
0100
0010
0000
0010
1000
0001
,  // measure 5
0100
0000
0100
0010
1000
0001
0100
0002
,  // measure 6
0000
0003
0100
0010
0010
1000
0001
0010
,  // measure 7
0000
0200
0000
0300
0000
0001
0100
0000
,  // measure 8
0200
0000
0310
0100
0010
0100
0001
1000
,  // measure 9
0010
0200
0000
0300
0001
0010
0000
0011
,  // measure 10
0000
0001
0000
1000
0000
0100
1000
0100
,  // measure 11
1100
0000
0010
0100
0010
0100
0000
0202
,  // measure 12
0000
0303
0001
0100
0000
0001
0010
0100
,  // measure 13
1000
0010
0000
0100
0010
0100
0000
0110
,  // measure 14
0000
0000
0100
0000
0100
0010
0000
0200
,  // measure 15
0000
0301
1000
0001
0200
0300
0020
0030
,  // measure 16
0100
0010
0100
0010
0000
0100
0000
0020
,  // measure 17
0000
1030
0100
0010
0002
0003
0020
0030
,  // measure 18
1000
0100
0010
0001
0000
1000
0000
0010
,  // measure 19
0100
0010
0000
0100
0010
0200
0000
0300
,  // measure 20
0010
0010
0000
1000
1000
0000
0001
0001
,  // measure 21
0000
1000
0010
0000
0100
0010
0000
0100
,  // measure 22
0010
0000
0100
0001
0000
0100
0010
0100
,  // measure 23
0001
0100
0010
0000
0100
0010
0000
0200
,  // measure 24
0000
0301
0010
0001
0000
1000
1000
0020
,  // measure 25
0000
0130
0001
0100
0100
0001
0000
1000
,  // measure 26
0001
1000
0010
0100
0000
0010
0100
0010
,  // measure 27
1000
0010
0100
0000
1000
0100
0010
0001
,  // measure 28
0000
0001
0100
0010
0000
0100
0100
0200
,  // measure 29
0000
0000
0001
0300
0000
0001
0001
0001
,  // measure 30
1000
0100
1000
0100
0000
0010
0000
0002
,  // measure 31
0000
0013
0001
0000
1000
0001
0000
0020
,  // measure 32
0000
0130
0100
0100
0000
0010
0000
0001
,  // measure 33
1000
0100
1000
0010
0100
0001
0000
0110
,  // measure 34
0000
1000
0010
0100
0000
0100
0000
0010
,  // measure 35
1000
0100
1000
0010
0100
0001
1000
0010
,  // measure 36
0000
1000
0002
0000
0003
1000
0000
0002
,  // measure 37
0000
0000
0100
0003
0000
1000
0001
1001
,  // measure 38
0000
0000
0010
0100
0000
0100
0001
0000
,  // measure 39
1000
0000
0100
0010
0000
0100
0100
0200
,  // measure 40
0000
0300
0000
0000
0000
0000
0000
0000
;

//---------------dance-single - ----------------
#NOTEDATA:;
#CHARTNAME:;
#STEPSTYPE:dance-single;
#DESCRIPTION:;
#CHARTSTYLE:;
#DIFFICULTY:Hard;
#METER:10;
#RADARVALUES:0.497634,0.504662,0.289282,0.265175,0.048214,289.000000,265.000000,24.000000,22.000000,0.000000,0.000000,0.000000,0.000000,0.000000,0.497634,0.504662,0.289282,0.265175,0.048214,289.000000,265.000000,24.000000,22.000000,0.000000,0.000000,0.000000,0.000000,0.000000;
#CREDIT:;
#NOTES:
0000
0000
0000
0000
0000
0000
0000
0002
,
0000
1003
0001
0000
0010
1000
0001
0020
,
0100
0130
2000
0001
3001
1000
0010
2000
,
3002
0003
0010
0100
0000
0110
0110
0110
,
0000
0000
0100
0010
0000
0010
0001
0001
,
0100
0000
0000
0000
0100
0000
0010
1000
0010
0000
0100
0000
0001
0000
2000
0000
,
0001
3000
0100
0010
0100
0010
0001
0020
,
0030
0200
0310
0010
0000
1000
0100
0010
,
0011
0000
0010
0100
0010
1000
0100
1000
,
0001
0200
0000
0300
0001
0010
0000
0011
,
0000
0001
1000
1000
0000
0100
0010
0100
,
0110
0000
0001
0100
0010
0100
0010
0220
,
0000
0330
0001
0100
0001
1000
0010
1000
,
1010
0010
0000
0100
0010
0100
0110
1001
,
0000
0001
0100
0010
0100
0010
0100
0002
,
0003
1000
0100
0010
1000
0100
0010
0001
,
1001
1000
0010
0100
0010
0100
0010
2000
,
3000
0001
0010
0100
0001
0010
0100
1000
,
0110
0000
0100
0000
0010
0000
0100
0000
0001
0000
1001
0000
0000
0000
0010
0100
,
0000
0000
0010
0000
0100
0000
0001
0000
0010
0000
0100
1000
0000
0000
0010
0000
,
0200
0310
0110
0010
1010
0100
0101
0001
,
0000
0000
1000
0000
0010
0100
0010
0000
0100
0000
0010
0100
0010
0000
1000
0000
,
0001
0000
0100
1010
0000
0100
0010
0200
,
0300
0000
0010
0100
0010
0000
0000
0000
0100
0000
0010
0000
0100
0000
0002
0000
,
0003
0000
1000
0000
0010
0000
0101
0000
0000
0000
1000
0000
0001
0000
0100
0010
,
0000
0100
0001
1000
0100
0001
0100
2000
,
3000
1000
0010
0110
0000
0010
1000
0010
,
0100
0010
0100
0001
1000
0010
0100
0001
,
1000
0100
0010
0001
0000
0100
0001
0200
,
0000
0000
0001
0301
0000
0001
0001
1001
,
1000
0000
0010
0000
0100
0000
0001
0000
0000
0000
0110
0000
0100
0000
0010
0100
,
0000
0010
0100
0000
0001
0010
0000
2000
,
3000
0100
0010
0001
0000
0010
0001
1000
,
0100
0010
1000
0010
0100
1000
0100
0010
,
0100
0010
0001
0011
0000
0100
0010
0100
,
0001
0100
1000
0100
0010
0100
0100
0020
,
0000
1030
0002
1000
0003
1000
0010
0200
,
0001
0300
0001
0001
0000
1000
0001
1001
,
0000
1000
0010
0100
0000
0100
0001
0000
,
1000
0010
0100
0010
0000
0100
0100
0101
;
