#TITLE:Aftertone;
#SUBTITLE:;
#ARTIST:Avans;
#TITLETRANSLIT:;
#SUBTITLETRANSLIT:;
#ARTISTTRANSLIT:;
#GENRE:;
#CREDIT:;
#BANNER:;
#BACKGROUND:;
#LYRICSPATH:;
#CDTITLE:;
#MUSIC:Avans - Aftertone.mp3;
#OFFSET:-0.144000;
#SAMPLESTART:46.835999;
#SAMPLELENGTH:12.000000;
#SELECTABLE:YES;
#BPMS:0.000000=174.988007
;
#STOPS:
;
#BGCHANGES:;
#KEYSOUNDS:;
#ATTACKS:;

//---------------dance-single - ----------------
#NOTES:
     dance-single:
     :
     Easy:
     3:
     0.185125,0.288209,0.127463,0.063732,0.000000,183.000000,165.000000,18.000000,9.000000,0.000000,0.000000,0.185125,0.288209,0.127463,0.063732,0.000000,183.000000,165.000000,18.000000,9.000000,0.000000,0.000000:
0000
0000
0000
0000
,
0000
0000
1000
0000
,
0000
0000
0000
0000
,
0000
0000
0100
0000
,
0000
0000
0000
0000
,
0000
0000
0010
0000
,
0000
0000
0000
0000
,
0000
0000
0001
0000
,
0000
0000
0000
0000
,
0000
0000
0001
0000
,
0000
0100
0000
0000
,
0000
0000
1000
0000
,
0000
0010
0000
0000
,
0000
0000
1000
0000
,
0000
0100
0000
0000
,
0000
0000
1000
0000
,
0000
0001
0000
0000
,
0000
0000
1000
0000
,
1000
0000
0100
0000
,
0100
0000
0010
0000
,
0010
0000
0001
0000
,
0001
0000
0010
0000
,
0100
0000
1000
0000
,
0001
0000
0100
0000
,
0100
0000
0010
0000
,
0100
0000
0110
0000
,
0001
0000
1000
0000
,
0010
0000
0100
0100
,
0100
0000
0010
0000
,
0010
0000
1000
1000
,
1000
0000
0001
0000
,
0001
0000
0200
0000
,
0300
0000
0200
0000
,
0300
0000
1001
0000
,
0100
0000
1000
0000
,
0010
0000
0100
0000
,
0000
0002
0000
0003
,
1000
0000
1000
0000
,
1001
0000
1001
0000
,
2000
0000
3001
0000
,
1001
0000
1001
0000
,
0000
0000
1001
0000
,
0100
0000
0010
0000
,
0001
0000
1000
0000
,
0000
0020
0000
0030
,
0000
0000
0100
0000
,
0110
0000
0110
0000
,
0000
0000
0001
0000
,
1001
0000
1001
0000
,
0000
0000
0010
0000
,
1000
0000
0010
0000
,
0100
0000
0100
0000
,
0000
0002
0000
0003
,
0100
0000
0100
0000
,
0101
0000
0101
0000
,
0000
0000
1000
0000
,
1010
0000
1010
0000
,
0000
0000
0001
0000
,
0100
0000
0010
0000
,
1000
0000
1000
0000
,
0000
0002
0000
0003
,
1000
0000
0010
0000
,
0001
0000
0000
0000
,
0001
0000
1000
0000
,
0010
0000
0200
0000
,
0000
0300
0001
0000
,
0000
0100
0000
0000
,
0001
0001
0001
0000
,
0000
1000
0000
0000
,
0010
0010
0010
0000
,
0000
0001
0000
0000
,
1000
1000
1000
0000
,
0000
0010
0000
0000
,
0100
0000
0010
0010
,
0010
0000
0000
1000
,
1000
0000
0001
0001
,
0001
0000
0000
0010
,
0010
0000
0010
0010
,
0010
0000
0000
1000
,
1000
0000
0001
0000
,
0001
0000
0000
0000
,
0100
0000
0101
0000
,
0000
0101
0000
0000
,
0000
0000
0020
0000
,
0000
0000
0000
0000
,
0000
0030
0000
1001
,
0000
1000
0000
0001
,
0000
0000
0100
0100
,
0000
0010
0000
0100
,
0000
0000
0001
0001
,
0000
1000
0000
0001
,
0000
1000
0000
0001
,
0000
0100
0000
0010
,
0000
0100
0000
0010
,
0000
0100
0000
0100
,
0000
0100
0000
0100
,
0000
0010
0000
0010
,
0000
0010
0000
0010
,
0000
1000
0000
1000
,
0000
1000
0000
1000
,
0000
0001
0000
0001
,
0000
0001
0000
0001
;

//---------------dance-single - ----------------
#NOTES:
     dance-single:
     :
     Medium:
     6:
     0.309554,0.432313,0.141626,0.290333,0.000000,306.000000,286.000000,20.000000,41.000000,0.000000,0.000000,0.309554,0.432313,0.141626,0.290333,0.000000,306.000000,286.000000,20.000000,41.000000,0.000000,0.000000:
// measure 0
0000
0000
0000
0000
,  // measure 1
0000
0000
1000
0001
,  // measure 2
0100
0000
0001
0000
,  // measure 3
0010
0000
0100
1000
,  // measure 4
0100
0000
0001
0000
,  // measure 5
0001
0000
0010
0001
,  // measure 6
0010
0000
1000
0000
,  // measure 7
1000
0000
0100
0001
,  // measure 8
0001
0000
0010
0000
,  // measure 9
0010
0000
1001
0000
,  // measure 10
0010
0100
0000
0000
,  // measure 11
0010
0000
1000
0000
,  // measure 12
0100
0010
0000
0000
,  // measure 13
0000
0000
1000
0001
,  // measure 14
0010
0100
0010
0001
,  // measure 15
0010
0000
1000
1000
,  // measure 16
1000
0010
0010
0000
,  // measure 17
0000
0000
1000
0100
,  // measure 18
0010
0000
1000
0100
,  // measure 19
1000
0000
1000
0100
,  // measure 20
1000
0000
0100
0000
1000
0000
0100
1000
,  // measure 21
0010
0000
0100
0100
,  // measure 22
0100
0000
0001
0000
0010
0000
0001
1000
,  // measure 23
0010
0000
0100
0010
,  // measure 24
0100
0000
0010
0000
0010
0000
0010
1000
,  // measure 25
0010
0000
0100
0010
,  // measure 26
0001
0000
0000
0000
1000
0000
0100
0010
,  // measure 27
0100
0000
0001
0001
,  // measure 28
0001
0000
0010
0000
0100
0000
0010
0001
,  // measure 29
1000
0000
1000
1000
,  // measure 30
0100
0000
0010
0000
0100
0000
1000
0100
,  // measure 31
0010
0001
0010
0101
,  // measure 32
0000
0101
0000
0000
0101
0000
0000
0000
,  // measure 33
0001
0000
1001
0001
,  // measure 34
0200
0300
2002
3003
,  // measure 35
0010
1000
0010
1000
0010
0000
0020
0000
,  // measure 36
0030
0200
0000
0310
,  // measure 37
0100
0020
1030
0200
,  // measure 38
0000
0310
0000
0001
,  // measure 39
2000
3020
0000
2030
,  // measure 40
3000
0200
0000
0300
,  // measure 41
0010
0001
1001
0010
,  // measure 42
0200
0300
0020
0030
,  // measure 43
0001
0202
0303
2020
,  // measure 44
3030
2000
0000
3010
,  // measure 45
0001
0020
0030
0001
,  // measure 46
1000
0100
0000
1000
,  // measure 47
0010
0200
0300
1000
,  // measure 48
0100
2000
0000
0000
,  // measure 49
3001
0000
1010
0000
,  // measure 50
2000
3000
2020
3030
,  // measure 51
0001
0100
0001
0100
0001
0000
0200
0000
,  // measure 52
0300
2000
0000
3001
,  // measure 53
0010
0002
0003
1000
,  // measure 54
0100
1000
0000
0000
,  // measure 55
1000
0002
0000
0203
,  // measure 56
0000
0320
0000
0030
,  // measure 57
0100
0000
1001
0000
,  // measure 58
0200
0300
2002
3003
,  // measure 59
0100
0020
0030
0200
,  // measure 60
0300
0020
0030
1000
,  // measure 61
0100
0010
0000
0001
,  // measure 62
1000
0020
0000
0130
,  // measure 63
0100
0020
0000
1030
,  // measure 64
0000
0200
0000
0000
,  // measure 65
0000
0300
0000
0000
1000
0000
0000
0001
,  // measure 66
0000
0100
0100
0010
,  // measure 67
0010
0000
0000
0000
1001
0000
0000
1000
,  // measure 68
0000
0001
0100
0010
,  // measure 69
1000
0000
0001
0000
1000
0000
0000
0001
,  // measure 70
0000
0001
0010
0100
,  // measure 71
1000
0000
0000
0000
1010
0000
0000
0100
,  // measure 72
0000
0010
0100
0010
,  // measure 73
0100
0000
0000
0000
1010
0000
0000
0001
,  // measure 74
0000
0100
0100
0010
,  // measure 75
0100
0000
0000
0000
0011
0000
0000
0001
,  // measure 76
0000
1000
0100
0010
,  // measure 77
0001
0000
0000
0000
0110
0000
0000
0010
,  // measure 78
0000
0100
0010
0100
,  // measure 79
0010
0000
0100
0000
0001
0000
0000
0100
,  // measure 80
0000
0010
0100
0001
,  // measure 81
0010
0000
0000
0000
0101
0000
0000
1000
,  // measure 82
0001
0000
0002
0000
0000
0003
0000
0000
,  // measure 83
0010
0001
0010
0001
0020
0000
0000
0000
,  // measure 84
0000
0000
0000
0000
,  // measure 85
0000
0030
0000
1001
,  // measure 86
0000
0000
1000
0000
0100
0010
0000
0000
,  // measure 87
0010
0000
0000
0001
0010
0000
0100
0000
,  // measure 88
0000
0000
0100
0000
0010
0001
0000
0000
,  // measure 89
0010
0000
0000
0010
,  // measure 90
0000
0000
1000
0000
0100
0010
0000
0000
,  // measure 91
0001
0000
0000
0010
0001
0000
0001
0000
,  // measure 92
0000
0000
0010
0000
0100
1000
0000
0000
,  // measure 93
0100
0000
0000
0100
,  // measure 94
0000
0100
0100
0000
,  // measure 95
0100
0000
0010
0010
,  // measure 96
0000
0100
0100
0000
,  // measure 97
0010
0000
0100
0100
,  // measure 98
0000
0001
0001
0000
,  // measure 99
1000
0000
0001
0001
,  // measure 100
0000
0010
0010
0000
,  // measure 101
1000
0000
1000
1000
;

//---------------dance-single - ----------------
#NOTES:
     dance-single:
     :
     Hard:
     8:
     0.599887,0.611692,0.191195,0.318659,0.028325,593.000000,566.000000,27.000000,45.000000,0.000000,0.000000,0.599887,0.611692,0.191195,0.318659,0.028325,593.000000,566.000000,27.000000,45.000000,0.000000,0.000000:
0000
0000
0000
0000
,
0000
0000
0000
0000
1000
0000
0001
0010
,
0100
0000
0100
0010
0000
0000
1001
0000
,
0000
0010
0100
0010
0100
0000
1000
0100
,
0001
0000
0010
0001
0000
0000
0010
0000
,
0000
0001
1000
0010
0010
0000
0001
0100
,
0010
0000
0100
0010
0000
0000
0110
0000
,
0000
1000
0001
1000
0001
0000
0001
0010
,
0100
0000
1000
0010
0000
0000
0110
0000
,
0000
0001
1000
0001
1000
0000
1000
0100
,
0010
0000
0100
0010
0001
1000
0010
0000
,
0100
0010
0001
0010
0100
0000
1000
0100
,
0010
0000
0010
0001
1000
1000
0001
0000
,
0100
0010
0100
0010
1000
0000
0001
0100
,
0010
0000
0100
0010
0100
0100
0001
0000
,
0000
0010
0001
0010
0100
0000
0001
0100
,
0010
0000
0100
0010
0100
0000
0000
0100
,
0010
0100
0010
1000
0001
0000
0100
0000
,
0010
0110
0000
0000
1001
0000
0100
0010
,
1000
0001
1010
0110
,
1001
0000
0100
0000
1000
0001
0100
0001
,
0010
0000
0001
0010
0100
0000
1100
0000
,
1100
0000
1000
0000
0010
0000
0001
1000
,
0010
0000
0100
0010
0100
0000
0010
0000
,
0110
0000
0010
0000
0100
0000
0001
0010
,
0100
0000
1000
1000
0100
0000
0010
0001
,
0001
1000
0000
0001
1000
0000
0100
0010
,
0100
0010
1001
0001
,
0011
0000
0010
0000
0100
0000
1000
0001
,
0100
0000
0001
0001
1000
0000
1000
0000
,
0110
0000
0010
0100
0100
0000
0100
0001
,
0100
0000
0000
0010
0001
0010
0001
0000
0000
0101
0000
0000
,
0000
0101
0000
0000
0101
0000
0000
0000
,
0001
0000
1001
0001
,
0100
0010
1000
0000
1000
0000
1000
0100
,
0010
0001
1100
0010
,
0100
0020
0000
0030
1000
0001
1000
0010
,
0100
0000
0020
0100
0130
0000
0200
0000
,
0301
0010
0001
0010
0002
0000
1003
0001
,
2000
0000
3020
0000
1000
0030
2000
0000
,
3001
0010
0001
1000
0100
0010
0001
1000
,
0200
0320
0230
2300
3002
0000
0013
0000
,
0100
0001
0200
0000
0301
0000
0010
0001
,
0010
0000
0200
0000
0001
0300
0020
0000
,
0001
0031
2000
0000
3100
0000
0100
0010
,
0001
0000
0000
0000
0020
0000
0000
0030
0001
0000
0000
0000
2000
0000
0000
0000
,
3010
0010
1000
0100
1000
0000
0001
0010
,
0001
0200
0310
0020
,
1030
1000
0001
0010
0001
0100
0010
0100
,
0002
0023
0032
0003
2020
0000
3030
0000
,
1000
0100
0000
0000
1010
0000
1000
0010
,
0100
0010
0110
0110
,
0010
0200
0000
0300
0010
0000
0100
0010
,
0100
0000
0000
0000
0002
0000
0000
0003
0010
0000
0000
0000
0200
0000
0000
0000
,
0310
0001
0010
0001
2000
0000
3001
0010
,
1000
0010
0001
0000
0001
0000
0210
0000
,
0301
0001
0100
0001
1000
0010
0100
0010
,
2000
3200
0320
0030
0022
0000
0033
0000
,
0100
0010
0100
0001
1000
0000
0100
1000
,
0001
0100
0020
0000
0130
0000
0200
0000
,
0301
0010
0002
0000
0003
0000
1000
0010
,
0001
0020
1030
0002
,
1003
0010
1000
0010
0100
0000
0100
0010
,
0100
0000
0020
0000
0000
0000
0130
0001
,
0100
0001
0200
0000
0000
0310
0100
0010
,
1000
0000
0000
0000
1000
0100
0010
0001
,
1000
0100
0100
0010
0001
0010
0001
0001
,
1000
1000
0100
0000
0010
0100
0010
1000
,
1000
0100
0010
0001
0100
0010
1000
0001
,
0010
0001
0010
0000
1000
0100
0010
0001
,
1000
0100
0100
0010
0010
0001
0010
0100
,
1000
0000
0001
1000
0001
0000
0000
0000
1000
0000
0100
0000
0010
0000
0001
0000
,
0100
0000
0000
0000
0001
0000
0000
0000
0100
0001
0100
0000
0000
0000
0001
0100
,
0001
0100
0001
0000
1000
0100
0010
0001
,
1000
0010
0100
0010
0100
0010
0100
0001
,
0100
0001
0010
0000
1000
0100
1000
0100
,
0010
0001
0010
0001
0100
0010
0001
0010
,
1000
0010
1000
0000
1000
0001
0010
0001
,
0100
0100
0010
1000
0001
0100
1000
0100
,
0010
1000
0100
0000
1000
0100
0010
0001
,
0010
0000
0100
0000
0010
0000
0000
0000
0100
0010
0100
0000
0000
0000
0010
0100
,
0010
0000
0001
0000
0101
0001
0100
0001
,
0200
0302
0000
0003
,
0010
0001
0010
0001
0020
0000
0000
0000
,
0000
0000
0000
0000
,
0000
0030
0000
1001
,
0010
1000
0010
0000
0100
0100
0000
0000
,
0010
0000
0000
0001
0010
0001
0100
0000
,
0010
1000
0100
0000
0010
0001
0000
0000
,
0010
0000
0000
0100
0010
0100
0010
0000
,
0010
0010
1000
0000
0100
0010
0000
0000
,
0001
0000
0000
0100
0010
0100
0001
0000
,
1000
0100
0010
0000
0100
1000
0000
0000
,
0100
0000
0000
0100
0010
0100
0010
0000
,
0010
0001
0100
0001
1000
1000
0100
0010
,
0001
0000
0100
0001
0100
0001
0010
0000
,
0010
0100
0010
0001
1000
0001
0010
0000
,
0001
0000
1000
0000
0010
0000
0100
0001
0100
0000
0001
0000
0100
0000
0000
0000
,
1000
0010
1000
0010
1000
0100
0010
0000
,
0001
1000
0010
0100
0010
1000
0100
0000
,
0010
0001
0100
1000
0100
0001
1000
0000
,
0001
0000
0010
0100
0010
0100
0000
0000
;
