#VERSION:0.83;
#TITLE:ANiMA;
#SUBTITLE:remixed by Sakuzyo;
#ARTIST:xi;
#TITLETRANSLIT:;
#SUBTITLETRANSLIT:;
#ARTISTTRANSLIT:;
#GENRE:;
#ORIGIN:;
#CREDIT:;
#BANNER:;
#BACKGROUND:;
#PREVIEWVID:;
#JACKET:;
#CDIMAGE:;
#DISCIMAGE:;
#LYRICSPATH:;
#CDTITLE:;
#MUSIC:xi - ANiMA remixed Sakuzyo - ANiMAtion (Diverse System - Triangle).ogg;
#OFFSET:0.331000;
#SAMPLESTART:27.940001;
#SAMPLELENGTH:16.799999;
#SELECTABLE:YES;
#BPMS:0.000=174.000;
#STOPS:;
#DELAYS:;
#WARPS:;
#TIMESIGNATURES:0.000=4=4;
#TICKCOUNTS:0.000=4;
#COMBOS:0.000=1;
#SPEEDS:0.000=1.000=0.000=0;
#SCROLLS:0.000=1.000;
#FAKES:;
#LABELS:0.000=Song Start;
#BGCHANGES:;
#KEYSOUNDS:;
#ATTACKS:
;

//---------------dance-single - ----------------
#NOTEDATA:;
#CHARTNAME:;
#STEPSTYPE:dance-single;
#DESCRIPTION:;
#CHARTSTYLE:;
#DIFFICULTY:Beginner;
#METER:1;
#RADARVALUES:0.085575,0.144140,0.018719,0.031199,0.000000,96.000000,93.000000,3.000000,5.000000,0.000000,0.000000,0.000000,0.000000,0.000000,0.085575,0.144140,0.018719,0.031199,0.000000,96.000000,93.000000,3.000000,5.000000,0.000000,0.000000,0.000000,0.000000,0.000000;
#CREDIT:;
#NOTES:
0000
0000
0000
0000
,
0000
0000
0000
0000
,
0000
0000
0000
0000
,
0000
0000
0000
0000
,
0000
0000
0000
0000
,
0000
0000
0000
0000
,
0000
0000
0000
0000
,
0000
0000
0000
0000
,
0000
0000
0000
0000
,
0000
0000
0000
0000
,
0000
0000
1000
0000
,
0000
0000
0000
0000
,
0000
0000
0010
0000
,
0000
0000
0000
0000
,
0000
0000
0001
0000
,
0000
0000
0000
0000
,
0000
0000
0010
0000
,
0000
0000
0000
0000
,
0000
0000
1000
0000
,
0000
0000
0000
0000
,
0000
0000
0200
0000
,
0000
0000
0000
0300
0010
0000
0000
0000
,
0000
0000
0010
0000
,
0001
0000
0200
0000
,
0000
0300
0001
0000
,
0000
0000
1000
0000
,
0000
0000
0010
0000
,
0000
0000
0001
0000
,
0000
0000
2000
0000
,
0000
0000
0000
3000
0100
0000
0000
0000
,
0000
0000
0010
0000
,
1000
0000
0002
0000
,
0000
0003
1000
0000
,
0000
0000
1000
0000
,
0000
0000
0100
0000
,
0000
0000
0002
0000
,
0000
0003
0010
0000
,
0000
0000
0000
0000
,
0000
0000
1000
0000
,
0000
0000
0000
0000
,
0000
0000
0001
0000
,
0000
0000
0000
0000
,
0000
0000
0100
0000
,
0000
0000
0000
0000
,
0000
0000
0001
0000
,
0000
0000
0000
0000
,
0000
0000
0100
0000
,
0000
0000
0000
0000
,
0000
0000
1000
0000
,
0000
0000
0000
0000
,
0000
0000
0100
0000
,
0000
0000
0000
0000
,
0000
0000
1001
0000
,
0000
0000
1000
0000
,
0000
0000
0100
0000
,
0000
0000
0000
0000
,
0000
0000
1000
0000
,
0000
0000
1000
0000
,
0000
0000
0001
0000
,
0000
0000
0000
0000
,
0000
0000
0001
0000
,
0000
0000
0001
0000
,
0000
0000
0100
0000
,
0000
0000
1000
0000
,
0000
0000
1000
0000
,
0000
0000
0010
0000
,
0000
0000
1000
0000
,
0000
0000
1000
0000
,
0000
0000
1001
0000
,
0000
0000
1000
0000
,
0000
0000
0010
0000
,
0000
0000
0001
0000
,
0000
0000
0010
0000
,
0000
0000
0100
0000
,
0000
0000
0010
0000
,
0000
0000
0000
0000
,
0000
0000
1000
0000
,
0000
0000
1000
0000
,
0000
0000
0001
0000
,
0000
0000
0010
0000
,
0000
0000
0010
0000
,
0000
0000
0001
0000
,
0000
0000
0001
0000
,
0000
0000
0010
0000
,
0000
0000
1010
0000
,
0000
1000
0000
0000
,
0000
0000
0010
0000
,
0000
0100
0000
0000
,
0000
0000
0001
0000
,
0000
0001
0000
0000
,
0000
0000
0001
0000
,
0000
0010
0000
0000
,
0000
0000
1000
0000
,
0000
1000
0000
0000
,
0000
0000
0010
0000
,
0000
0010
0000
0000
,
0000
0000
0001
0000
,
0000
0001
0000
0000
,
0000
0000
0010
0000
,
0000
0010
0000
0000
,
0000
0000
1000
0000
,
0000
0000
0010
0000
,
0000
0000
0001
0000
,
0000
0000
0100
0000
,
0000
0000
0001
0000
,
0000
0000
1000
0000
,
0000
0000
0010
0000
,
0000
0000
0001
0000
,
0000
0000
1000
0000
,
0000
0000
0010
0000
,
0000
0000
1000
0000
,
0010
0000
0001
0000
,
0000
0000
1000
0000
,
0000
0000
0010
0000
,
0000
0000
1000
0000
,
0000
0000
0010
0000
;

//---------------dance-single - ----------------
#NOTEDATA:;
#CHARTNAME:;
#STEPSTYPE:dance-single;
#DESCRIPTION:;
#CHARTSTYLE:;
#DIFFICULTY:Easy;
#METER:3;
#RADARVALUES:0.158670,0.252245,0.031199,0.062398,0.000000,178.000000,173.000000,5.000000,10.000000,0.000000,0.000000,0.000000,0.000000,0.000000,0.158670,0.252245,0.031199,0.062398,0.000000,178.000000,173.000000,5.000000,10.000000,0.000000,0.000000,0.000000,0.000000,0.000000;
#CREDIT:;
#NOTES:
0000
0000
0000
0000
,
0000
0000
0000
0000
,
0000
0000
0000
0000
,
0000
0000
0000
0000
,
0000
0000
0000
0000
,
0000
0000
0000
0000
,
0000
0000
0000
0000
,
0000
0000
0000
0000
,
0000
0000
0000
0000
,
0000
0000
0000
0000
,
0000
0000
1000
0000
,
0000
0000
0000
0000
,
0000
0000
0010
0000
,
0000
0000
0000
0000
,
0000
0000
0001
0000
,
0000
0000
0100
0000
,
0000
0000
0010
0000
,
0000
0000
0001
0000
,
0000
0000
1000
0000
,
0000
0000
0000
0000
,
0000
0000
0200
0000
,
0000
0000
0000
0300
0001
0000
0000
0000
,
0000
0000
0010
0000
,
0001
0000
0200
0000
,
0000
0300
0001
0000
,
0000
0000
1000
0000
,
0000
0000
0010
0000
,
0100
0000
0001
0000
,
0000
0010
2000
0000
,
0000
3000
0100
0000
,
0000
0000
0010
0000
,
1000
0000
0002
0000
,
0000
0003
1000
0000
,
0000
0000
1000
0000
,
0000
0000
0100
0000
,
0010
0000
0002
0000
,
0000
0003
1001
0000
,
0000
0000
1000
0000
,
0000
0100
1000
0000
,
0000
0000
0001
0000
,
0000
0000
0001
0000
,
0000
0000
0001
0000
,
0000
0000
0100
0000
,
0000
0000
1000
0000
,
0000
0000
0001
0000
,
0000
0000
0010
0000
,
0000
0010
0100
0000
,
0000
0000
0001
0000
,
0000
0001
1000
0000
,
0000
0000
0010
0000
,
0000
0100
0100
0000
,
0000
0000
1000
0000
,
0000
0000
1002
0000
,
0000
0000
1000
0000
,
0000
0000
0100
0000
,
0000
0000
0003
0100
,
0010
0001
1000
0000
,
0000
0000
1000
0000
,
0010
0000
0001
0000
,
0000
0000
1000
0100
,
0010
0010
0002
0000
,
0003
0100
0001
0000
,
0000
1000
0100
0000
,
0001
0000
1000
0000
,
0100
0000
1000
0000
,
0000
0010
0010
0000
,
0001
0001
1000
0000
,
0000
0000
1000
0000
,
1000
0000
2002
0000
,
0000
3003
1000
0000
,
0100
0000
0010
0000
,
1000
0000
0001
0000
,
0100
0000
0010
0000
,
0001
0000
0100
0000
,
0001
0000
0020
0000
,
0000
0030
1000
0000
,
0000
0001
1000
0000
,
0000
0100
1000
0000
,
0000
0010
0001
0000
,
1000
0000
0010
0000
,
0001
0000
0010
0000
,
0000
0000
0001
1000
,
1000
0100
0001
0000
,
0000
0000
0010
0000
,
0000
0000
0000
0000
1010
0000
0000
0100
,
0000
0000
1000
0000
0000
0100
0000
0000
,
0010
0000
0000
0000
0010
0000
0000
1000
,
0000
0000
0100
0000
0000
0001
0000
0000
,
0010
0000
0000
0000
0001
0000
0000
0010
,
0000
0000
0001
0000
0000
0001
0000
0000
,
0010
0000
0000
0000
0001
0000
0000
0100
,
0000
0000
0010
0000
0000
0010
0000
0000
,
1000
0000
0000
0000
1000
0000
0000
0010
,
0000
0000
1000
0000
0000
0100
0000
0000
,
0001
0000
0000
0000
0010
0000
0000
0100
,
0000
0000
0010
0000
0000
0001
0000
0000
,
0000
0000
0000
0000
0001
0000
0000
1000
,
0000
0000
0001
0000
0000
0100
0000
0000
,
0010
0000
0000
0000
0010
0000
0000
0001
,
0000
0010
0000
0000
,
0100
0000
1010
0000
,
0000
0000
0010
0000
,
0000
0000
0001
0000
,
0000
0000
0100
0000
,
0000
0000
0001
0000
,
0100
0000
1000
0000
,
0001
0000
0010
0000
,
0000
0000
0000
0001
,
0010
1000
0100
0000
,
0000
0100
0010
0000
,
0000
0010
1000
0000
,
0010
0000
0001
0000
,
0010
0000
1000
0000
,
0100
0000
0010
0001
,
0001
0100
1000
0000
,
0000
0000
0010
0000
;

//---------------dance-single - ----------------
#NOTEDATA:;
#CHARTNAME:;
#STEPSTYPE:dance-single;
#DESCRIPTION:;
#CHARTSTYLE:;
#DIFFICULTY:Medium;
#METER:5;
#RADARVALUES:0.281683,0.537015,0.343190,0.205914,0.000000,316.000000,261.000000,55.000000,33.000000,0.000000,0.000000,0.000000,0.000000,0.000000,0.281683,0.537015,0.343190,0.205914,0.000000,316.000000,261.000000,55.000000,33.000000,0.000000,0.000000,0.000000,0.000000,0.000000;
#CREDIT:;
#NOTES:
0000
0000
0000
0000
,
0000
0000
0000
0000
,
0000
0000
0000
0000
,
0000
0000
0000
0000
,
0000
0000
0000
0000
,
0000
0000
0000
0000
,
0000
0000
0000
0000
,
0000
0000
0000
0000
,
0000
0000
1000
0000
,
0000
0000
0000
0000
,
0000
0000
1000
0000
,
0000
0000
0000
0000
,
0000
0000
0010
0000
,
0000
0000
0000
0000
,
0000
0000
0001
0000
,
0000
0000
0100
0000
,
0000
0000
0010
0000
,
0000
0000
0001
0000
,
0000
0000
1000
0000
,
0000
0000
0001
0000
,
1000
0000
0200
0010
,
0001
0000
0010
0300
0002
0000
0000
0000
,
0000
0000
0003
1000
0010
0000
0100
0000
,
0001
0010
0200
0000
,
0010
0301
0001
0010
,
0020
0000
1000
1030
,
0100
0100
0020
0000
,
0130
0010
0002
0000
,
0000
0003
0010
0000
2000
0000
0100
0000
,
0001
3001
0200
0000
,
0000
0001
0310
0001
,
1000
0010
0002
0000
,
1000
0013
1000
0100
,
0020
0000
1030
0100
,
0001
0010
0200
0000
,
0310
1000
0002
0000
,
0000
0003
1001
0000
,
0000
0000
0000
0100
1000
0000
0000
0000
,
0000
0001
0000
0100
1000
0000
0000
0000
,
0000
0000
0011
0000
,
0000
0000
0101
0000
,
0000
0000
1001
0000
,
0000
0000
0000
0010
0100
0000
0000
0000
,
0000
0000
1001
0000
,
0000
0000
0101
0000
,
1000
0000
0010
0000
,
0001
0000
1100
0010
,
0001
0010
0001
1000
,
0100
0000
1010
0100
,
0010
0001
0010
0100
,
0010
0000
0110
1001
,
1100
0110
1000
0100
,
0011
0001
1002
0000
,
0000
0000
1000
0000
,
0000
0000
0100
0000
,
0000
0000
0003
0100
,
0010
0001
1010
0000
,
0000
0000
2000
3000
,
0020
0030
0002
0003
,
0000
0000
0000
0100
,
0010
0010
0002
0000
,
0003
0000
0100
0010
0001
0000
0000
0000
,
0000
0000
1000
0100
0010
0000
0000
0000
,
0001
0000
1000
0000
,
0100
0000
1001
0000
,
0000
0010
0010
0100
,
0001
0000
0001
0010
1000
0000
0000
0000
,
0000
0000
0000
0100
1000
0000
0000
0000
,
1000
0000
2002
0000
,
0000
3003
1000
0000
,
0100
0000
0020
0000
,
1000
0030
0001
0010
,
0100
1000
0020
0000
,
0031
1000
0100
0010
,
0001
1000
0220
0000
,
0000
0330
1001
0100
,
0010
0001
1020
0000
,
0030
0100
2000
0000
,
3000
0010
0001
0000
,
1000
0000
0010
0000
,
0001
0000
0010
0000
,
1000
0100
0001
1000
,
1000
0100
0001
0010
,
1000
0100
0022
0000
,
0033
0000
0000
0000
1010
0000
0000
0101
,
0000
0000
1100
0000
0000
1100
0000
0000
,
0010
0000
0001
0000
0110
0000
0000
1001
,
0000
0000
1100
0000
0000
0011
0000
0000
,
0010
0000
0010
0000
1001
0000
0000
0110
,
0000
0000
1001
0000
0000
0011
0000
0000
,
0010
0000
0010
0000
1001
0000
0000
0110
,
0000
0000
1010
0000
0000
0110
0000
0000
,
1000
0000
0100
0000
1001
0000
0000
0110
,
0000
0000
1001
0000
0000
0101
0000
0000
,
0001
0000
1000
0000
0011
0000
0000
0101
,
0000
0000
1010
0000
0000
1001
0000
0000
,
0001
0000
0010
0000
1001
0000
0000
1010
,
0000
0000
1001
0000
0000
1100
0000
0000
,
0010
0000
0001
0000
1010
0000
0000
1001
,
0000
0000
0110
0000
0000
1001
0000
0000
,
0100
0001
2010
0100
,
0000
3001
0000
0000
0010
0000
0000
1000
,
0000
0000
0010
0000
0001
0000
0000
0010
,
0000
0000
1000
0000
0000
0100
0000
0000
,
0010
0000
0001
0000
0010
0000
0000
0001
,
0000
0000
0010
0000
0000
1000
0000
0000
,
0001
0100
0021
0000
,
0000
0000
0030
0001
,
0010
0100
2000
0000
,
0000
0000
3100
0010
0001
0000
0000
0000
,
0000
0000
0010
0100
1000
0000
0000
0000
,
0010
0000
0001
0000
,
0020
0000
2030
0000
,
3100
0001
0010
0001
,
0010
0000
0100
0001
2000
0000
3000
0000
;

//---------------dance-single - ----------------
#NOTEDATA:;
#CHARTNAME:;
#STEPSTYPE:dance-single;
#DESCRIPTION:;
#CHARTSTYLE:;
#DIFFICULTY:Hard;
#METER:8;
#RADARVALUES:0.427873,0.648629,0.418068,0.230873,0.000000,480.000000,413.000000,67.000000,37.000000,0.000000,0.000000,0.000000,0.000000,0.000000,0.427873,0.648629,0.418068,0.230873,0.000000,480.000000,413.000000,67.000000,37.000000,0.000000,0.000000,0.000000,0.000000,0.000000;
#CREDIT:;
#NOTES:
// measure 0
0000
0000
0000
0000
,  // measure 1
0000
0000
0000
0000
,  // measure 2
0000
0000
0000
0000
,  // measure 3
0000
0000
0000
0000
,  // measure 4
0000
0000
0000
0000
,  // measure 5
0000
0000
0000
0000
,  // measure 6
0000
0000
0000
0000
,  // measure 7
0000
0000
0000
0000
,  // measure 8
0000
0000
1000
0000
,  // measure 9
0000
0000
0000
0000
,  // measure 10
0000
0000
1000
0000
,  // measure 11
0000
0000
0000
0000
,  // measure 12
0000
0000
0010
0000
,  // measure 13
0000
0000
0000
0000
,  // measure 14
0000
0000
0001
0000
,  // measure 15
0000
0000
0100
0000
,  // measure 16
0000
0000
0010
0000
,  // measure 17
1000
0000
0001
0000
,  // measure 18
0010
0000
1000
0100
,  // measure 19
0010
0001
0001
0010
,  // measure 20
1000
1000
0200
0010
,  // measure 21
0001
0000
0010
0300
0002
0000
0000
0000
,  // measure 22
0000
0000
0103
1000
0010
0000
0100
0010
,  // measure 23
0001
0000
0010
0001
0200
0000
0000
0000
,  // measure 24
0010
0301
0001
0010
,  // measure 25
1020
0000
1000
1030
,  // measure 26
0110
0100
0020
0000
,  // measure 27
0130
0010
1002
0000
,  // measure 28
0000
0003
0010
0000
2000
0000
0100
0000
,  // measure 29
0001
3001
0200
0000
,  // measure 30
0000
0000
0301
0010
0010
0000
0001
1000
,  // measure 31
1000
0000
0010
0100
0002
0000
0000
0000
,  // measure 32
1000
0013
1000
0100
,  // measure 33
0021
0000
1030
0100
,  // measure 34
0001
0010
0201
0000
,  // measure 35
0310
1000
1002
0000
,  // measure 36
0000
0013
1001
0010
,  // measure 37
0100
0000
0010
0100
1000
0000
1000
0000
,  // measure 38
0100
0001
0000
0100
1000
0000
1000
0000
,  // measure 39
0100
1000
0011
0100
,  // measure 40
1000
0000
0100
0010
0101
0000
0001
0000
,  // measure 41
0010
0100
1001
1000
,  // measure 42
0110
0000
0001
0010
0100
0000
1000
0000
,  // measure 43
0011
0100
1001
0100
,  // measure 44
1000
0000
0000
0010
0001
0000
0010
0000
,  // measure 45
1000
0100
0010
0001
,  // measure 46
0001
0000
0010
0001
1100
0000
0010
0000
,  // measure 47
0001
0010
0001
1000
,  // measure 48
0100
0001
1010
0101
,  // measure 49
0011
0101
0011
0101
,  // measure 50
0011
0000
0011
0000
0100
0001
0100
0001
,  // measure 51
0100
0001
0100
0001
0010
0001
0010
0001
,  // measure 52
0010
0001
0010
0001
0002
0000
0000
0000
,  // measure 53
0000
0000
0000
0100
1000
0000
0000
0000
,  // measure 54
0000
0000
0100
0000
,  // measure 55
0000
0000
0000
1000
1003
0000
0100
0000
,  // measure 56
0010
0001
2020
0000
,  // measure 57
3030
0000
2000
3000
,  // measure 58
0020
0000
0030
0000
2002
0000
0003
3000
,  // measure 59
0000
0000
0000
0001
1000
0000
0100
0000
,  // measure 60
0010
0010
1002
0000
,  // measure 61
0003
1000
0100
0010
0002
0000
0003
0000
,  // measure 62
0000
0001
1000
0100
0020
0000
0030
0000
,  // measure 63
1001
0000
1010
0000
,  // measure 64
0110
0000
1001
0000
,  // measure 65
0100
0001
0010
0001
0010
0000
0100
0000
,  // measure 66
0001
0000
0001
0010
2000
0000
0000
0000
,  // measure 67
3000
0000
0000
0100
1010
0000
0000
0000
,  // measure 68
1001
0000
2002
0000
,  // measure 69
0000
3003
1000
0010
,  // measure 70
0100
0001
1020
0100
,  // measure 71
1000
0130
1001
0010
,  // measure 72
0100
1000
0120
0000
,  // measure 73
0031
1000
0100
0010
,  // measure 74
0001
1000
0220
0000
,  // measure 75
0000
0330
1001
0100
,  // measure 76
0010
0001
1020
0000
,  // measure 77
0030
0010
0100
0010
2000
0000
0000
0000
,  // measure 78
3000
0100
0010
0100
0001
0000
0000
0000
,  // measure 79
1000
0100
0010
0001
,  // measure 80
0001
1000
0010
0001
,  // measure 81
1000
0000
0100
0000
0001
0000
1000
0010
,  // measure 82
1000
0000
0100
0010
0001
0000
0010
0100
,  // measure 83
1000
0000
0100
0100
0010
0000
0001
0010
,  // measure 84
0001
0010
0001
0100
0010
0000
0001
0100
,  // measure 85
0000
0010
1001
0000
0100
1000
0000
0100
,  // measure 86
0010
0000
1000
0000
1010
0000
0100
1000
,  // measure 87
0000
0010
1100
0000
0010
0001
0000
0100
,  // measure 88
0010
0000
0110
0000
1001
0000
1000
0100
,  // measure 89
0000
0001
1001
0000
0100
0010
0000
1000
,  // measure 90
0010
0000
0110
0000
1001
0000
0001
0100
,  // measure 91
0000
0001
1010
0000
1000
0100
0000
1001
,  // measure 92
1001
0010
0100
0010
1001
0000
0100
0010
,  // measure 93
0000
0010
1001
0000
1000
0100
0000
0010
,  // measure 94
0001
0000
1000
0000
0011
0000
1000
0001
,  // measure 95
0000
0010
1010
0000
0100
1000
0100
0000
,  // measure 96
0001
0000
0110
0000
1001
0000
0100
1000
,  // measure 97
0000
0010
1001
0000
0001
0100
0000
0010
,  // measure 98
1000
0000
0011
0000
1010
0000
0100
1000
,  // measure 99
0000
0001
0110
0000
0010
1000
0100
0000
,  // measure 100
0110
0000
1001
0000
2010
0000
0100
0010
,  // measure 101
0000
3001
0001
0000
0010
0010
0000
1000
,  // measure 102
1000
0000
0011
0000
0001
0000
0010
0010
,  // measure 103
0000
1000
1000
0000
0010
0100
0000
0100
,  // measure 104
0010
0000
1001
0000
0010
0000
0001
1000
,  // measure 105
0000
0001
0010
0000
1000
0100
0000
0010
,  // measure 106
0001
0000
0100
0000
0021
0000
0001
0001
,  // measure 107
0000
0001
0001
0000
0031
0001
0000
0001
,  // measure 108
0010
0000
0100
0000
2001
0000
0010
0001
,  // measure 109
0000
0010
3100
0000
0010
0010
0000
0010
,  // measure 110
0001
0000
0010
0000
1000
0000
0100
0100
,  // measure 111
0000
0001
0010
0000
0001
0001
0000
0010
,  // measure 112
0020
0001
2030
0100
,  // measure 113
3100
0010
0001
0100
0010
0000
1001
0000
,  // measure 114
0010
0000
0100
0001
2000
0000
3000
0000
,  // measure 115
0010
0000
0100
0000
;

//---------------dance-single - ----------------
#NOTEDATA:;
#CHARTNAME:;
#STEPSTYPE:dance-single;
#DESCRIPTION:;
#CHARTSTYLE:;
#DIFFICULTY:Challenge;
#METER:10;
#RADARVALUES:0.701534,0.972944,0.218394,0.162235,0.655181,787.000000,752.000000,35.000000,26.000000,0.000000,0.000000,0.000000,0.000000,0.000000,0.701534,0.972944,0.218394,0.162235,0.655181,787.000000,752.000000,35.000000,26.000000,0.000000,0.000000,0.000000,0.000000,0.000000;
#CREDIT:;
#NOTES:
0000
0000
0000
0000
,
0000
0000
0000
0000
,
0000
0000
0000
0000
,
0000
0000
0000
0000
,
0000
0000
0000
0000
,
0000
0000
0000
0000
,
0000
0000
0000
0000
,
0000
0000
0000
0000
,
0000
0000
0000
1000
1000
0000
0000
0000
,
0001
0000
1000
0000
,
0010
0000
0000
0100
0100
0000
0000
0000
,
0010
0000
1000
0000
,
0001
0000
0000
1000
0001
0000
0100
0000
,
0100
0100
0010
0010
,
0010
1000
0001
0001
,
1000
1000
0010
0010
,
0100
0100
0110
0100
,
0010
1000
1010
1000
,
0001
0000
0010
0000
0100
0001
0100
0001
,
0100
0001
0100
0001
1000
0010
1000
0100
,
1000
0010
0100
0001
0202
0303
2002
3003
,
2020
0030
3010
0100
0020
0000
0000
0000
,
0030
0000
0000
0000
0100
0000
0001
0000
0101
0000
0000
0000
0002
0003
2000
3000
,
0020
0030
0000
0000
0100
0000
0001
0000
1010
0000
0000
0000
0000
0000
0000
0000
,
0100
0000
0000
0000
0001
1000
0001
1000
0002
0000
0000
0000
0103
0000
0010
1000
,
0001
1000
0010
1000
0010
0000
1000
0000
0100
0000
0000
0000
0001
0100
0001
0000
,
1000
0001
2002
0003
,
3001
0010
0001
0000
0010
0100
0010
0000
0200
0000
0000
0000
0000
0000
0000
0000
,
0000
0000
0000
0000
1300
0000
0000
0000
0001
0010
0001
0000
0010
0100
0010
0000
,
1000
0100
1000
0000
0001
1000
0001
0000
0220
0000
0000
0000
0000
0000
0000
0000
,
0330
0000
0000
0000
1000
0100
1000
0000
0101
0000
0000
0000
0010
0100
0010
0000
,
0100
0000
0000
0000
0001
0010
0001
0000
2002
0000
0000
0000
0003
0000
0000
0000
,
3001
0000
0000
0000
0100
0010
0100
0000
0010
0000
0000
0000
0100
0000
0001
0010
,
0001
0100
0001
0010
0001
0000
1000
0000
1000
0000
0000
0000
0010
0100
0010
0100
,
0010
0000
0000
0000
1000
0100
0010
0000
0020
0000
0000
0000
0000
0000
0000
0000
,
0031
0010
0200
0000
,
0000
1300
0001
0011
,
1000
0010
1000
0100
1000
0000
0001
0000
,
0011
0000
0100
0000
0000
0000
0100
0000
0010
0000
0000
0000
0100
0010
0100
0010
,
0100
0000
0000
0000
1000
0001
1000
0001
1000
0000
0000
0000
0001
0010
0001
1000
,
0001
0000
0010
0000
0000
0000
1000
0000
0010
0000
0100
0001
0100
0010
0100
0001
,
0100
0001
0100
0000
0000
0000
0010
0000
0010
0000
0000
0000
1000
0000
0000
0000
,
0001
0100
0000
0100
0001
0000
1010
0000
,
0100
0101
0010
0001
,
1000
0000
0000
0000
0000
0000
0000
0000
1000
0001
1000
0001
0010
0000
0100
1000
,
0000
0100
1000
0000
0010
0001
0010
0000
1000
0100
0010
0001
1000
0000
0001
0010
,
0000
0001
0010
0000
0100
1000
0100
0000
0010
0001
0100
0010
0100
0000
0010
0100
,
0000
0001
1000
0000
0001
1000
0001
0000
0100
0010
0100
0010
0100
0000
1000
0001
,
0000
1000
0001
0000
0100
0001
0100
0000
0001
1000
0001
1000
0001
0000
1000
0010
,
0000
1000
0001
0000
1000
0010
0100
0000
1000
0001
0100
0001
1000
0000
0001
0100
,
0000
0001
0010
0000
0001
0100
0001
0000
1000
0000
1000
0000
0100
0000
0100
0000
,
0010
0000
0010
0000
1000
0000
0001
0000
0100
0010
0100
0000
0010
1000
0010
0000
,
0100
0001
0100
0000
0010
0100
0010
0000
1010
0000
0000
0000
1000
0010
1000
0010
,
1000
0010
1000
0100
1000
0000
0000
0000
0202
0000
0000
0000
0000
0000
0000
0000
,
0303
0000
0020
0000
,
0030
0000
0000
0100
0100
0000
0001
0000
,
1000
0000
0000
0000
0101
0000
0000
0000
0011
0000
0000
0000
0010
0001
1000
0010
,
0100
0001
0100
0001
0100
0000
0000
0000
0110
0000
0000
0000
0000
0000
0000
0000
,
1000
0000
1001
0000
,
0000
0000
0000
0001
0001
0000
1000
0000
,
0010
0000
0000
0000
0100
0000
0000
0000
0110
0000
0000
0000
0100
0001
0100
0001
,
1000
0001
1000
0010
1000
0000
0100
0000
0010
0000
0000
0000
0000
0000
0000
0000
,
0001
0000
0010
0000
0100
0000
1000
0000
0010
0000
0000
0000
0000
0000
0000
0100
,
0010
0000
0000
0000
0000
0000
0000
1000
0001
0000
0000
0000
0000
0000
0000
0010
,
0100
0000
0000
0000
0000
0000
0000
0100
0001
0000
0000
0000
0000
0000
0000
0000
,
0001
0010
0001
0000
1000
0000
1000
0010
0100
0000
0000
0000
0010
0000
0000
0000
,
0010
0000
0000
0000
1000
0100
0010
0001
1000
0000
0000
0000
0001
0000
0000
0000
,
0001
0000
0000
0000
0001
0000
0001
0010
0100
0000
0000
0000
0000
0000
0000
0000
,
0100
0000
0011
1000
,
0001
0010
0100
0010
0000
1000
0000
0001
,
0010
0001
1000
0100
0000
0010
0000
0100
,
0001
1000
0100
0010
0000
0000
1000
0000
,
0100
0000
0010
0000
0001
1000
0000
0001
,
1000
0100
1000
0100
0000
0100
0000
0010
,
0001
1000
0001
0100
0000
0010
0000
1000
,
0100
0000
0010
0000
0001
0000
0001
0000
1000
0001
1000
0000
0010
0100
0010
0100
,
0010
1000
0001
1000
0001
1000
0001
0000
0110
0000
0000
0000
0100
0010
0100
0001
,
0100
0001
0100
0010
0100
0000
0000
0000
0010
0000
0000
0000
0000
0000
0000
0000
,
1000
0001
0010
0100
0010
0000
0001
0000
,
1000
0000
0000
0000
0001
0000
0000
0000
0100
0000
0000
0010
0100
0000
0000
0100
,
0010
0000
1000
0000
1000
0000
0001
0000
0001
0000
0000
1000
0001
0000
0000
1000
,
0001
0010
0100
0010
0100
0000
0001
0000
,
1000
0000
0000
0000
0100
0010
0100
0010
0100
0000
0000
1000
0001
0000
0000
1000
,
0001
0000
1000
0000
0010
0100
0010
0100
0010
0000
0000
0000
1000
0000
1000
0000
,
0010
0000
0010
0000
0100
0000
0100
0000
0101
0000
0000
0100
0001
0100
0001
0000
,
0000
1000
0010
1000
0010
0000
0000
0100
0010
0100
0010
0000
0000
1000
0100
1000
,
0100
0000
0000
0100
0010
0000
0000
0000
0011
0000
0000
0100
0010
0100
0001
0000
,
0000
0100
0001
0100
0010
0000
0000
0100
0001
0100
0001
0000
0000
1000
0001
1000
,
0001
0000
0000
0000
0011
0000
0000
0000
0110
0000
0000
0100
0010
0100
0010
0000
,
0000
1000
0001
1000
0010
0000
0000
0100
0001
0010
0001
0000
0000
0001
0100
0001
,
0010
0000
0000
0010
0001
0000
0000
0000
1001
0000
0000
1000
0100
0010
0001
0000
,
0000
1000
0100
0010
0001
0000
0000
0001
0010
0100
1000
0000
0000
0010
0100
0000
,
0010
1000
0010
1000
0010
0100
0010
0100
0010
0000
0000
1000
0010
1000
0010
0000
,
0000
0100
0001
0100
0001
0000
0000
0001
0010
0100
1000
0000
0000
0001
1000
0001
,
0100
0000
0000
0100
0010
0000
0000
0000
0110
0000
0000
0100
0010
1000
0100
0000
,
0000
1000
0010
0100
0010
0000
0000
0100
0010
0100
0001
0000
0000
0001
0100
0001
,
0100
0000
0000
0001
0100
0000
0000
0000
0101
0000
0000
0100
0010
0100
0010
0100
,
0010
1000
0010
1000
0010
0000
0000
0100
0001
0100
0001
0100
0001
1000
0010
1000
,
0010
0000
0000
0100
0001
0000
0000
0000
0010
0000
0000
1000
0010
1000
0100
0000
,
0000
1000
0001
0100
0010
0000
0000
0010
0100
0001
0100
0000
0000
0000
0010
0000
,
0110
0000
0101
0000
1002
0000
1003
0010
,
0000
0100
0001
0000
1000
0010
0100
0001
,
0100
0000
0000
0010
0100
0000
0000
0000
0100
0000
0000
0001
0100
0001
0100
0000
,
0000
1000
0010
1000
0010
0000
0000
0100
0001
0100
0001
0000
0000
1000
0001
1000
,
0001
0000
0100
0000
0010
0000
0000
0000
0101
0000
0000
1000
0010
1000
0100
0000
,
0000
0010
0001
0010
0001
0000
0000
0010
0001
0010
0001
0000
0000
1000
0001
1000
,
0100
0000
0000
0100
0010
0000
0000
0000
1000
0000
0000
0000
0010
0000
0000
0000
,
0100
0010
0100
0010
0100
0000
0010
0000
,
0010
0000
1000
0000
0002
0000
1000
1000
,
0003
0100
0100
0000
0001
0001
0000
1000
,
1000
0000
0000
0010
0100
0000
0000
0000
0010
0000
0000
0100
0010
0100
0001
0000
,
0000
0100
0010
0100
0001
0000
0000
1000
0001
0010
0100
0000
0000
1000
0001
0010
,
0100
0000
0000
1000
0001
0000
0000
0000
0200
0000
0000
0000
0001
0000
0000
0000
,
0300
1000
0001
1000
0001
0000
0100
0010
,
0100
0000
0000
1000
0001
0100
0001
0010
0100
0000
0000
0000
1000
0000
0000
0000
,
0000
0010
0000
0100
0010
0000
0000
0000
;
