#VERSION:0.83;
#TITLE:25ji no itazura;
#SUBTITLE:;
#ARTIST:Miyuki Adachi;
#TITLETRANSLIT:;
#SUBTITLETRANSLIT:;
#ARTISTTRANSLIT:;
#GENRE:Nostalgic;
#ORIGIN:;
#CREDIT:from pop n music 11;
#BANNER:Miyuki Adachi - 25ji no itazura.png;
#BACKGROUND:;
#PREVIEWVID:;
#JACKET:;
#CDIMAGE:;
#DISCIMAGE:;
#LYRICSPATH:;
#CDTITLE:;
#MUSIC:Miyuki Adachi - 25ji no itazura.ogg;
#OFFSET:-0.312000;
#SAMPLESTART:20.861000;
#SAMPLELENGTH:16.500000;
#SELECTABLE:YES;
#BPMS:0.000=113.753,
170.000=110.000,
176.000=90.000;
#STOPS:;
#DELAYS:;
#WARPS:;
#TIMESIGNATURES:0.000=4=4;
#TICKCOUNTS:0.000=4;
#COMBOS:0.000=1;
#SPEEDS:0.000=1.000=0.000=0;
#SCROLLS:0.000=1.000;
#FAKES:;
#LABELS:0.000=Song Start;
#BGCHANGES:;
#KEYSOUNDS:;
#ATTACKS:
;

//---------------dance-single - ----------------
#NOTEDATA:;
#CHARTNAME:;
#STEPSTYPE:dance-single;
#DESCRIPTION:;
#CHARTSTYLE:;
#DIFFICULTY:Beginner;
#METER:3;
#RADARVALUES:0.127359,0.154300,0.009797,0.088171,0.014695,91.000000,90.000000,1.000000,9.000000,0.000000,0.000000,0.000000,0.000000,0.000000,0.127359,0.154300,0.009797,0.088171,0.014695,91.000000,90.000000,1.000000,9.000000,0.000000,0.000000,0.000000,0.000000,0.000000;
#CREDIT:;
#NOTES:
0000
0000
0000
0000
,
0000
0000
0000
0000
,
0000
0000
0000
0000
,
0000
0000
0000
0000
,
0000
0000
0000
0000
,
0000
0000
0000
0000
,
0000
0000
0000
0000
0000
0000
0000
0000
0000
0000
0000
0001
0000
0000
0000
0000
,
0000
0000
0000
0000
0000
0000
0000
0000
0000
0000
0000
0000
0000
0000
0000
0100
0000
0000
0000
0000
0000
0000
0000
0000
0000
0000
0000
0000
0000
0000
0000
0000
,
0000
0000
0000
0000
0000
0000
0000
1000
0000
0000
0000
0000
0000
0000
0000
0000
0000
0000
0000
0000
0000
0000
0000
0000
0000
0000
0000
0000
0000
0000
0000
0000
,
0001
0000
0000
0001
,
0000
0001
0001
0000
,
1000
1000
0000
1000
,
1000
1000
1000
1000
,
0000
0001
0001
0000
,
0100
0100
0000
0010
,
0010
0000
0100
0100
,
0000
0000
0001
0000
,
1000
1000
1000
1000
,
0001
0000
0001
0001
,
0000
0100
0100
0000
,
0010
0010
0000
0000
,
0200
0300
0001
0002
,
0003
0000
1000
1000
,
1000
0001
0000
0100
,
0100
0000
0010
0010
,
0000
0100
0100
0000
,
0100
0100
0000
0010
,
0010
0000
0000
2002
,
3003
0000
0001
0001
,
0000
1000
1000
0000
,
0010
0000
0100
0002
,
0003
0100
0001
0000
,
0010
0002
0003
0010
,
0010
0000
0100
0200
,
0300
0000
0010
0000
,
0000
0200
0000
0300
,
0001
0000
0000
1000
,
0001
0100
0001
0000
,
0000
0001
1000
0010
,
1000
0000
0000
0001
,
0000
0001
0001
0000
,
1000
1000
0000
0010
,
0010
0000
0100
0100
,
0000
0100
0100
0000
,
0000
0002
0000
0000
,
0003
0000
0000
0000
;

//---------------dance-single - ----------------
#NOTEDATA:;
#CHARTNAME:;
#STEPSTYPE:dance-single;
#DESCRIPTION:;
#CHARTSTYLE:;
#DIFFICULTY:Easy;
#METER:7;
#RADARVALUES:0.256117,0.330642,0.137155,0.039187,0.019594,183.000000,169.000000,14.000000,4.000000,0.000000,0.000000,0.000000,0.000000,0.000000,0.256117,0.330642,0.137155,0.039187,0.019594,183.000000,169.000000,14.000000,4.000000,0.000000,0.000000,0.000000,0.000000,0.000000;
#CREDIT:;
#NOTES:
0000
0000
0000
0000
,
0000
0000
0000
0000
,
0000
0000
0000
0000
,
0000
0000
0000
0000
,
0000
0000
0000
0000
,
0000
0000
0000
0000
,
0000
0000
0000
0000
0000
0000
0000
0000
0000
0000
0000
0001
0000
0000
0000
0000
,
0000
0000
0000
0000
0000
0000
0000
0000
0000
0000
0000
0000
0000
0000
0000
0100
0000
0000
0000
0000
0000
0000
0000
0000
0000
0000
0000
0000
0000
0000
0000
0000
,
0000
0000
0000
0000
0000
0000
0000
1000
0000
0000
0000
0000
0000
0000
0000
0000
0000
0000
0000
0000
0000
0000
0000
0000
0000
0000
0000
0000
0000
0000
0000
0000
,
0001
0000
0000
0001
,
1000
0000
1000
0100
0001
0000
0100
0000
,
1000
0100
0001
0000
0100
0000
1000
0010
,
0001
0000
0010
0000
1000
0010
0100
0000
,
0001
0101
0001
0110
,
0100
0000
0100
0000
0010
0100
0010
0000
,
0110
0110
0100
0100
,
0001
0100
0001
0000
1000
0000
0010
0000
,
1000
0000
0001
0000
1000
0100
1000
0000
,
0001
0010
0011
0001
,
0100
0010
0100
0000
0100
0000
0010
0000
,
1000
0000
0110
0000
0010
0100
0010
0000
,
0200
0300
0001
1000
0001
0000
1000
0100
,
1000
0000
0100
0000
0010
0100
0010
0000
,
0001
0000
1000
0100
0001
0000
0100
0000
,
0100
1000
0100
1000
0100
0000
0010
0000
,
0001
0100
0010
1000
,
0100
0010
0100
0000
0010
0000
0001
1000
,
0010
0000
0010
0000
0010
1000
0001
0000
,
1000
0000
0100
0000
0001
0000
0100
0010
,
1000
0000
0001
0000
1000
0000
0100
0010
,
0001
0000
0100
0010
,
0100
0010
0100
0000
0001
0000
1000
0100
,
0010
0002
0003
1010
,
1010
0000
1000
0100
0010
0000
0001
0000
,
0010
0000
0100
1000
0100
0000
0001
0000
,
0010
0000
0100
1000
0100
0000
0001
0000
,
0100
0010
1000
0001
,
0101
0000
0110
0000
1000
0001
1000
0000
,
0001
0000
1001
0000
1100
0000
0100
1000
,
0100
1000
0001
0101
,
0110
0100
0010
0100
,
0010
0100
0010
0000
1000
0000
0010
0100
,
0010
0100
0100
0100
,
0000
0000
0100
0000
0100
0000
0200
0300
,
0000
0000
0000
0000
0000
0000
0000
0000
0002
0000
0000
0000
0000
0000
0000
1000
0000
0000
0000
0000
0000
0000
0000
0000
0000
0000
0000
0000
0000
0000
0000
0000
,
0003
0000
0000
0000
;

//---------------dance-single - ----------------
#NOTEDATA:;
#CHARTNAME:;
#STEPSTYPE:dance-single;
#DESCRIPTION:;
#CHARTSTYLE:;
#DIFFICULTY:Medium;
#METER:9;
#RADARVALUES:0.305101,0.352685,0.088171,0.254717,0.058781,218.000000,209.000000,9.000000,26.000000,0.000000,0.000000,0.000000,0.000000,0.000000,0.305101,0.352685,0.088171,0.254717,0.058781,218.000000,209.000000,9.000000,26.000000,0.000000,0.000000,0.000000,0.000000,0.000000;
#CREDIT:;
#NOTES:
0000
0000
0000
0000
,
0000
0000
0000
0000
,
0000
0000
0000
0000
,
0000
0000
0000
0000
0000
0000
0000
0000
0000
0000
0000
2000
0000
0000
0000
0000
,
3000
0000
0000
0000
0000
0000
0000
0002
0000
0000
0000
0000
0003
0000
0000
0000
,
0000
0000
0000
0200
0000
0000
0000
0000
0300
0000
0000
0000
0000
0000
0000
0020
,
0000
0000
0000
0000
0030
0000
0000
0100
0000
0000
0000
0002
0000
0000
0000
0000
,
0003
0000
0000
0000
0000
0000
0100
0000
0000
0000
0000
0000
0000
0000
0200
0000
0000
0000
0000
0000
0000
0000
0000
0000
0300
0000
0000
0000
0000
0000
0000
0010
,
0000
0000
0000
0000
0000
0000
0000
2000
0000
0000
0000
0000
0000
0000
0000
0000
3000
0000
0000
0000
0000
0000
0000
0000
0000
0000
0000
0000
0000
0000
0000
0000
,
0001
0000
1000
0000
0010
0000
0100
0010
,
1000
0010
0100
0000
0001
1000
0200
0300
,
1000
0100
0001
0100
1000
0000
1000
0010
,
0002
0003
0010
0000
1000
0100
0010
0000
,
0001
0000
0100
0001
0010
0000
0100
1000
,
0100
0010
0100
0000
0010
0100
0010
0001
,
1000
0000
0001
0000
0100
0000
0100
0001
,
0010
0000
0001
1000
0010
0000
0100
0000
,
0001
0010
0001
0000
1000
0100
1000
0010
,
0001
0010
0100
0101
,
0100
0000
0100
0010
1000
0000
0100
0000
,
1000
0100
0011
0000
0110
0000
0010
0100
,
0002
0003
2000
3000
0002
0003
2000
0000
,
0001
0000
3100
0100
0020
0000
0001
0000
,
0031
0100
0020
0000
0100
0000
0130
0001
,
0100
1000
0100
0001
0100
0010
0200
0000
,
0001
0000
0301
1000
1010
0000
1000
0100
,
0010
0001
0100
0000
0010
0100
0001
1000
,
0010
0100
0010
0000
0100
0001
0020
0000
,
0001
0000
0130
1000
1001
0000
0200
0300
,
2000
3000
1001
0000
0001
0010
0100
0000
,
0011
0000
0001
0010
0100
0010
0002
0000
,
0100
1003
0100
1000
,
0100
0010
0002
0000
0100
0000
0013
0001
,
1000
0100
1000
0000
0010
0000
0200
0000
,
0010
0000
0301
1000
0100
0010
0001
0000
,
1000
0010
0100
0010
2000
0000
0001
0000
,
3010
0100
0010
0001
,
0110
0000
0100
0001
1000
0001
1000
0000
,
0001
0010
0100
0010
0001
0000
0100
0010
,
0100
0000
1001
0000
0001
0100
0002
0000
,
0100
0000
1003
0100
0010
0100
1000
0000
,
0010
0100
0010
0100
0001
0000
0010
0100
,
0010
0100
1000
0000
0001
0000
0200
0000
,
0300
0010
0010
0100
,
0100
0000
0000
0000
0000
0000
0000
0000
0002
0000
0000
0000
0000
0000
0000
1000
0000
0000
0000
0000
0000
0000
0000
1000
0000
0000
0000
0000
0000
0000
0000
0000
,
0003
0000
0000
0000
;

//---------------dance-single - ----------------
#NOTEDATA:;
#CHARTNAME:;
#STEPSTYPE:dance-single;
#DESCRIPTION:;
#CHARTSTYLE:;
#DIFFICULTY:Hard;
#METER:10;
#RADARVALUES:0.369480,0.418814,0.107765,0.313498,0.058781,264.000000,253.000000,11.000000,32.000000,0.000000,0.000000,0.000000,0.000000,0.000000,0.369480,0.418814,0.107765,0.313498,0.058781,264.000000,253.000000,11.000000,32.000000,0.000000,0.000000,0.000000,0.000000,0.000000;
#CREDIT:;
#NOTES:
// measure 0
0000
0000
0000
0000
,  // measure 1
0000
0000
0000
0000
,  // measure 2
0000
0000
0000
0000
,  // measure 3
0000
0000
0000
0000
0000
0000
0000
0000
0000
0000
0000
2000
0000
0000
0000
0000
,  // measure 4
3000
0000
0000
0000
0000
0000
0000
0002
0000
0000
0000
0000
0003
0000
0000
0000
,  // measure 5
0000
0000
0000
0200
0000
0000
0000
0000
0300
0000
0000
0000
0000
0000
0000
0020
,  // measure 6
0000
0000
0000
0000
0030
0000
0000
0100
0000
0000
0000
0020
0000
0000
0000
0000
,  // measure 7
0030
0000
0000
0000
0000
0000
0100
0000
0000
0000
0000
0000
0000
0000
0200
0000
0000
0000
0000
0000
0000
0000
0000
0000
0300
0000
0000
0000
0000
0000
0000
0010
,  // measure 8
0000
0000
0000
0000
0000
0000
0000
2000
0000
0000
0000
0000
0000
0000
0000
0000
3100
0000
0000
0000
0000
0000
0000
0000
0100
0000
0000
0000
0010
0000
0000
0000
,  // measure 9
0001
0010
0200
2300
3020
0000
0130
0010
,  // measure 10
1000
0001
0100
0010
0100
0010
0110
0000
,  // measure 11
0001
0100
0001
0100
1000
0100
1000
0100
,  // measure 12
0001
0010
0100
0010
0002
0103
0110
0100
,  // measure 13
0001
0010
0100
1000
1010
0100
0100
0010
,  // measure 14
0100
0001
0200
0310
0100
0010
0001
0010
,  // measure 15
0100
0001
1000
0000
0200
0300
0010
0001
,  // measure 16
0010
0100
0001
0100
0010
0001
0100
0000
,  // measure 17
0001
0010
0011
0000
1000
0100
1000
0010
,  // measure 18
0001
0010
0100
0001
0010
0001
0110
0000
,  // measure 19
0010
0100
0010
1000
0100
0010
0100
0010
,  // measure 20
0001
0100
0110
0000
0100
0001
0010
0100
,  // measure 21
0010
0001
2000
3000
0002
0003
2000
0001
,  // measure 22
0001
0000
3001
0100
0020
0100
0100
0000
,  // measure 23
0130
0001
0020
0130
1000
0100
1000
0001
,  // measure 24
0010
0001
0100
1000
0100
0001
0200
0000
,  // measure 25
0000
0310
0020
0030
,  // measure 26
0100
0010
0100
0000
0010
0100
0001
1000
,  // measure 27
0010
0100
0001
0000
1000
0001
2001
0000
,  // measure 28
0001
0000
3100
0100
2000
0000
3010
0000
,  // measure 29
0100
0010
2001
0000
3001
0100
0010
1000
,  // measure 30
0001
0100
0010
1000
0100
0010
0002
0000
,  // measure 31
0103
0010
1000
0100
0010
0100
1000
0000
,  // measure 32
0100
0100
0020
0000
0031
0100
0010
1000
,  // measure 33
0001
0100
0010
0100
0010
0100
0120
0000
,  // measure 34
0130
0001
1000
0010
0100
0001
1000
0010
,  // measure 35
1000
0001
0101
0100
0020
0000
1030
0100
,  // measure 36
0010
0100
0010
0000
0001
0010
0011
0000
,  // measure 37
0010
0100
1000
0100
0010
0001
1000
0000
,  // measure 38
0001
0100
0010
0100
0001
1000
0100
0010
,  // measure 39
0100
1000
0002
0003
0020
0030
0200
1000
,  // measure 40
1300
0100
1000
0100
0010
0010
0001
0000
,  // measure 41
0010
0100
0020
0001
0001
0001
0031
0100
,  // measure 42
0010
0100
0001
0000
1000
0000
0100
0000
,  // measure 43
0010
0100
1000
0010
,  // measure 44
0100
0000
0000
0000
0000
0000
0000
0000
0002
0000
0000
0000
0000
0000
0000
1000
0000
0000
0000
0000
0000
0000
0000
1000
0000
0000
0000
0000
0000
0000
0000
0000
,  // measure 45
0003
0000
0000
0000
;
