#VERSION:0.83;
#TITLE:silent green;
#SUBTITLE:;
#ARTIST:Sasara Yukie;
#TITLETRANSLIT:;
#SUBTITLETRANSLIT:;
#ARTISTTRANSLIT:;
#GENRE:;
#ORIGIN:;
#CREDIT:from pop n music 10 AC / 8 CS;
#BANNER:Sasara Yukie - silent green.png;
#BACKGROUND:;
#PREVIEWVID:;
#JACKET:;
#CDIMAGE:;
#DISCIMAGE:;
#LYRICSPATH:;
#CDTITLE:Popn_music_10_logo_small.png;
#MUSIC:Sasara Yukie - silent green.ogg;
#OFFSET:-0.278000;
#SAMPLESTART:32.602001;
#SAMPLELENGTH:16.000000;
#SELECTABLE:YES;
#DISPLAYBPM:128.000000;
#BPMS:0.000=128.000,
264.500=64.000;
#STOPS:;
#DELAYS:;
#WARPS:;
#TIMESIGNATURES:0.000=4=4;
#TICKCOUNTS:0.000=4;
#COMBOS:0.000=1;
#SPEEDS:0.000=1.000=0.000=0;
#SCROLLS:0.000=1.000;
#FAKES:;
#LABELS:0.000=Song Start;
#BGCHANGES:;
#KEYSOUNDS:;
#ATTACKS:
;

//---------------dance-single - ----------------
#NOTEDATA:;
#CHARTNAME:;
#STEPSTYPE:dance-single;
#DESCRIPTION:;
#CHARTSTYLE:;
#DIFFICULTY:Beginner;
#METER:3;
#RADARVALUES:0.162570,0.202993,0.038446,0.046135,0.000000,148.000000,143.000000,5.000000,6.000000,0.000000,0.000000,0.000000,0.000000,0.000000,0.162570,0.202993,0.038446,0.046135,0.000000,148.000000,143.000000,5.000000,6.000000,0.000000,0.000000,0.000000,0.000000,0.000000;
#CREDIT:;
#NOTES:
0000
0000
0000
0000
,
0000
0001
0000
1000
,
0000
0010
0000
0100
,
0010
0100
0000
0001
,
0000
1000
0000
0010
,
0100
0010
0000
0100
,
0000
0001
0000
1000
,
0001
2000
0000
3001
,
0010
0002
0000
1003
,
0000
0100
0100
0010
,
0010
0001
0001
1000
,
0000
0001
0001
0010
,
0010
0100
0100
1000
,
0000
0001
0001
1000
,
1000
0001
0001
1000
,
0000
0010
0100
0001
,
1000
0010
0100
0001
,
0000
2000
0000
3001
,
0000
0001
0000
1000
,
0000
0010
0100
0001
,
0000
1001
0000
1000
,
0100
0010
0000
0001
,
0000
1000
0100
0010
,
0000
0001
0000
1000
,
0000
0001
0000
1000
,
0001
1000
0000
0001
,
0000
1000
0000
1001
,
0000
0001
0000
1000
,
0000
0010
0000
0100
,
0000
0001
0000
1000
,
0000
0001
0000
0001
,
1000
0001
0000
1000
,
0000
0010
0000
0100
,
0000
0002
0000
0003
,
0000
0001
0000
0001
,
0000
0002
0000
0003
,
0000
0001
0000
0001
,
0000
1000
0000
1000
,
0000
0001
0000
0000
,
0000
1000
0000
1000
,
0000
0001
0000
0100
,
0000
0001
0000
1000
,
0000
2000
0000
3000
,
0000
1000
0000
1000
,
0000
1000
0000
0001
,
0000
1000
0000
0000
,
0000
0001
0000
0000
,
0000
0101
0000
0000
,
0000
1001
0000
1000
,
0000
0001
0000
1000
,
0000
0001
0000
0000
,
0001
0001
0000
0000
,
1000
1000
0000
0000
,
0010
0010
0000
0000
,
0000
1001
0000
0000
,
1000
1000
0000
0000
,
0001
0001
0000
0000
,
0000
1000
0000
0001
,
0000
1000
0000
0000
,
0000
0010
0000
0100
,
0000
0001
0000
1000
,
0001
1000
0000
0001
,
0000
0001
0000
0001
,
0000
1000
0000
0010
,
0000
0100
0000
0001
,
0000
0100
0000
0010
,
1000
0000
0000
0000
;

//---------------dance-single - ----------------
#NOTEDATA:;
#CHARTNAME:;
#STEPSTYPE:dance-single;
#DESCRIPTION:;
#CHARTSTYLE:;
#DIFFICULTY:Easy;
#METER:5;
#RADARVALUES:0.224083,0.279115,0.092269,0.076891,0.000000,204.000000,192.000000,12.000000,10.000000,0.000000,0.000000,0.000000,0.000000,0.000000,0.224083,0.279115,0.092269,0.076891,0.000000,204.000000,192.000000,12.000000,10.000000,0.000000,0.000000,0.000000,0.000000,0.000000;
#CREDIT:;
#NOTES:
0000
0000
0000
0001
,
0000
0001
1000
0010
,
0100
0101
0010
1000
,
0001
1001
0001
1000
,
0010
0100
0101
0010
,
1000
0001
0001
0001
,
0001
1000
1000
1000
,
1000
0010
0010
0010
,
0010
0100
0100
0100
,
0100
0001
1000
0001
,
0100
0001
1000
0001
,
0100
0001
1000
0010
,
1000
0001
1000
0010
,
1000
0001
0010
0100
,
1000
0001
0010
0100
,
1000
0001
1000
0001
,
1000
0001
0010
0001
,
0010
0011
0000
0010
,
0001
1000
0000
1000
,
0010
0100
0000
0001
,
1000
0010
0000
0100
,
0001
1001
1000
0001
,
1000
1001
0001
1000
,
0000
0020
0000
0130
,
0000
0100
0010
0100
,
0000
0001
1000
0001
,
0000
1000
0010
0100
,
0001
1000
0000
0010
,
0100
0010
0000
1000
,
1000
0001
0000
0001
,
0000
0100
0000
0010
,
0000
0110
0000
0001
,
0000
1000
0000
0001
,
0000
0002
0000
1003
,
1000
0001
0000
0001
,
1000
1000
0000
0010
,
0000
0100
0100
0001
,
0001
1000
0000
0020
,
0000
0000
0030
0100
,
0000
0200
0000
0000
,
0300
0001
0000
1000
,
0000
1001
0000
1000
,
0001
0200
0000
0301
,
0000
1000
0001
1000
,
0000
0001
0010
0100
,
1000
0001
0000
1000
,
0000
0002
0000
0003
,
0000
1001
0000
1000
,
0000
0110
0000
0010
,
0000
0011
0000
0001
,
0000
2000
3000
0001
,
0000
0002
0000
0003
,
1000
0010
0000
0100
,
0000
0001
0000
1000
,
0000
1001
0000
0001
,
1000
0002
0003
1000
,
0000
0020
0000
0000
,
0030
0100
0000
0100
,
0100
0100
0000
0001
,
0000
1000
0001
0100
,
0001
1000
0000
1000
,
0000
0001
0100
0010
,
0100
0001
0000
1000
,
0000
0001
0100
0001
,
0100
0001
1000
0100
,
1000
0010
0100
0010
,
0100
0000
0000
0000
;

//---------------dance-single - ----------------
#NOTEDATA:;
#CHARTNAME:;
#STEPSTYPE:dance-single;
#DESCRIPTION:;
#CHARTSTYLE:;
#DIFFICULTY:Medium;
#METER:10;
#RADARVALUES:0.436083,0.533865,0.230673,0.199917,0.057668,397.000000,367.000000,30.000000,26.000000,0.000000,0.000000,0.000000,0.000000,0.000000,0.436083,0.533865,0.230673,0.199917,0.057668,397.000000,367.000000,30.000000,26.000000,0.000000,0.000000,0.000000,0.000000,0.000000;
#CREDIT:;
#NOTES:
0000
0000
0000
0001
,
0000
0000
0001
0010
1000
0010
0000
0010
,
0001
0000
0101
0001
1000
0001
0000
1000
,
0001
0000
1000
0100
0001
0100
0000
0100
,
1000
0000
1010
0100
0100
0001
0000
0001
,
1000
0001
0101
1001
,
0001
1000
0010
1010
,
1000
0100
0010
0000
0011
0000
0001
0000
,
1000
0010
0100
0000
0110
0000
0101
0000
,
0100
0000
0001
1000
0001
1000
0001
1000
,
0100
1000
0100
1000
0100
0010
0001
0000
,
0001
0010
0001
1000
0100
0001
0100
1000
,
0100
0010
0100
1000
0100
0001
0100
1000
,
0001
0000
1000
1000
1010
0100
0100
0001
,
0101
0001
1000
0010
0100
0010
0110
0010
,
1000
0001
1000
0100
0011
0001
2000
3010
,
2000
3001
0020
0031
2000
3000
0002
0003
,
0100
0000
0010
0000
0110
0000
0000
0010
0000
0000
0100
0000
0010
0000
0000
1000
,
0000
0001
2000
3000
0001
0000
1000
0010
,
0100
0000
0000
0000
0100
0000
0000
0001
0000
0000
1000
0000
0001
0000
0000
0010
,
0000
0100
1000
0000
0001
0010
0100
0010
,
0001
0000
0000
0000
1000
0000
0000
0100
0000
0000
0001
0000
1000
0000
0010
0000
,
0001
0000
0000
0000
0001
0000
0000
0010
0000
0000
1000
0000
0000
0000
0000
0000
,
0001
0100
2000
3000
0020
0030
0200
0300
,
0002
0003
1000
0010
0110
0000
0100
0010
,
0100
0000
0000
0000
0101
0000
0000
0001
0000
0000
0010
0000
0100
0000
0000
0001
,
0000
0100
2000
3000
0010
0100
0100
0100
,
0001
0000
0000
0000
1000
0000
0000
0100
0000
0000
0010
0000
1000
0000
0010
0000
,
0000
0001
0010
0001
0000
0100
0010
0000
,
1001
0000
0000
0000
0001
0000
0000
0100
0000
0000
0010
0000
0010
0000
0000
0000
,
0100
0000
0000
0000
1000
0000
0000
0010
0000
0000
0100
0000
0100
0000
0000
0000
,
0010
0000
0000
0000
0100
0000
0000
0010
0000
0000
0100
0000
0000
0001
0000
0000
,
1000
0000
1000
0000
0001
1000
0001
0000
,
0100
0002
0100
0103
,
1000
0010
0100
0000
0010
0100
0001
0000
,
1000
0000
0010
0000
0100
0000
0000
0010
0000
0000
0100
0000
0001
0000
0000
0000
,
2000
3000
0200
0300
0020
0030
0002
0003
,
1000
0010
1000
0000
0001
0010
0001
0000
,
0100
0010
0110
0000
1000
0001
0100
0001
,
0100
0000
0010
1000
0010
0000
0100
0001
,
0010
0001
0010
0100
1000
0100
1000
0000
,
0010
1002
0000
1003
,
0001
0100
0002
0000
1003
0000
0100
0010
,
0001
0000
0000
0000
1000
0000
0000
0001
0000
0000
0100
0000
0001
0000
0000
0000
,
0001
0000
1001
0000
0010
0100
0010
1000
,
0001
0000
0002
0003
0100
0010
1000
0000
,
0010
0000
0100
0001
0100
0010
1000
0000
,
0001
0000
1001
0000
0001
0100
1000
0000
,
0100
0010
0102
0000
0003
0001
0020
0000
,
0030
0000
0010
0001
1000
0100
0001
1000
,
0010
0001
2000
0000
3010
0100
0000
0100
,
0000
0001
0200
0000
0300
0001
0000
0001
,
1000
0010
1010
0000
0101
0000
0100
0010
,
0100
0000
0001
1000
0001
0000
1000
0100
,
0010
0001
2002
0000
3003
1000
0000
0001
,
1000
0001
0000
1000
0000
0010
1000
0010
,
0100
0020
1000
0100
,
0031
0000
0010
0100
0010
0000
0100
0001
,
0100
0100
0100
0101
,
0001
0000
1000
0100
0010
0000
0100
0010
,
0001
1000
0000
1001
,
0001
0000
0001
0010
0100
0000
0010
0100
,
1000
0001
1000
1001
,
0001
0100
0001
0000
0100
0000
0110
0000
,
0100
0010
0110
0000
1001
0000
1000
0001
,
0100
0000
0001
0010
1000
0000
0001
1000
,
0010
0010
0000
0000
0000
0000
0000
0000
;

//---------------dance-single - ----------------
#NOTEDATA:;
#CHARTNAME:;
#STEPSTYPE:dance-single;
#DESCRIPTION:;
#CHARTSTYLE:;
#DIFFICULTY:Hard;
#METER:15;
#RADARVALUES:0.730466,0.765547,0.269119,0.207606,0.738155,665.000000,630.000000,35.000000,27.000000,0.000000,0.000000,0.000000,0.000000,0.000000,0.730466,0.765547,0.269119,0.207606,0.738155,665.000000,630.000000,35.000000,27.000000,0.000000,0.000000,0.000000,0.000000,0.000000;
#CREDIT:;
#DISPLAYBPM:128.000000;
#NOTES:
// measure 0
0000
0000
0000
0001
,  // measure 1
0000
0000
0000
0000
1000
0000
0100
0000
0010
0000
0001
0010
0000
0001
0010
0000
,  // measure 2
0011
0000
0000
0000
0001
0000
0010
0000
0100
0000
1000
0100
0000
1000
0100
0000
,  // measure 3
1100
0000
0000
0000
1000
0000
0010
0000
0100
0000
0001
0100
0000
0001
0100
0000
,  // measure 4
0010
0100
0001
0000
0001
0000
0100
0000
0010
0000
1000
0010
0000
1000
0010
0000
,  // measure 5
1000
0000
0000
0000
0100
0010
0100
0000
0101
0000
0001
0000
1001
0000
1000
0001
,  // measure 6
1000
0000
0001
0000
1000
0001
0100
0000
0010
0100
0010
0000
0110
0000
0000
0000
,  // measure 7
1000
0001
0100
0000
0010
0100
0010
0100
0001
0000
1000
0000
0001
1000
0001
1000
,  // measure 8
0001
0000
0010
0000
0100
1000
0100
1000
0010
0000
0100
0001
0000
0001
0100
0010
,  // measure 9
0100
0000
0000
0000
1000
0001
1000
0000
0001
1000
0001
0000
0010
0100
0010
0000
,  // measure 10
0001
1000
0010
0000
0100
0010
1000
0001
1000
0100
1000
0010
0100
0001
0100
0000
,  // measure 11
0001
0000
0010
0000
0001
0010
0001
0000
0001
1000
0010
0000
0100
0010
1000
0000
,  // measure 12
1000
0100
1000
0000
0100
1000
0010
0100
0001
1000
0010
0100
0001
0010
0100
0010
,  // measure 13
0001
0000
1000
0000
0100
1000
0100
0010
0001
0100
0001
1000
0100
1000
0001
0100
,  // measure 14
0001
0000
0100
0001
1000
0100
0010
0001
1000
0100
1000
0001
0010
0001
0100
0010
,  // measure 15
0100
0000
0001
0000
1000
0100
0010
0100
1000
0001
0010
0100
0010
0100
0010
0100
,  // measure 16
1000
0000
0000
0000
0000
0000
0001
0000
0000
0100
0000
0000
0001
0000
0000
0000
0100
0000
0000
0000
0000
0000
0100
0000
0001
0000
0000
0000
1000
0000
0000
0000
0000
0000
0010
0000
0100
0000
0000
0000
0010
0000
0100
0000
0000
0000
0000
0000
,  // measure 17
0010
0000
0100
0000
0110
0000
0000
0010
0000
0000
0100
0000
0010
0000
1000
0001
,  // measure 18
0000
0000
0000
0000
0000
0000
0001
0000
0000
0000
0000
0000
2000
0000
0000
0000
0000
0000
3000
0000
0000
0000
0000
0000
0001
0000
0000
0000
0000
0000
0010
0000
0000
0100
0000
0000
0000
0000
0000
0000
0100
0000
0010
0000
0000
0000
0010
0000
,  // measure 19
0001
0000
0000
0000
0001
0000
1000
0001
0000
0001
1000
0000
0001
0010
0001
0010
,  // measure 20
0000
0000
0100
0000
0010
0000
0001
0000
0001
0000
0010
0100
0010
0100
1000
0000
,  // measure 21
0001
0000
0100
0001
1000
0000
0000
0100
0000
0010
0001
0000
1000
0010
0100
0001
,  // measure 22
0100
0000
0001
0000
1001
0000
0001
1000
0000
0010
1000
0000
0100
0010
0100
0010
,  // measure 23
0001
0000
0100
0010
1000
0000
0100
0000
0010
0000
0001
0000
0200
0000
0310
0000
,  // measure 24
2000
0000
3001
0000
0010
0100
0010
0000
0100
0010
0100
0000
0010
0100
0010
0100
,  // measure 25
0010
0000
0000
0000
0101
0000
0000
0001
1000
0000
0010
0000
0110
0000
1000
0001
,  // measure 26
0000
0000
0000
0000
0000
0000
0100
0000
0000
0010
0000
0000
1000
0000
0000
0000
0000
0000
0100
0000
0000
0000
0000
0000
0010
0000
0000
0000
0000
0000
0001
0000
0000
0000
0000
0000
0100
0000
0000
0000
0010
0000
0100
0000
0000
0000
0001
0000
,  // measure 27
0100
0000
0000
0000
1000
0000
0010
0100
0000
0010
1000
0000
1000
0000
0100
0010
,  // measure 28
0000
0000
0001
0100
0010
0100
0001
0000
0100
0000
0000
0000
0010
0100
0010
0100
,  // measure 29
0001
0000
0000
0000
1100
0000
0000
0100
0000
0000
0010
0000
0001
0010
0100
1000
,  // measure 30
0000
0001
0010
0000
0100
0000
0010
0001
0000
0001
0100
0000
0010
0100
0001
0100
,  // measure 31
0010
0000
0000
0000
0110
0000
0000
0010
0000
0000
0100
0000
0000
0001
0000
0000
,  // measure 32
1000
0100
1000
0000
0001
0010
0001
0000
0100
0010
0100
0000
0100
0010
0100
0010
,  // measure 33
0100
0000
0010
0000
0200
0000
0000
0000
0301
0100
0000
0100
0010
0000
1000
0100
,  // measure 34
0000
0100
0010
0000
0001
0010
0001
0000
0100
1000
0100
0000
0001
0010
0000
0100
,  // measure 35
1000
0000
0010
0000
0100
0010
0000
0010
0100
0000
0001
1000
0001
0000
1000
0000
,  // measure 36
0020
0130
0002
1003
0200
0310
0002
1003
,  // measure 37
0010
0000
0000
0000
2010
0000
0001
0000
3001
0000
0010
0001
0100
0000
0001
0000
,  // measure 38
0100
0000
1000
0000
0110
0000
0001
0010
1000
0000
0010
0000
0001
0000
0100
0000
,  // measure 39
0010
0100
0010
0100
0010
0000
1000
0000
0010
0100
0010
1000
0100
0000
0010
0000
,  // measure 40
0011
0000
0001
1000
0010
0100
0010
1000
0000
0001
0100
0010
0100
0001
0000
0100
,  // measure 41
0010
0100
1002
0003
2001
3001
0200
0300
,  // measure 42
0010
0100
0010
0000
2001
0000
3001
0000
1002
0000
1003
0000
0100
0010
0100
0010
,  // measure 43
0001
0000
0000
0000
1000
0000
0001
0100
0000
0100
0001
0000
1000
0000
0010
0000
,  // measure 44
0010
0000
0100
0000
1001
0000
0000
0000
0010
0000
0100
0010
0100
0010
1000
0000
,  // measure 45
0001
0000
0100
0000
0002
0000
0103
0000
0100
0000
0010
1000
0010
0000
0100
0010
,  // measure 46
0100
0000
0001
0000
0100
0000
0001
1000
0001
0000
0010
0100
0010
0000
0001
1000
,  // measure 47
0001
0000
0000
0000
1001
0000
0000
0000
0001
0000
0100
0000
0001
0100
0000
0001
,  // measure 48
0100
0010
0220
0000
0330
1000
0100
0010
,  // measure 49
0001
0000
0000
1000
0000
0000
0001
0000
0000
0000
0000
0000
0010
0000
0100
0000
0000
0000
0000
0000
0000
0000
0100
0000
1000
0000
0000
0000
0000
0000
0001
0000
0000
0000
0010
0000
0001
0000
0000
0000
0100
0000
0010
0000
0000
0000
0000
0000
,  // measure 50
0010
0000
0000
0000
0100
0000
0001
0000
0000
0000
0000
0000
2000
0000
0000
0000
0000
0000
0000
0000
0000
0000
0000
0000
3010
0000
0000
0000
0000
0000
0100
0000
0000
0010
0000
0000
0100
0000
0000
0010
0000
0000
0100
0000
0000
0000
0000
0000
,  // measure 51
0001
0000
0001
0000
0200
0000
0000
0000
0301
0000
0001
1000
0001
1000
0001
0000
,  // measure 52
1000
0010
0100
0000
0010
0000
0100
0000
0101
0000
0000
0000
0011
0000
0010
0000
,  // measure 53
0100
0000
0010
0000
0001
1000
0100
0000
0100
1000
0001
0000
1000
0100
0010
0001
,  // measure 54
1000
0000
0001
0000
2002
0000
0000
0000
3003
0000
0100
0000
0010
0100
0001
0000
,  // measure 55
1000
0000
0002
0000
1003
0000
0100
0000
1000
0010
0100
0000
0100
0010
1000
0000
,  // measure 56
0100
0010
0002
0000
1000
1000
2003
0000
,  // measure 57
0001
0000
0001
0000
3002
0000
0000
0000
0100
0000
0100
0000
0103
0001
0000
0001
,  // measure 58
0100
0010
0110
0000
0100
0010
2001
0000
,  // measure 59
3001
0010
1000
0010
0001
0010
0100
0010
,  // measure 60
0000
0001
0000
1001
0000
0101
0000
1100
0000
0110
0000
0011
,  // measure 61
0000
0000
0000
0000
0001
0000
0010
0000
0110
0000
0100
0010
0100
0010
0001
1000
,  // measure 62
0001
0000
1000
0010
1010
0000
0101
0000
,  // measure 63
0001
0000
0100
0001
0100
0000
0010
0000
0100
0000
0010
0000
0110
0000
0000
0000
,  // measure 64
0100
0000
0010
0000
0100
0000
0001
0000
0001
0000
0100
0010
0100
0010
1000
0001
,  // measure 65
1000
0000
0000
0000
0001
0010
0001
0000
1000
0000
0100
1000
0010
1000
0100
1000
,  // measure 66
0001
0020
0000
0030
0000
0000
0000
0000
;
