#VERSION:0.83;
#TITLE:Forest Song;
#SUBTITLE:;
#ARTIST:MIKI-CHANG + world sequence;
#TITLETRANSLIT:;
#SUBTITLETRANSLIT:;
#ARTISTTRANSLIT:;
#GENRE:;
#ORIGIN:;
#CREDIT:;
#BANNER:MIKI-CHANG + world sequence - forest song.png;
#BACKGROUND:;
#PREVIEWVID:;
#JACKET:;
#CDIMAGE:;
#DISCIMAGE:;
#LYRICSPATH:;
#CDTITLE:;
#MUSIC:MIKI-CHANG + world sequence - forest song.ogg;
#OFFSET:-0.082000;
#SAMPLESTART:0.220000;
#SAMPLELENGTH:12.000000;
#SELECTABLE:YES;
#BPMS:0.000=91.000;
#STOPS:;
#DELAYS:;
#WARPS:;
#TIMESIGNATURES:0.000=4=4;
#TICKCOUNTS:0.000=4;
#COMBOS:0.000=1;
#SPEEDS:0.000=1.000=0.000=0;
#SCROLLS:0.000=1.000;
#FAKES:;
#LABELS:0.000=Song Start;
#BGCHANGES:;
#KEYSOUNDS:;
#ATTACKS:
;

//---------------dance-single - from pop n music 14 Fever cs----------------
#NOTEDATA:;
#CHARTNAME:;
#STEPSTYPE:dance-single;
#DESCRIPTION:from pop n music 14 Fever cs;
#CHARTSTYLE:;
#DIFFICULTY:Beginner;
#METER:2;
#RADARVALUES:0.092370,0.108377,0.029390,0.048984,0.000000,66.000000,63.000000,3.000000,5.000000,0.000000,0.000000,0.000000,0.000000,0.000000,0.092370,0.108377,0.029390,0.048984,0.000000,66.000000,63.000000,3.000000,5.000000,0.000000,0.000000,0.000000,0.000000,0.000000;
#CREDIT:;
#NOTES:
0000
0000
0000
0000
,
0000
0000
0000
0000
0000
1001
0000
0000
,
0000
0000
0000
0100
0000
0000
0000
0000
,
0000
0010
0000
0000
0000
0000
0000
0100
,
0000
0000
0000
0000
0000
0010
0000
0000
,
0000
0100
0000
0000
0000
0100
0000
0000
,
0000
0020
0000
0000
0000
0030
0000
0200
,
0000
0000
0000
0300
0000
0002
0000
0000
,
0000
0003
0000
2000
0000
0000
0000
3000
,
0000
0001
0000
0000
0000
0000
0000
1000
,
0000
0000
0000
0000
0000
0010
0000
0000
,
0100
0000
0000
0010
0000
0000
0000
0000
,
0000
0010
0000
0000
0100
0000
0000
0010
,
0000
0000
0000
0000
0000
1000
0000
0000
,
0000
0000
0000
0001
0000
0000
1000
0000
,
0000
0000
0001
0000
,
0000
0100
0000
0000
,
0100
0000
0000
0001
,
0000
1000
0000
0000
0001
0000
0000
0000
,
0000
0000
1000
0000
0000
0001
0000
0000
,
1000
0000
0000
0110
,
0000
0000
0010
0000
,
0000
0100
0000
0000
,
0001
0000
0000
1000
,
0000
1000
0000
0000
1000
0000
0000
0000
,
0000
0000
0001
0000
0000
0001
0000
0000
,
0001
0000
0000
1000
,
0000
0010
0000
0000
1000
0000
0000
0001
,
0000
0000
0001
0000
0000
1000
0000
0000
,
0010
0000
0000
0010
0000
0000
0000
0000
,
0000
0100
0000
0000
0010
0000
0000
0010
,
0000
0000
0000
0000
0000
1000
0000
0000
,
0001
0000
0000
1000
0000
0000
0001
0000
,
0000
1000
0000
0000
0000
0000
0000
0001
,
0000
0000
1000
0000
0000
0001
0000
0000
,
0000
0000
0000
1001
0000
0000
0000
0000
,
0000
1000
0000
0000
0002
0000
0000
0003
;

//---------------dance-single - from pop n music 14 cs----------------
#NOTEDATA:;
#CHARTNAME:;
#STEPSTYPE:dance-single;
#DESCRIPTION:from pop n music 14 cs;
#CHARTSTYLE:;
#DIFFICULTY:Easy;
#METER:3;
#RADARVALUES:0.156749,0.216755,0.097968,0.107765,0.000000,112.000000,102.000000,10.000000,11.000000,0.000000,0.000000,0.000000,0.000000,0.000000,0.156749,0.216755,0.097968,0.107765,0.000000,112.000000,102.000000,10.000000,11.000000,0.000000,0.000000,0.000000,0.000000,0.000000;
#CREDIT:;
#NOTES:
0000
0000
0000
0000
,
0000
0000
0000
0000
0000
0100
0000
0000
,
0010
0000
0000
0100
0000
0000
0001
0000
,
0000
1000
0000
0000
0001
0000
0000
2000
,
0000
0000
3000
0000
0000
0001
0000
0000
,
0010
0000
0000
0001
0000
0000
1000
0000
,
0000
0001
0000
0000
1000
0000
1000
0001
,
0000
0000
0001
0000
0000
1000
0000
0000
,
0001
0000
0000
1000
0000
0000
0001
0000
,
0000
0001
0000
0000
1000
0000
0000
0010
,
0000
0000
0110
0000
0000
0001
0000
0000
,
1000
0000
0000
0010
0000
0000
1000
0000
,
0000
0001
0000
0000
0001
0000
0000
0000
,
1000
1000
1000
0000
0000
0001
0000
0000
,
0000
0000
0000
0010
0000
0000
0210
0000
,
0000
0000
0300
0000
0010
0000
0010
0010
,
0000
0100
0100
0000
0001
0001
0000
0001
,
1000
0000
1000
1000
0000
1000
0010
0000
,
0000
0010
0000
0000
0100
0000
0000
0110
,
0000
0000
0110
0000
0000
1001
0000
0000
,
1001
0000
0000
0010
0000
0000
0100
0000
,
0000
1000
0000
0000
0020
0000
0000
1030
,
0000
0000
0100
0000
0000
0001
0000
0000
,
1000
0000
0000
0002
0000
0000
1003
0000
,
0000
0001
0000
0000
0100
0000
0000
0010
,
0000
0000
0000
0000
0000
0100
0000
0000
,
0010
0000
0000
0100
0000
0000
0020
0000
,
0000
1030
0000
0000
0002
0000
0000
1003
,
0000
0000
2000
0000
0000
3010
0000
0000
,
0020
0000
0000
0130
0000
0000
0000
0100
,
0100
0100
0000
0000
0000
0010
0010
0010
,
0000
0000
0000
0010
0010
0010
0000
0000
,
0000
1000
1000
2000
0000
0000
0000
0000
,
3000
0001
0000
0000
1001
0000
0000
2000
,
0000
0000
3001
0000
0000
0002
0000
0000
,
0103
0000
0000
0010
0000
0000
0110
0000
,
0000
0100
0000
0000
0101
0000
0000
0101
;

//---------------dance-single - ----------------
#NOTEDATA:;
#CHARTNAME:;
#STEPSTYPE:dance-single;
#DESCRIPTION:;
#CHARTSTYLE:;
#DIFFICULTY:Medium;
#METER:5;
#RADARVALUES:0.211331,0.234817,0.039187,0.097968,0.000000,151.000000,147.000000,4.000000,10.000000,0.000000,0.000000,0.000000,0.000000,0.000000,0.211331,0.234817,0.039187,0.097968,0.000000,151.000000,147.000000,4.000000,10.000000,0.000000,0.000000,0.000000,0.000000,0.000000;
#CREDIT:;
#NOTES:
// measure 0
0000
0000
0000
0000
,  // measure 1
0000
0000
0000
0000
0000
0100
0000
0000
,  // measure 2
0010
0000
0000
2000
0000
0000
3002
0000
,  // measure 3
0000
1003
0100
0000
0010
0001
0000
1000
,  // measure 4
0001
0000
0001
1000
0000
0020
0000
0000
,  // measure 5
0000
0000
0000
0100
0000
0000
0000
0000
,  // measure 6
0030
1000
0000
0001
1000
0000
0010
0100
,  // measure 7
0000
0100
0010
0000
0000
1000
0010
0100
,  // measure 8
0001
0000
0000
1000
0001
0100
0010
0000
,  // measure 9
0000
0100
0010
0100
0010
0000
0000
0001
,  // measure 10
1000
0001
1000
0000
0000
0010
0100
0010
,  // measure 11
0100
0000
0000
1000
0001
1000
0001
0000
,  // measure 12
0000
0100
0000
0000
0010
0000
0000
0100
,  // measure 13
0000
0110
0000
0000
,  // measure 14
0010
0000
0000
0100
0000
0000
0010
0000
,  // measure 15
0000
0100
0010
0100
0010
0000
0000
1000
,  // measure 16
0001
1000
0001
0000
0000
0010
0100
0010
,  // measure 17
0100
0000
0000
1000
0001
0100
0010
0000
,  // measure 18
0000
0010
0010
0010
0010
0000
0000
0100
,  // measure 19
0100
0100
0100
0000
0000
0001
0001
0001
,  // measure 20
0001
0000
0000
1000
1000
0001
0001
0000
,  // measure 21
0000
2000
0000
0000
0010
0000
0000
0001
,  // measure 22
0000
3000
0002
0000
0000
0100
0000
0000
,  // measure 23
1000
0003
0000
2000
0000
0000
0010
0000
,  // measure 24
0000
0100
0000
3000
0002
0000
0000
0100
,  // measure 25
0000
0000
0010
0003
0000
0020
0000
0000
,  // measure 26
0001
0000
0000
0100
0000
0030
0100
0000
,  // measure 27
0000
1001
0000
0000
0010
0100
0010
0200
,  // measure 28
0000
0000
0300
0001
1000
0001
1000
0001
,  // measure 29
1000
0000
0001
2000
0000
0000
3010
0000
,  // measure 30
0100
0010
0000
0100
0001
0000
0010
0001
,  // measure 31
1000
0100
0000
1000
0001
0000
1000
0001
,  // measure 32
1000
0000
0000
0110
0000
0000
0010
0000
,  // measure 33
0000
0100
0010
0100
0010
0000
0000
1001
,  // measure 34
0000
0000
1000
0000
0000
0001
0100
0001
,  // measure 35
0100
0000
0010
0010
0000
0000
0100
0000
,  // measure 36
0000
0100
0000
0000
0100
0001
0100
0001
;

//---------------dance-single - from pop n music 14 cs----------------
#NOTEDATA:;
#CHARTNAME:;
#STEPSTYPE:dance-single;
#DESCRIPTION:from pop n music 14 cs;
#CHARTSTYLE:;
#DIFFICULTY:Hard;
#METER:9;
#RADARVALUES:0.398870,0.414742,0.117562,0.127359,0.357584,285.000000,273.000000,12.000000,13.000000,0.000000,0.000000,0.000000,0.000000,0.000000,0.398870,0.414742,0.117562,0.127359,0.357584,285.000000,273.000000,12.000000,13.000000,0.000000,0.000000,0.000000,0.000000,0.000000;
#CREDIT:;
#NOTES:
0000
0000
0000
0000
,
0000
0000
0000
0000
0000
0000
0000
0000
0000
0000
0100
0000
0010
0100
0000
0100
,
0010
1000
0001
1000
0000
0000
0001
0000
1000
0001
0000
0001
1000
0010
0100
0010
,
0000
0000
0100
0000
0001
0100
0000
0100
0001
0010
0001
0100
0000
0000
0010
0000
,
0100
0010
0000
0100
0010
1000
0001
1000
0000
0000
0002
0000
1000
0000
0000
0000
,
1000
0003
0100
0020
0000
0000
0100
0030
,
0000
0000
0120
0000
0000
0000
0130
0010
0100
0000
0001
0000
1000
0100
1000
0000
,
0001
0010
0100
1000
0000
0010
0100
0010
,
1000
0000
0000
0001
0000
0000
1000
0000
0100
0000
0010
0000
0001
0000
0000
0001
,
0000
0000
0001
0000
0010
0000
0100
0000
1000
0000
0000
1000
0100
0000
0010
0000
,
0001
0100
0110
0000
0000
0010
0100
1000
,
0001
0000
0000
1000
0000
0000
0010
0000
0010
0000
0100
0000
0100
0000
0000
0010
,
0000
0000
1000
0000
0001
0000
1000
0000
0100
0000
0000
0010
0100
0010
0100
0000
,
1000
0000
0001
1000
0001
0000
0100
0000
0000
0100
0010
0000
0100
0010
0000
0100
,
0010
0000
0000
0000
0010
0000
1000
0000
0001
0100
0001
0000
0101
0000
0000
0000
,
0001
0000
0100
0000
0000
0000
0000
0100
0001
0100
0000
0010
0000
0100
0010
0100
,
0000
0010
0000
0100
0010
1000
0000
0001
0000
0100
0010
1000
0000
0001
0000
0100
,
0001
1000
0000
0010
0000
0100
0001
0010
0000
0100
0000
1000
0001
0000
0001
0000
,
0001
1001
1000
0100
0010
0001
1000
1001
,
0000
0001
1000
0001
0100
0010
0000
0010
0100
0010
0000
0100
0000
0001
1000
0010
,
0100
0000
0000
0100
0010
0100
0010
0000
0000
0000
0000
0000
0200
0000
0000
0000
,
0000
0010
0010
0010
0001
0001
0301
2000
,
0000
0010
3010
0100
0100
0110
0001
1000
,
0020
0000
0100
0200
0030
0301
0000
1000
,
0100
0000
0010
0000
0000
0001
1000
0000
0010
0000
0100
0000
0001
0000
1001
0000
,
1000
0000
0000
0001
1000
1001
0010
0100
,
0002
0000
1003
2000
0000
0000
3001
0000
,
0000
0000
0100
0000
0010
0100
0010
0100
0010
0000
0010
1000
0001
0100
0010
0000
,
0100
0010
0100
0000
0000
0000
0010
0000
0010
0000
1010
0000
0100
0000
0100
0000
,
0001
0000
1000
0002
0000
0000
0003
0100
,
0001
1000
0010
0100
0001
1000
0001
0010
,
0001
0000
1000
1000
0001
1001
0100
0010
,
1000
0001
1000
1001
0100
0100
0100
0100
,
0000
0000
0010
0000
0010
0000
0001
0000
0010
0000
0000
0001
1000
0000
0110
0000
,
0100
0100
0001
0001
0000
1000
0100
1000
,
0100
0000
0010
0000
0100
0000
2000
0000
0000
0000
3000
0000
0001
2000
0000
3000
,
0000
0001
1000
0002
0000
0000
0000
1003
0100
1000
0100
1000
0100
1000
0000
0000
;
