#VERSION:0.83;
#TITLE:anqad;
#SUBTITLE:;
#ARTIST:onoken feat. b;
#TITLETRANSLIT:;
#SUBTITLETRANSLIT:;
#ARTISTTRANSLIT:;
#GENRE:;
#ORIGIN:;
#CREDIT:;
#BANNER:;
#BACKGROUND:;
#PREVIEWVID:;
#JACKET:;
#CDIMAGE:;
#DISCIMAGE:;
#LYRICSPATH:;
#CDTITLE:;
#MUSIC:06.anqad.ogg;
#OFFSET:-0.033000;
#SAMPLESTART:40.361000;
#SAMPLELENGTH:18.400000;
#SELECTABLE:YES;
#BPMS:0.000=168.000,
249.000=84.000,
261.000=168.000;
#STOPS:;
#DELAYS:;
#WARPS:;
#TIMESIGNATURES:0.000=4=4;
#TICKCOUNTS:0.000=4;
#COMBOS:0.000=1;
#SPEEDS:0.000=1.000=0.000=0;
#SCROLLS:0.000=1.000;
#FAKES:;
#LABELS:0.000=Song Start;
#BGCHANGES:;
#KEYSOUNDS:;
#ATTACKS:
;

//---------------dance-single - ----------------
#NOTEDATA:;
#CHARTNAME:;
#STEPSTYPE:dance-single;
#DESCRIPTION:;
#CHARTSTYLE:;
#DIFFICULTY:Beginner;
#METER:1;
#RADARVALUES:0.061124,0.098122,0.024685,0.082282,0.000000,52.000000,49.000000,3.000000,10.000000,0.000000,0.000000,0.000000,0.000000,0.000000,0.061124,0.098122,0.024685,0.082282,0.000000,52.000000,49.000000,3.000000,10.000000,0.000000,0.000000,0.000000,0.000000,0.000000;
#CREDIT:;
#NOTES:
0000
0000
0000
0000
,
0000
0000
0000
0000
,
0000
0100
0000
0000
,
0000
0000
0000
0000
,
0000
0001
0000
0000
,
0000
1000
0000
0000
,
0000
0010
0000
0000
,
0000
0100
0000
0000
,
0000
0001
0000
0000
,
0000
1000
0000
0000
,
0000
0002
0000
0000
,
0000
0000
0003
0000
,
0000
1000
0000
0000
,
0000
1000
0000
0000
,
0000
0001
0000
0000
,
0000
0001
0000
0000
,
0000
1000
0000
0000
,
0000
1000
0000
0000
,
0000
1000
0000
0000
,
0000
0100
0000
0000
,
0000
2000
0000
0000
,
0000
3000
0000
0000
,
0000
0002
0000
0000
,
0000
0003
0000
0000
,
0000
0002
0000
0000
,
0000
0003
0000
0000
,
0000
0200
0000
0000
,
0000
0300
0000
0000
,
0000
0001
0000
0000
,
0000
0000
0000
0000
,
0000
1001
0000
0000
,
0000
0000
0000
0000
,
0000
1000
0000
0000
,
0000
1000
0000
0000
,
0000
0001
0000
0000
,
0000
0000
0000
0000
,
0000
0100
0000
0000
,
0000
0000
0000
0000
,
0000
0110
0000
0000
,
0000
0000
0000
0000
,
0000
0010
0000
0000
,
0000
0010
0000
0000
,
0000
1000
0000
0000
,
0000
0000
0000
0000
,
0000
0002
0000
0000
,
0000
0003
0000
0000
,
0000
1000
0000
0000
,
0000
0000
0000
0000
,
0000
1000
0000
0000
,
0000
0000
0000
0000
,
0000
0002
0000
0000
,
0000
0003
0000
0000
,
0000
0000
0000
0000
,
0000
0000
0000
0000
,
0000
0200
0000
0000
,
0000
0300
0000
0000
,
0000
0001
0000
0000
,
0000
0000
0000
0000
,
0000
1000
0000
0000
,
0000
0001
0000
0000
,
0000
1000
0000
0000
,
0000
0001
0000
0000
,
0000
1000
0000
0000
,
0000
0000
0000
0000
,
0000
0001
0000
0000
,
0000
0000
0000
0000
,
0000
0000
0000
0000
,
0000
0100
0000
0000
,
0000
0000
0000
0000
,
0000
0110
0000
0000
,
0000
0000
0000
0000
,
0000
0001
0000
0000
,
0000
1000
0000
0000
,
0000
1000
0000
0000
,
0000
0000
0000
0000
,
0000
0002
0000
0000
,
0000
0003
0000
0000
,
0000
2000
0000
0000
,
0000
0000
0000
0000
,
0000
0000
3000
0000
;

//---------------dance-single - ----------------
#NOTEDATA:;
#CHARTNAME:;
#STEPSTYPE:dance-single;
#DESCRIPTION:;
#CHARTSTYLE:;
#DIFFICULTY:Easy;
#METER:4;
#RADARVALUES:0.164564,0.229670,0.016456,0.279759,0.000000,140.000000,138.000000,2.000000,34.000000,0.000000,0.000000,0.000000,0.000000,0.000000,0.164564,0.229670,0.016456,0.279759,0.000000,140.000000,138.000000,2.000000,34.000000,0.000000,0.000000,0.000000,0.000000,0.000000;
#CREDIT:;
#NOTES:
0000
0000
0000
0000
,
0000
0000
0000
0000
,
0000
0101
0000
0000
,
0000
0100
0000
0000
,
0000
1010
0000
0001
,
0000
0100
0000
0000
,
0000
0010
0000
1000
,
0000
0001
0000
0000
,
0000
0001
1000
0000
,
1000
0001
0000
0100
,
0001
2000
0000
3002
,
0000
0103
0000
0010
,
0000
1000
0000
0001
,
0010
0001
0000
1000
,
0010
1000
0000
0001
,
0000
0100
0010
0100
,
0000
0001
0000
1000
,
0100
0010
0000
0010
,
0001
1000
0000
0001
,
0000
0100
0001
0100
,
0000
0020
0000
0030
,
2000
0000
3000
0001
,
0000
2000
0000
0000
,
3002
0000
0000
0003
,
0000
0100
0001
0000
,
0100
0000
0001
1000
,
0000
0002
0000
0000
,
1003
0000
0000
0000
,
0000
0001
0100
0010
,
0100
0001
0000
0000
,
0000
1000
0010
0100
,
0010
1000
0000
0000
,
0000
0002
0000
0013
,
0000
0200
0000
1300
,
0000
0002
0000
0003
,
0200
0000
0300
0010
,
0010
1000
0000
0001
,
0000
0100
0000
0100
,
0000
0001
0000
1000
,
0000
0001
0000
0010
,
0000
0001
1000
0000
,
0000
0001
1000
0000
,
0000
0010
0100
0000
,
0001
1000
0000
0001
,
0000
0200
0000
0000
,
0300
0010
0000
0100
,
0000
0002
0000
0000
,
0003
1000
0000
1000
,
0000
0001
0000
0001
,
0100
0001
0000
0100
,
0001
0200
0000
0300
,
0002
0000
0003
1000
,
1000
2000
0000
0000
,
3001
0002
0000
0000
,
0003
0200
0000
0000
,
0320
0000
0000
0030
,
0000
2000
0000
0000
,
3020
0000
0000
0030
,
0000
0200
0000
0000
,
0300
0001
0000
0001
,
0000
2000
0000
0000
,
0000
3000
0000
0000
0000
0000
0000
0000
,
0000
0200
0000
0300
,
0000
0020
0000
0030
,
0000
2000
0000
3000
,
0000
0002
0000
0000
,
0003
0000
0000
1000
,
0000
0001
0100
0001
,
0000
1000
0000
1000
,
0000
0010
0100
0010
,
0000
0100
0000
0001
,
0000
2000
0000
0000
,
3000
0002
0000
0000
,
0003
0200
0000
0000
,
0320
0000
0000
0130
,
0100
0200
0000
0000
,
0300
0002
0000
0000
,
0003
2000
0000
0000
,
0000
0000
0000
0000
,
0000
0000
0000
3000
;

//---------------dance-single - ----------------
#NOTEDATA:;
#CHARTNAME:;
#STEPSTYPE:dance-single;
#DESCRIPTION:;
#CHARTSTYLE:;
#DIFFICULTY:Medium;
#METER:8;
#RADARVALUES:0.332655,0.393720,0.123423,0.345585,0.000000,283.000000,268.000000,15.000000,42.000000,0.000000,0.000000,0.000000,0.000000,0.000000,0.332655,0.393720,0.123423,0.345585,0.000000,283.000000,268.000000,15.000000,42.000000,0.000000,0.000000,0.000000,0.000000,0.000000;
#CREDIT:;
#NOTES:
0000
0000
0000
0000
,
0000
0000
0000
0000
,
0000
0000
0110
0000
0010
0000
0000
1000
,
0000
0002
0000
1003
0000
0002
0000
0000
,
0103
0000
0010
1000
0001
0000
1000
0000
,
0001
0000
0100
0001
1000
0000
0001
0100
,
0001
0000
1000
0000
0002
0000
0000
0103
,
0000
0010
0000
1000
0000
0002
0000
0000
,
1000
0003
0001
0000
1000
0001
0000
0000
,
0100
0000
0001
1000
0000
0000
0001
0100
,
0001
1000
0010
1000
,
0001
1001
0100
0001
,
1000
0002
0000
0103
,
0000
0010
0000
0000
1000
0000
0001
0000
,
0100
0001
0000
0000
0100
0000
0010
0000
,
1000
0000
0001
0100
0001
0100
0000
0001
,
1000
0000
0001
1000
,
0010
0200
0000
0000
0301
0000
1000
0001
,
1000
0001
0000
0000
0100
0000
0000
0000
,
0001
0000
1000
0001
1000
0001
0000
0000
,
0000
0000
0200
0000
0000
0310
0000
0000
,
0020
0000
0000
1030
0000
0000
0001
0000
,
0000
0000
2000
0000
0000
3001
0000
0000
,
0002
0000
0000
0103
0000
0000
0010
0000
,
1000
0001
1000
0000
0001
0000
0100
0000
,
0010
2000
0000
0000
3000
0002
0000
0003
,
0000
0210
0000
0000
,
0300
0010
0000
0000
1000
0000
0001
0000
,
0100
0001
1000
0010
,
0100
0010
0000
1000
0000
0001
1000
0000
,
0001
0100
0010
0100
,
0001
1000
0000
0001
0000
1000
0001
0000
,
0100
0020
0000
1030
,
0000
0002
0000
2003
,
0000
0000
3020
0000
0000
0130
0000
0000
,
0200
0000
0000
0301
0000
0000
0100
0000
,
0101
0001
1000
0010
,
0100
0001
0000
1000
0000
0001
0000
1000
,
0001
0000
0100
0010
0100
0000
0001
0000
,
1000
0010
0000
0010
0000
1000
0000
0001
,
0100
0020
0000
0030
,
0000
2000
0000
3010
,
0000
0220
0000
0330
,
0202
0000
0303
1000
,
0001
0000
0100
0000
0010
0000
1000
0001
,
0000
1000
0000
0001
0000
0000
1000
0000
,
0010
1000
0001
0000
0100
0000
0010
0100
,
0000
0010
0000
0100
0000
0000
0001
0000
,
0001
2000
0000
3020
,
0000
0230
0000
0000
0301
0000
0001
0000
,
1000
0000
2100
0000
0000
3002
0000
0000
,
0203
0000
0000
0320
0000
0000
0130
0000
,
0010
0000
1000
0000
0001
0100
0001
0000
,
0000
0000
1000
0000
0010
0100
0010
0000
,
0100
0000
0001
0000
1000
0001
0000
0000
,
0200
0000
0000
0301
0000
0000
0100
0000
,
0010
0100
0020
0000
0000
2030
0000
0000
,
3002
0000
0003
0100
,
0010
0000
1001
0000
0001
0000
1000
0001
,
0000
0200
0000
0000
0000
0310
0000
0010
,
0000
0201
0000
0000
,
0300
0001
0000
0000
1000
0000
0001
0000
,
0100
0010
1000
0001
,
0100
0010
1000
0000
0001
0000
0100
0000
,
0001
0100
0010
0000
1000
0010
1000
0000
,
0001
0100
0001
0000
0000
0100
0000
0000
,
0010
0000
0000
1001
0000
0000
0001
0000
,
1001
0000
1000
0000
0010
0000
0100
0001
,
0100
0001
0000
0100
0000
0001
0000
1000
,
0000
0000
0001
0100
0001
0000
1000
0010
,
1000
0010
0000
1000
0000
0001
0000
0100
,
0000
0020
0000
0130
,
0000
0002
0000
1003
,
0000
0000
1001
0000
0000
0110
0000
0000
,
0110
0000
0000
1001
0000
0000
0001
0000
,
1000
0002
0000
0000
,
0003
0200
0000
0010
,
0000
0302
0000
0000
,
0000
0000
0000
0000
,
0000
0000
0000
0003
;

//---------------dance-single - ----------------
#NOTEDATA:;
#CHARTNAME:;
#STEPSTYPE:dance-single;
#DESCRIPTION:;
#CHARTSTYLE:;
#DIFFICULTY:Hard;
#METER:12;
#RADARVALUES:0.580677,0.787440,0.255075,0.279759,0.135766,494.000000,463.000000,31.000000,34.000000,0.000000,0.000000,0.000000,0.000000,0.000000,0.580677,0.787440,0.255075,0.279759,0.135766,494.000000,463.000000,31.000000,34.000000,0.000000,0.000000,0.000000,0.000000,0.000000;
#CREDIT:;
#NOTES:
// measure 0
0000
0000
0000
0000
,  // measure 1
0000
0000
0000
0000
,  // measure 2
0000
0000
0100
1000
1001
0000
0001
0101
,  // measure 3
0000
0010
0000
1100
0000
0020
0000
2030
,  // measure 4
0010
3010
0100
0001
2000
0000
3001
0010
,  // measure 5
0100
1000
0000
1000
0100
0010
0001
0000
,  // measure 6
1000
0100
2000
3000
1001
0000
0001
0101
,  // measure 7
0000
2100
0000
3010
0100
0201
0000
0301
,  // measure 8
0010
1000
0010
0100
1000
0100
0001
0100
,  // measure 9
1000
0010
0100
0101
0000
1000
0100
0010
,  // measure 10
0001
0000
2000
0000
3010
0100
0001
0010
,  // measure 11
0001
0100
0010
1000
0100
0010
0001
0000
,  // measure 12
0000
1000
0100
0000
0010
0100
0001
0100
,  // measure 13
1000
0002
0000
0003
0100
0000
0010
1000
,  // measure 14
0010
0200
0000
0300
0001
0100
1000
0100
,  // measure 15
0000
0000
0001
0000
1000
0000
0100
0000
1000
0000
0001
0000
0000
0000
1000
0010
,  // measure 16
1000
0000
0000
0000
1000
0010
0100
0001
,  // measure 17
1000
0100
0000
0010
0001
0000
1000
0001
,  // measure 18
1000
0001
0000
0001
1000
0000
1000
0010
,  // measure 19
1000
0100
0010
0001
1000
1100
0000
0100
,  // measure 20
1000
0002
0000
0000
0103
0100
0000
0001
,  // measure 21
2002
0000
0000
3003
0001
1000
0010
0100
,  // measure 22
0010
1000
1001
0000
0010
0100
0000
0010
,  // measure 23
0200
0000
0000
1300
0001
1000
0100
0000
,  // measure 24
0010
0002
0000
0003
1000
0010
0000
0100
,  // measure 25
0000
0001
1000
0001
0100
0020
0000
1030
,  // measure 26
0000
0000
1000
0010
0100
0001
0100
1000
,  // measure 27
0100
0001
0000
0000
0100
0000
0010
0000
,  // measure 28
1000
0000
1001
0001
0010
0100
1000
0001
,  // measure 29
1000
0100
0000
0110
0000
0001
0010
0000
,  // measure 30
0100
0000
1000
0100
0010
0001
0100
0010
,  // measure 31
0100
0101
0000
1010
0000
0001
0100
0010
,  // measure 32
1000
0100
2000
0000
3000
0010
0000
0100
,  // measure 33
0010
0000
0000
1000
0000
0000
0001
0000
0000
0000
0100
0000
0000
0000
0010
0000
0000
0000
1000
0000
0000
0000
0010
0000
,  // measure 34
0000
0000
0001
0000
0000
0000
0010
0000
0000
1000
0000
0000
0100
0000
0000
0010
0000
0000
0000
0000
0000
0001
0000
0000
,  // measure 35
0010
0100
1000
0010
0010
0000
1000
0000
,  // measure 36
0001
0000
1000
0100
0001
0100
1000
0100
,  // measure 37
0001
1000
0000
0110
0000
0001
0100
0010
,  // measure 38
1000
0000
0001
0010
0001
0100
1000
0100
,  // measure 39
0001
0011
0000
0110
0000
1000
0001
1000
,  // measure 40
0001
0200
0000
0000
0000
0301
1000
0000
,  // measure 41
0001
0000
0000
1000
0000
0100
0000
0010
0000
0001
0000
0100
,  // measure 42
0000
0000
0000
0000
2000
0000
0000
0000
0000
0000
0000
0000
0000
0000
0000
0000
0000
0000
3000
0000
0000
0000
0000
0000
0100
0000
0000
0000
0000
0000
0001
0000
0000
0000
0000
0000
1000
0000
0000
0100
0000
0000
1000
0000
0000
0000
0000
0000
,  // measure 43
0020
0000
0030
0000
0100
0000
0010
0000
0000
0000
0100
0000
0001
0010
0001
0000
,  // measure 44
1000
0020
0000
0030
0100
0010
1000
0001
,  // measure 45
0000
0001
0100
1000
0100
0001
1000
0100
,  // measure 46
0010
0000
0011
0000
0001
0100
0010
1000
,  // measure 47
0000
1000
0010
0100
0001
0001
1000
1000
,  // measure 48
0010
0100
0001
0100
0110
0000
0100
0010
,  // measure 49
1000
1001
0000
1000
0010
0010
1000
0001
,  // measure 50
0100
0010
0200
0000
0000
0301
1000
0000
,  // measure 51
1000
0002
0000
1003
0100
0000
0100
1000
,  // measure 52
0001
0000
1000
0010
0100
0010
1000
0100
,  // measure 53
0010
0000
0001
0100
0010
1000
0001
0001
,  // measure 54
0100
0010
0200
0000
0310
1000
0000
0001
,  // measure 55
0100
0000
0100
0001
0000
1000
0010
0000
,  // measure 56
0100
0001
0100
0000
0010
2000
0000
3001
,  // measure 57
0020
0000
0030
0001
0100
1000
0100
0000
,  // measure 58
0100
0001
1001
0000
1000
0001
0000
0101
,  // measure 59
0000
1010
0000
0010
0100
0001
0000
0001
,  // measure 60
0100
0001
0010
1000
0010
0010
0001
1000
,  // measure 61
1000
0001
0000
0000
0001
0000
1000
0000
,  // measure 62
0001
0000
0000
0000
1000
0010
0100
0000
0010
1000
0100
0010
0000
0010
0000
0001
,  // measure 63
0100
0000
0010
0000
1000
0001
1000
0000
0001
0010
0001
0100
0000
0010
0000
1000
,  // measure 64
0010
0000
0000
0100
0000
0000
0001
0000
0000
2000
0000
0000
0000
0000
0000
0000
0000
0000
0000
0000
0000
0000
0000
0000
3001
0000
0000
0000
0000
0000
0000
0000
0000
0000
0000
0000
0100
0000
0000
0000
0010
0000
0000
0000
1000
0000
0000
0000
,  // measure 65
0010
0000
0100
0000
0001
0000
2000
0000
0000
0000
0000
0000
3001
0000
0000
0002
0000
0000
0000
0000
0000
0103
0000
0000
,  // measure 66
0200
0000
0310
0220
0000
0330
1000
0000
,  // measure 67
0001
0000
1000
0100
0010
0001
0010
0001
,  // measure 68
0100
1010
0000
0101
0000
0001
0010
0100
,  // measure 69
1000
0000
1000
0010
0100
0010
1000
0001
,  // measure 70
0010
0110
0000
1010
0000
0001
0100
0010
,  // measure 71
0001
0010
0100
0001
1000
0010
1000
0000
,  // measure 72
0001
0000
0000
0100
0000
0000
0010
0000
0000
0000
0100
0000
0000
0000
0001
0000
0000
0000
0100
0000
0000
0000
0001
0000
,  // measure 73
0000
0000
2000
0000
0000
0000
0000
0000
0000
0000
0000
0000
3000
0000
0000
0101
0000
0000
0000
0000
0000
0001
0000
0000
,  // measure 74
1001
0000
0000
0000
0100
0000
0010
0000
0100
0001
0100
0000
0001
0000
0100
0000
,  // measure 75
0001
2000
0000
0000
0000
0000
3000
0000
,  // measure 76
0010
1000
0001
0000
0100
0010
1000
0001
,  // measure 77
0100
0010
0100
0000
0002
0000
0000
0000
0000
0000
0000
0000
0000
0000
0000
0000
,  // measure 78
0000
0000
0000
0000
,  // measure 79
0000
0000
0000
0003
;
