#VERSION:0.83;
#TITLE:ZIN-DEN-GO;
#SUBTITLE:;
#ARTIST:V.C.O.;
#TITLETRANSLIT:;
#SUBTITLETRANSLIT:;
#ARTISTTRANSLIT:;
#GENRE:;
#ORIGIN:;
#CREDIT:;
#BANNER:V.C.O. - ZIN-DEN-GO.png;
#BACKGROUND:;
#PREVIEWVID:;
#JACKET:;
#CDIMAGE:;
#DISCIMAGE:;
#LYRICSPATH:;
#CDTITLE:;
#MUSIC:V.C.O. - ZIN-DEN-GO.ogg;
#OFFSET:-0.004000;
#SAMPLESTART:18.360001;
#SAMPLELENGTH:12.000000;
#SELECTABLE:YES;
#BPMS:0.000=160.000;
#STOPS:;
#DELAYS:;
#WARPS:;
#TIMESIGNATURES:0.000=4=4;
#TICKCOUNTS:0.000=4;
#COMBOS:0.000=1;
#SPEEDS:0.000=1.000=0.000=0;
#SCROLLS:0.000=1.000;
#FAKES:;
#LABELS:0.000=Song Start;
#BGCHANGES:;
#KEYSOUNDS:;
#ATTACKS:
;

//---------------dance-single - ----------------
#NOTEDATA:;
#CHARTNAME:;
#STEPSTYPE:dance-single;
#DESCRIPTION:;
#CHARTSTYLE:;
#DIFFICULTY:Beginner;
#METER:2;
#RADARVALUES:0.101295,0.157381,0.018181,0.036362,0.000000,78.000000,76.000000,2.000000,4.000000,0.000000,0.000000,0.000000,0.000000,0.000000,0.101295,0.157381,0.018181,0.036362,0.000000,78.000000,76.000000,2.000000,4.000000,0.000000,0.000000,0.000000,0.000000,0.000000;
#CREDIT:;
#NOTES:
0000
0000
0000
0000
,
0000
0000
0000
0000
,
0000
0000
0000
0000
,
0000
1000
0000
0000
,
0000
1000
0000
0001
,
0000
1000
0000
0000
,
0000
0010
0000
1000
,
0000
0010
0000
0000
,
0000
0010
0000
0100
,
0000
0010
0000
0000
,
0000
0100
0000
0001
,
0000
0100
0000
0000
,
0000
0100
0000
0000
,
0000
0010
0000
0000
,
0000
0100
0000
0000
,
0000
0010
0000
0000
,
0000
0010
0000
0010
,
0000
0010
0000
0000
,
0000
0100
0000
0001
,
0000
0100
0000
0000
,
0000
0010
0000
0000
,
0000
1000
0000
0000
,
0000
0010
0000
0000
,
0000
1000
0000
0000
,
0000
0100
0000
0100
,
0000
0100
0000
0000
,
0000
0010
0000
0010
,
0000
0010
0000
0000
,
0000
0001
0000
0000
,
0000
1000
0000
0000
,
0000
0001
0000
0000
,
0000
1000
0000
0000
,
0000
0001
0000
0000
,
0000
0001
0000
0000
,
0000
1000
0000
0000
,
0000
0100
0000
0000
,
0000
0020
0000
0030
,
0000
0000
0000
0000
,
0000
0002
0000
0003
,
0000
1000
0000
0000
,
0000
0002
0000
0003
,
0000
1000
0000
0000
,
0000
0001
0000
0000
,
0000
0200
0000
0300
,
0000
0010
0000
0000
,
0000
0100
0000
0000
,
0000
0010
0000
0100
,
0000
0010
0000
0000
,
0000
1000
0000
0000
,
0000
0001
0000
0000
,
0000
1000
0000
0001
,
0000
1000
0000
0000
,
0000
0001
0000
0000
,
0000
0000
0000
0001
,
0000
0001
0000
0000
,
0000
0000
0000
1000
,
0000
1000
0000
0000
,
0000
0000
0000
0010
,
0000
0010
0000
0000
,
0000
0000
0000
0100
,
0000
0100
0000
0000
,
0000
0001
0000
0000
,
0000
1001
0000
0000
,
0000
1000
0000
0000
,
0000
1001
0000
0000
,
0000
0001
0000
0000
,
0000
1000
0000
0000
,
0000
0001
0000
0000
,
0000
1000
0000
0000
,
0000
0001
0000
0000
;

//---------------dance-single - ----------------
#NOTEDATA:;
#CHARTNAME:;
#STEPSTYPE:dance-single;
#DESCRIPTION:;
#CHARTSTYLE:;
#DIFFICULTY:Easy;
#METER:5;
#RADARVALUES:0.242848,0.317034,0.145449,0.036362,0.000000,187.000000,171.000000,16.000000,4.000000,0.000000,0.000000,0.000000,0.000000,0.000000,0.242848,0.317034,0.145449,0.036362,0.000000,187.000000,171.000000,16.000000,4.000000,0.000000,0.000000,0.000000,0.000000,0.000000;
#CREDIT:;
#NOTES:
// measure 0
0000
0000
0000
0000
,  // measure 1
0000
0000
0000
0000
,  // measure 2
0000
0000
0000
0000
,  // measure 3
0000
0100
0000
0000
,  // measure 4
0000
0010
0000
0100
,  // measure 5
0000
0010
0000
0100
,  // measure 6
0000
0110
0000
0010
,  // measure 7
0000
0100
0000
0010
,  // measure 8
0000
1000
0000
0001
,  // measure 9
0000
1000
0000
0001
,  // measure 10
0000
1001
0000
1000
,  // measure 11
0000
0010
0000
0100
,  // measure 12
0000
0001
1000
0001
,  // measure 13
0000
0001
0001
0001
,  // measure 14
0000
1000
0001
1000
,  // measure 15
0000
1000
1000
1000
,  // measure 16
0000
0001
0100
0001
,  // measure 17
0000
1000
0001
1000
,  // measure 18
0000
0001
0010
0001
,  // measure 19
0000
1000
0010
1000
,  // measure 20
0000
0001
0000
0100
,  // measure 21
0000
0001
0000
0100
,  // measure 22
0000
0101
0000
0001
,  // measure 23
0000
0100
0000
0001
,  // measure 24
0000
0100
0001
0010
,  // measure 25
0000
0100
1000
0001
,  // measure 26
0000
0101
0000
0110
,  // measure 27
0000
0010
0000
0100
,  // measure 28
0000
0001
0010
0001
,  // measure 29
1000
0100
0010
0110
,  // measure 30
0000
0001
0100
0001
,  // measure 31
1000
0100
0100
0110
,  // measure 32
0000
0001
1000
0001
,  // measure 33
1000
0100
0010
0011
,  // measure 34
0000
0001
0100
0001
,  // measure 35
1000
0100
1000
1010
,  // measure 36
0000
0100
0000
0000
,  // measure 37
0100
0002
0000
0003
,  // measure 38
0001
2000
0000
3000
,  // measure 39
0000
0020
0000
0030
,  // measure 40
0000
0100
0000
0100
,  // measure 41
0010
0100
0000
0010
,  // measure 42
0100
0010
0000
0001
,  // measure 43
0000
0100
0000
0000
,  // measure 44
0000
0001
1000
0001
,  // measure 45
0100
0010
0100
0001
,  // measure 46
0000
0010
0100
0010
,  // measure 47
0001
0100
0010
1000
,  // measure 48
0001
1000
0001
1000
,  // measure 49
0000
1000
0001
1000
,  // measure 50
0000
1001
0000
1100
,  // measure 51
0000
1000
0001
0100
,  // measure 52
0000
0002
0000
0000
,  // measure 53
0003
1000
0000
0001
,  // measure 54
0000
1001
0000
0100
,  // measure 55
0000
0100
0000
0010
,  // measure 56
0000
0110
0000
0010
,  // measure 57
0000
1000
0000
0001
,  // measure 58
0000
1001
0000
0010
,  // measure 59
0000
0100
0010
0100
,  // measure 60
0010
0100
0000
0001
,  // measure 61
0000
0010
0001
0010
,  // measure 62
0000
0110
0000
1000
,  // measure 63
0000
0001
0010
0100
,  // measure 64
1000
1001
0000
1000
,  // measure 65
0100
0001
0000
1000
,  // measure 66
0000
0001
0100
1000
,  // measure 67
0000
0001
0000
0100
,  // measure 68
0100
0100
0000
0000
,  // measure 69
0000
0100
0000
0100
0000
0000
0100
0000
;

//---------------dance-single - ----------------
#NOTEDATA:;
#CHARTNAME:;
#STEPSTYPE:dance-single;
#DESCRIPTION:;
#CHARTSTYLE:;
#DIFFICULTY:Medium;
#METER:10;
#RADARVALUES:0.451932,0.507254,0.145449,0.018181,0.000000,348.000000,332.000000,16.000000,2.000000,0.000000,0.000000,0.000000,0.000000,0.000000,0.451932,0.507254,0.145449,0.018181,0.000000,348.000000,332.000000,16.000000,2.000000,0.000000,0.000000,0.000000,0.000000,0.000000;
#CREDIT:;
#NOTES:
0000
0000
0000
0000
,
0000
0000
0000
0000
,
0000
0000
0000
0000
,
0000
0110
0000
0000
,
0000
0000
0100
0001
0000
1000
0001
0100
,
0000
0000
0001
1000
0000
0100
1000
0100
,
0000
0000
0001
0001
0000
1000
0001
0100
,
0000
0010
1000
0001
0000
1000
0010
0100
,
0000
0000
0001
1000
0000
0000
0001
1000
,
0000
0000
0010
0100
0000
0010
0100
0001
,
0000
0000
1000
0001
0000
0100
0010
0100
,
0000
0001
0010
0100
0000
1000
0100
0010
,
0000
0000
0001
1001
0000
1000
0000
0101
,
0000
0010
0000
0100
0000
0010
0110
0000
,
0000
0000
1000
0001
1000
0001
0000
0100
,
0000
0001
0000
1000
0000
0001
1000
0000
,
0000
0000
0011
0000
0001
1000
0000
1100
,
0000
0001
0000
0100
0000
0010
0100
0000
,
0000
0100
0110
0000
0001
0100
0000
0010
,
1000
0100
0000
0100
0000
1000
0100
0000
,
0010
0001
0010
0000
0000
0001
1000
0001
,
0000
0000
1000
0001
0000
1000
0010
0001
,
0000
0010
0100
0001
0000
0100
1000
0100
,
0000
0010
0100
0001
0000
0100
1000
0001
,
0000
0000
0100
0010
0000
0000
0100
0001
,
0000
0000
1000
0100
0000
0100
0001
0010
,
0000
0000
0001
0100
0000
1000
0100
0010
,
0000
0001
0100
0001
0000
0100
0010
0100
,
0000
0000
0001
1000
0001
1000
0000
0100
,
0000
0001
0000
0100
0000
1000
0100
0010
,
0001
0000
0100
0010
0100
1000
0000
0100
,
0000
0001
0000
0100
0000
0010
1000
0100
,
0001
0000
0100
1000
0100
1000
0000
0001
,
0000
0010
0000
0100
0000
0001
0100
0000
,
1000
0000
0001
0100
0001
0100
0000
0001
,
0000
0100
0000
1000
0000
0100
0010
0000
,
0000
0200
0000
0001
,
0301
0002
0000
1003
,
1000
0000
0001
0000
0100
0000
0010
0100
,
0010
0100
0010
0000
1000
0000
0001
0000
,
0100
0001
0100
0000
0010
0000
0100
0000
,
0010
1000
0010
0000
0100
0000
0010
0000
,
0100
0001
0100
0000
0010
0000
0100
0010
,
0100
0010
1000
0000
0001
1000
0001
0000
,
0000
0000
0100
0000
0010
0100
0000
0100
,
0001
0000
1001
0000
1000
0001
0000
0001
,
1000
0000
0001
0000
0001
0000
0001
0010
,
0100
1000
0100
0000
0100
0010
0001
0010
,
0100
1000
0001
0000
0100
0001
0000
0100
,
0010
0000
0100
0000
0010
0100
0000
0100
,
1000
0000
0100
0001
0100
0010
1000
0100
,
0010
0100
1000
0100
0001
0000
0100
1000
,
0010
0000
0110
0000
0001
1000
0000
0001
,
0000
1000
0000
0001
0000
0100
0001
0000
,
0100
0000
0010
0100
0010
0100
0000
0010
,
0000
0010
0000
1000
0001
0100
0001
0000
,
0100
0000
0010
0000
1000
0100
0000
0100
,
0000
1000
0000
0001
0010
0001
0010
0000
,
0000
0000
0011
0000
0001
0010
0000
0001
,
0000
1000
0000
0010
0000
0100
0101
0000
,
0101
0000
0101
0000
0001
1000
0000
0001
,
0000
0010
0000
0100
0000
0010
0010
0000
,
0001
0000
1001
0000
1000
0100
0000
0100
,
0000
0001
0000
0100
0000
0010
0001
0000
,
1000
0000
0101
0000
0010
0100
0000
0001
,
0000
1000
0000
0001
0010
0100
0010
0100
,
1000
0000
0110
0000
0100
0010
0000
0010
,
0000
1000
0100
0010
0100
0010
0001
0000
,
1000
0000
0001
0001
0001
0001
0000
1000
,
0000
0001
0000
0100
0000
0001
0100
0000
;

//---------------dance-single - from pop n music 17----------------
#NOTEDATA:;
#CHARTNAME:;
#STEPSTYPE:dance-single;
#DESCRIPTION:from pop n music 17;
#CHARTSTYLE:;
#DIFFICULTY:Hard;
#METER:12;
#RADARVALUES:0.576602,0.698725,0.290899,0.090906,0.049998,444.000000,412.000000,32.000000,10.000000,0.000000,0.000000,0.000000,0.000000,0.000000,0.576602,0.698725,0.290899,0.090906,0.049998,444.000000,412.000000,32.000000,10.000000,0.000000,0.000000,0.000000,0.000000,0.000000;
#CREDIT:Vincado;
#NOTES:
0000
0000
0000
0000
,
0000
0000
0000
0000
,
0000
0000
0000
0000
,
0000
0001
1000
0001
1000
0001
0100
0001
,
0000
0000
0010
0110
0000
0100
0101
0001
,
0000
0000
1000
1010
0000
0100
0010
0001
,
0000
1000
0010
0110
0000
0110
0100
0010
,
0000
1000
0001
1000
0000
0001
1000
0001
,
0000
1000
1100
0100
0000
0000
0001
0101
,
0000
0001
1000
0100
0000
0010
0001
0010
,
0000
0001
0001
1000
0000
1000
0001
1000
,
0000
0010
0100
0001
0000
1000
0100
1100
,
0000
0100
0110
0001
1000
0001
0000
0100
,
0000
0010
0100
0010
0000
0100
0010
0000
,
0100
0010
0100
0001
0100
0001
0000
1100
,
0000
0011
0000
1000
0001
1000
1001
0000
,
0001
0100
0010
0001
0010
0100
0000
0101
,
0000
1010
0000
0100
0000
0010
0100
0010
,
0100
0010
0110
0100
0010
0100
0000
0001
,
0000
1000
0000
0001
0100
0001
0010
0001
,
1000
1000
1000
1001
0000
0001
1000
1001
,
0000
0100
0010
0100
0000
0001
1000
1000
,
0000
0001
1000
1100
0000
0010
0011
0001
,
0000
1000
0010
0100
0000
0001
0010
0100
,
0000
1000
0010
0100
0000
0001
0010
0100
,
0000
1000
0010
0100
0010
1000
0010
0100
,
0000
0010
0010
0110
0000
0001
1000
0010
,
0000
0010
1000
0100
0000
0100
0100
0100
,
1000
0100
1000
0001
0100
0101
0000
1000
,
0000
0001
0000
1000
0010
0100
0001
0000
,
0001
0100
0001
0100
0010
0100
0000
0010
,
0000
0100
0000
0001
0000
1000
0001
0100
,
0001
1000
0010
0010
0100
0100
0000
0001
,
0000
0010
0100
0010
0000
0100
0001
0100
,
1000
0100
0010
0001
0100
0001
0000
1000
,
0000
1000
0100
0010
0001
0010
0001
0100
,
0001
0010
0200
0000
0000
0000
0302
0000
,
0103
2000
0000
3002
,
1003
0000
0100
0000
0010
0000
0001
1000
,
0001
1000
0200
0000
0310
0001
0100
0000
,
0001
1000
0200
0000
0000
0000
1300
0100
,
0010
0001
2000
0000
0000
0000
3001
0000
,
0100
0000
0010
0100
0001
0100
0010
1000
,
0100
0010
0001
0000
0001
0010
0100
0000
,
1000
0000
0001
0000
0101
0000
0000
0000
0001
0000
1000
0010
0100
0000
0000
0000
,
0001
0000
0000
0000
1001
0000
0000
0000
1000
0000
0010
0100
0001
0000
0000
0000
,
0100
0001
0100
0000
0001
0100
0010
1000
,
0100
0010
0001
0000
1000
0001
1000
0000
,
0001
0000
0010
0000
1000
0000
0000
0000
0010
0000
0001
0010
0001
0000
0000
0000
,
1000
0000
0010
0000
0200
0000
0000
0000
0301
0000
0100
0001
0100
0000
0000
0000
,
0010
0000
1000
0000
0010
0000
0100
0001
0100
0000
0001
0000
0100
0000
0000
0001
,
0100
0000
0001
0000
0010
0000
0001
1000
0001
0000
1000
0000
0001
0100
0001
0100
,
0001
0100
0001
0000
0100
0000
0010
0000
0100
0000
0010
0000
0000
0000
0100
0000
,
0000
0001
0000
1000
0100
1000
0100
0000
,
0010
0001
0011
0001
1000
0001
0000
1000
,
1000
0001
0000
0100
0010
0100
0010
0000
,
0100
0000
0110
0100
0010
0100
0000
0001
,
0000
1000
0000
0001
0010
0100
1000
0010
,
0100
0001
1001
1000
0001
0100
0000
0001
,
0100
0001
1000
0010
0001
0010
1000
0100
,
0010
0001
1001
0100
0001
0100
0000
0100
,
0000
0001
0000
0100
0010
0100
0010
0000
,
0100
0000
0110
0010
1000
0100
0000
0100
,
0010
0001
0000
0001
0010
0100
0010
0000
,
0000
0000
1001
1000
0001
1000
0000
0001
,
0000
0100
0000
0010
0100
0010
0100
0000
,
0001
0010
0100
0010
0001
1000
0000
1100
,
0000
0000
0011
0000
0000
0000
1100
0000
0100
0000
0010
0000
0001
0000
1000
0001
,
0100
0000
0010
0100
0010
0100
0000
0010
,
0000
0100
0000
0001
0000
0200
0002
0303
;
