#TITLE:Yuukyuu shinwaroku-harukanaru sanmyaku ni nagareru taiga no hotori nite-;
#SUBTITLE:;
#ARTIST:Gekidan Record;
#TITLETRANSLIT:;
#SUBTITLETRANSLIT:;
#ARTISTTRANSLIT:;
#GENRE:;
#CREDIT:from pop n music 21 Sunny Park;
#BANNER:20140314002723!SP_CHINESE_MIND.png;
#BACKGROUND:;
#LYRICSPATH:;
#CDTITLE:;
#MUSIC:Yuukyuu_shinwaroku-harukanaru_sanmyaku_ni_nagareru_taiga_no_hotori_nite-.ogg;
#OFFSET:-0.151000;
#SAMPLESTART:10.035000;
#SAMPLELENGTH:15.000000;
#SELECTABLE:YES;
#BPMS:0.000000=181.931000
;
#STOPS:
;
#BGCHANGES:;
#KEYSOUNDS:;
#ATTACKS:;

//---------------dance-single - ----------------
#NOTES:
     dance-single:
     :
     Hard:
     15:
     0.691160,0.806756,0.251582,0.290287,0.324154,500.000000,474.000000,26.000000,30.000000,0.000000,0.000000,0.691160,0.806756,0.251582,0.290287,0.324154,500.000000,474.000000,26.000000,30.000000,0.000000,0.000000:
0000
0000
0000
0000
,
0000
0000
0000
0000
,
0000
0000
0000
0000
,
0000
0000
0000
0000
,
1000
0000
0000
0000
0000
0000
0000
0000
0000
0000
0000
0000
0000
0000
0000
0000
0000
0000
0000
0000
0000
0000
0000
0001
,
0000
0000
0000
0000
0000
0000
0000
0000
0000
0000
0000
0000
0000
0000
0000
1000
,
0000
0000
0000
0000
0000
0001
0000
0000
,
0000
0000
0100
0000
,
0001
0101
0010
2020
,
3030
0100
0010
0100
0001
0000
0001
1000
,
0010
0000
0000
0000
0100
0000
0001
0000
0100
0000
0010
0000
0100
0000
0001
0100
,
0001
1000
1001
0100
0101
0000
1000
0000
,
0001
0101
0110
1000
,
0001
0011
0100
2002
,
3003
0010
0100
0001
1000
0000
0001
0100
,
0001
0000
0000
0000
0010
0100
0000
0000
0010
0000
0001
0000
1000
0000
0100
0000
,
1000
0010
0100
0001
0100
0001
2000
0000
,
3001
0000
0100
0001
0100
0000
0010
0100
0010
0000
0000
0000
0100
0000
0001
0000
,
0001
0000
0000
0000
1000
0000
1000
0000
0010
0000
0100
0000
0001
0000
1000
0100
,
1000
0100
0000
1000
0001
0000
0100
0001
,
0101
0000
0000
0000
0010
0000
0100
0000
0000
0000
0010
0000
1000
0000
0100
0010
,
0100
0010
0001
0000
1000
0001
0100
0001
,
1000
0100
1000
0000
0001
0010
0001
0010
0001
0000
0100
0000
0010
0000
0010
0000
,
0000
0000
0100
0000
0001
0000
1000
0000
0010
0000
0100
0000
0001
0000
1000
0001
,
1000
0100
0000
0010
0001
1000
1100
0100
,
1100
0000
0000
0000
0010
0000
0100
0000
0000
0000
0001
0000
0100
0000
0010
0100
,
0010
1000
0001
0100
0001
1000
0010
0001
,
0010
0000
1000
0000
0100
1000
0100
1000
0100
0000
0010
0000
0000
0000
0000
0000
,
0002
0003
0011
0010
0110
0100
1100
1000
,
0000
0000
0001
0000
0110
0100
0010
1000
,
0001
0010
1000
0000
1000
0010
0001
0100
,
0110
0010
0200
0000
0310
0000
0020
0000
,
1030
0000
0001
0000
0100
0001
0100
0001
0100
0000
0010
0000
0000
0000
0000
0000
,
0010
1000
0001
0100
0001
0101
0110
0200
,
0000
0000
0300
0000
0010
0000
0000
0000
0100
0000
0000
0000
0001
0010
0100
0010
,
0001
2000
0000
3000
0001
0000
0011
0100
,
0011
0000
1000
0000
0110
0000
0000
0010
0100
0000
0010
0000
0000
0000
0000
0000
,
0200
0302
2003
0000
,
3020
0000
0230
0000
0000
0000
0310
0100
,
0001
0000
1000
0010
1000
0000
0001
0100
,
0010
1000
0100
0001
0100
1000
0001
1000
,
0001
0000
1000
0010
0100
0001
0100
0000
,
0010
0000
0100
0000
0010
0000
1000
0000
1000
0000
0001
0000
0002
0000
0000
0003
,
1000
0100
1000
0100
0010
0000
0001
0000
0002
0000
0000
0000
1003
0000
0100
0010
,
0100
0000
0010
0000
0002
0000
0000
0000
1003
0000
0010
0100
0010
0000
1000
0001
,
0100
0000
0001
0000
0010
0000
0001
0000
0010
0000
0100
0000
1000
0100
0010
0000
,
0001
0000
1000
0000
0001
1000
0001
0000
2000
0000
0000
0000
0100
0000
0000
0000
,
3100
0000
0010
0000
0001
0000
1000
0010
1000
0000
0001
0100
0001
0000
0000
0000
,
0100
0000
0010
0100
0001
0000
1000
0000
0010
0000
0100
0000
0001
0000
0000
0000
,
0000
0000
0000
0010
2000
0000
0000
0000
3000
0000
0000
0000
0020
0000
0000
0000
,
0030
0000
0200
0000
0001
0000
0301
1000
,
0010
0000
0100
0000
0001
1000
0001
0000
1000
0001
1000
0000
0010
0000
0100
0001
,
0010
0000
0001
0100
0001
0000
1000
0000
0010
0000
0100
0001
0100
0000
0010
0100
,
0010
0000
0000
0000
0100
0000
0000
0000
0001
0100
0001
0100
0001
0000
0000
0000
,
1000
0000
0100
0000
1000
0100
1000
0100
1000
0000
0000
0000
0001
0000
0010
0000
,
0100
0010
0100
1000
0002
0000
0100
0000
,
0103
0000
0000
0000
0010
0000
1000
0001
1000
0000
0010
0000
0100
0000
0010
0000
,
0100
0000
0001
0000
0010
0000
1000
0000
0010
0000
0001
0000
1000
0100
1000
0100
,
1000
0000
0000
0000
0010
0000
0100
0000
0001
0000
0000
0000
1000
0001
1000
0001
,
1000
0000
0000
0000
0001
0000
0010
0000
0011
0000
0000
0000
1000
0010
0100
0010
,
2000
0000
0000
0000
3001
0000
0010
0000
0001
0000
0000
0000
0100
0000
0001
0100
,
0001
0000
0100
0010
0100
0000
0001
0000
2000
0000
3000
0000
0010
0100
0001
0100
,
0001
1000
0200
0000
0000
1000
1300
0100
,
0110
0000
0000
0000
0110
0000
0000
0000
0010
0000
0000
0000
0001
0000
1000
0001
,
1000
0010
1000
0001
0010
0000
0020
0030
,
0100
0000
1000
0010
1000
0000
0001
0100
0001
0000
1000
0000
0010
0000
0100
0000
,
0001
0000
1000
0010
0100
0000
0001
0000
0001
0000
0000
0000
1000
0000
0010
0100
,
0001
0000
1000
0000
0110
0000
0001
0000
0000
0000
1000
0010
0100
0000
0001
0010
,
0001
0000
0100
0000
0001
0000
0100
0000
0010
0000
1000
0000
0010
0000
0100
0010
,
0100
0000
0001
0000
1000
0000
0100
0010
0001
0000
0001
0100
0001
0000
1000
0000
,
0010
0000
0100
0001
0010
0000
0001
0100
0001
0000
0010
0000
0100
0000
1000
0000
,
0100
0000
0010
0001
0010
0000
0001
1000
0001
0000
1000
0010
0200
0000
0300
0000
,
0220
0000
0330
0000
;

//---------------dance-single - ----------------
#NOTES:
     dance-single:
     :
     Beginner:
     5:
     0.234994,0.316776,0.048381,0.483812,0.000000,170.000000,165.000000,5.000000,50.000000,0.000000,0.000000,0.234994,0.316776,0.048381,0.483812,0.000000,170.000000,165.000000,5.000000,50.000000,0.000000,0.000000:
0000
0000
0000
0000
,
0000
0000
0000
0000
,
0000
0000
0000
0000
,
0000
0000
0000
0000
,
0100
0000
0000
0000
,
0000
0000
0000
0000
,
0000
0000
0000
0000
,
0000
0000
0100
0000
,
0010
0200
0000
0302
,
0000
1003
1000
0001
,
0002
0003
0100
0010
,
0100
0010
1000
0000
,
1001
0000
0002
0003
,
1000
0100
1000
0020
,
0030
0100
0010
0000
,
0110
0000
0010
1000
,
0010
0100
0001
0100
,
0010
0010
1000
0000
,
0001
0000
0100
0100
,
0000
0000
0010
0000
,
1001
0000
0000
0001
,
1000
0001
0000
0000
,
1000
0100
0100
0000
,
0000
1000
0001
2000
,
0000
3001
0001
0000
,
0200
0300
0000
0010
,
0010
0020
0030
0000
,
0100
0000
0002
0000
,
1003
1000
0001
0002
,
0000
0103
0010
0010
,
2000
0000
3001
0100
,
0010
2000
0000
3001
,
0101
0000
0200
0000
,
0310
0100
0010
0020
,
0000
0130
0100
0000
,
0002
0000
1003
0100
,
0010
0002
0000
0003
,
1000
0000
0020
0000
,
0130
0002
0000
1003
,
0200
0000
0310
0200
,
0000
0300
2000
0000
,
3001
2000
0000
3010
,
0200
0000
0300
0002
,
0000
0003
0202
0000
,
0303
0002
0000
0003
,
2000
0000
3000
0002
,
0000
0003
0100
0010
,
0100
0020
0000
0030
,
1000
0001
1000
0001
,
0000
1000
0000
1000
,
0000
2000
0000
3001
,
0002
0000
0003
2000
,
0000
3000
0002
0000
,
0003
0200
0000
0310
,
0020
0000
0030
0100
,
0000
0001
0100
0000
,
0000
0002
0000
1003
,
0002
0000
0003
2000
,
0000
3001
2000
0000
,
3000
0020
0000
0130
,
0020
0000
0030
0100
,
0010
0100
0020
0030
,
0100
0100
0000
1000
,
0001
1000
0002
0000
,
1003
0001
1000
0002
,
0000
1003
0010
1000
,
0010
0000
0100
0100
,
0000
0002
0000
1003
,
0001
1000
0002
0000
,
1003
0001
1000
0020
,
0000
1030
0001
1000
,
0002
0000
0103
0010
,
0100
0002
0000
0003
;

//---------------dance-single - ----------------
#NOTES:
     dance-single:
     :
     Easy:
     9:
     0.398108,0.491069,0.164496,0.435430,0.000000,288.000000,271.000000,17.000000,45.000000,0.000000,0.000000,0.398108,0.491069,0.164496,0.435430,0.000000,288.000000,271.000000,17.000000,45.000000,0.000000,0.000000:
0000
0000
0000
0000
,
0000
0000
0000
0000
,
0000
0000
0000
0000
,
0000
0000
0000
0000
,
0100
0000
0000
0000
,
0000
0000
0000
0000
,
0000
0000
0000
0000
,
0000
0000
2000
0000
,
3010
0100
0001
2002
,
0003
0000
3001
0100
0001
0000
0001
0100
,
0020
0000
0030
0000
0100
0010
0100
0000
,
0010
0100
0010
1000
0010
0000
0100
0000
,
1001
1001
0020
0030
,
1000
0100
0010
0002
,
0000
0000
0103
0001
0010
0000
0001
0100
,
0020
0000
0030
0000
1000
0100
1000
0100
,
0010
0000
0001
0100
0001
0000
0100
0000
,
0101
0000
0101
0000
0002
0000
0003
1000
,
0000
0001
0100
0000
0001
0100
0001
0000
,
0000
1000
0000
0010
1000
0000
0010
0100
,
0020
0000
0030
0100
0000
0100
0010
0000
,
1000
0001
2000
0000
3000
0001
0000
0001
,
1000
0000
0010
0000
0110
0000
0000
0100
,
0000
0010
0100
0000
0010
0100
0020
0000
,
0030
1000
0000
1000
0001
0000
1000
0100
,
0010
0000
0000
0001
0000
0001
1000
0000
,
0100
1000
0200
0000
0300
1000
0000
0100
,
0010
0000
0002
0000
,
1003
0000
0001
1000
0001
1000
0002
0000
,
0000
0000
0103
0000
0100
0000
0001
1000
,
0002
0000
0000
0000
1003
0000
0100
0010
,
0100
2000
0000
3001
,
1000
0001
0201
0000
,
0301
1000
0001
0200
,
0000
0000
0310
0000
0010
0000
1000
0001
,
2000
0000
0000
0000
3010
0000
0100
0010
,
0100
0010
0200
0000
0000
0000
0300
0000
,
1010
1000
2000
3000
,
0100
0020
0030
0001
,
0200
0300
0010
2000
,
3000
0000
0020
0000
,
0130
0010
1000
0010
,
0200
0001
0301
2002
,
3003
0000
0100
0010
,
1000
0002
0103
0010
,
2000
3010
1000
0020
,
0130
0001
1000
1000
,
0001
0001
1000
0100
,
0010
0001
1000
0001
,
0000
0101
0000
0110
,
0000
2100
0000
3001
,
0200
0010
0310
2000
,
0001
3001
0002
1000
,
1003
0000
0010
0100
0010
0000
0100
0000
,
0100
0010
0100
0000
0001
0000
1000
0001
,
1000
0001
0110
0220
,
0330
0000
1000
0010
0100
0000
0010
0000
,
0100
0001
0100
0000
0001
0000
1000
0010
,
1000
0000
0001
0000
1000
0100
0010
0000
,
0100
0000
0010
0001
1000
0000
0010
0000
,
0100
0001
1000
0000
0010
0000
0100
0010
,
0100
0010
0100
0000
0020
0000
0030
0000
,
1000
0001
2000
0000
3000
0001
1000
0001
,
1000
0000
0001
0000
0002
0000
0003
1000
,
0100
0010
0100
0000
1000
0000
0020
0000
,
0030
1000
0100
1000
0100
0000
1000
0000
,
0010
0100
0010
0100
,
0001
0000
2000
0000
3000
0001
0010
0001
,
0010
0000
0001
0000
0200
0000
0300
0010
,
0100
0010
0100
0000
0001
0000
2000
0000
,
3000
0010
0100
0010
1000
0000
0001
0000
,
0101
0010
0110
0100
,
1002
0000
0003
0000
;

//---------------dance-single - ----------------
#NOTES:
     dance-single:
     :
     Medium:
     11:
     0.533575,0.596298,0.203201,0.541869,0.019352,386.000000,365.000000,21.000000,56.000000,0.000000,0.000000,0.533575,0.596298,0.203201,0.541869,0.019352,386.000000,365.000000,21.000000,56.000000,0.000000,0.000000:
// measure 0
0000
0000
0000
0000
,  // measure 1
0000
0000
0000
0000
,  // measure 2
0000
0000
0000
0000
,  // measure 3
0000
0000
0000
0000
,  // measure 4
0100
0000
0000
0000
,  // measure 5
0000
0000
0000
0000
,  // measure 6
0000
0000
0000
0000
,  // measure 7
0000
0000
2000
0000
,  // measure 8
3010
0100
1001
0202
,  // measure 9
0303
0001
0100
0001
0100
0000
0010
1000
,  // measure 10
0200
0000
0310
0000
0001
1000
0010
0100
,  // measure 11
0001
0100
0010
1000
0010
0100
0100
0000
,  // measure 12
1010
1001
0021
0031
,  // measure 13
1000
0100
0010
0000
0010
0000
0012
0000
,  // measure 14
0003
1000
0100
0010
0100
0000
0010
0001
,  // measure 15
0200
0000
0300
0000
0010
1000
0001
1000
,  // measure 16
0010
0100
0001
0100
0010
0000
0100
0000
,  // measure 17
0110
0000
0101
0000
0002
1000
0003
1000
,  // measure 18
0000
0100
0010
0100
0010
0001
2000
3000
,  // measure 19
0100
1000
0000
0100
1000
0000
0010
0100
,  // measure 20
0220
0000
0330
0100
0000
0010
1000
0001
,  // measure 21
0010
0001
2000
0001
3000
0001
0000
1000
,  // measure 22
0010
0100
0020
0000
0130
0100
0000
0010
,  // measure 23
0000
1000
0100
0010
0001
0100
0020
1000
,  // measure 24
0030
1000
0000
0100
0010
0000
1000
0100
,  // measure 25
0010
0000
0001
0010
0000
0001
0010
0100
,  // measure 26
0010
1000
0020
0000
0031
1000
0000
1000
,  // measure 27
0010
0000
0200
0000
0320
0000
0000
0030
,  // measure 28
1001
0000
0001
0100
0010
0100
0002
0010
,  // measure 29
0003
0000
0010
0001
0100
0000
1001
1000
,  // measure 30
0001
0200
0000
0300
0010
0000
0100
0010
,  // measure 31
1000
0010
2000
0010
0000
3000
0001
0100
,  // measure 32
0001
0000
0001
0010
0200
1000
0300
0000
,  // measure 33
1000
0100
1000
0010
0001
0010
2000
0001
,  // measure 34
3000
0000
0010
0000
0110
0000
1000
0001
,  // measure 35
1000
0002
0000
0003
0100
0000
0010
0010
,  // measure 36
0100
0000
0100
0000
0002
0000
0000
1003
0001
0000
1000
0000
0000
0000
0000
0000
,  // measure 37
1010
0101
2000
3000
,  // measure 38
0010
0000
0000
0010
0200
0000
0000
0000
0300
0000
0000
0000
0001
0000
0000
0000
,  // measure 39
2000
3010
0010
0200
,  // measure 40
0301
0010
0002
1003
,  // measure 41
0100
0000
0000
1000
0200
0000
0000
0000
1300
0000
0000
0000
0010
0000
0000
0000
,  // measure 42
0200
0000
0301
0010
0001
0100
0001
0010
,  // measure 43
0001
0000
1000
0100
0020
0000
0031
0000
,  // measure 44
1000
0100
2100
0000
3100
0000
0010
0000
,  // measure 45
0002
0000
0000
0000
0103
0000
0010
0000
1000
0000
0000
0010
0200
0000
0000
0000
,  // measure 46
0301
0000
1000
0100
0010
0001
1000
0000
,  // measure 47
0001
0010
0100
1000
0010
0000
0100
0000
,  // measure 48
0110
0000
0100
0010
0100
0010
0100
0000
,  // measure 49
0000
0220
0330
2020
,  // measure 50
3030
0000
0201
0000
0301
0000
0001
0010
,  // measure 51
0100
1000
0010
0000
0010
1000
0200
0310
,  // measure 52
0001
0000
0001
1000
0020
0130
0001
0000
,  // measure 53
1001
0000
0100
0010
0100
0001
0100
0000
,  // measure 54
0010
0100
0010
1000
0010
0000
2000
3000
,  // measure 55
0001
0010
0100
0010
0100
0000
2000
0000
,  // measure 56
3010
0000
1000
0001
0100
0001
0100
0000
,  // measure 57
0010
0001
0010
0001
1000
0000
0100
0001
,  // measure 58
0100
0001
0010
0000
0100
0001
1000
0001
,  // measure 59
1000
0000
0010
0100
0001
1000
0010
0000
,  // measure 60
0001
0100
0010
1000
0100
0000
1000
0001
,  // measure 61
0010
0100
1000
0000
0020
0000
0030
0000
,  // measure 62
0100
0010
2000
0001
3000
0001
1000
0010
,  // measure 63
1000
0000
0001
0100
0002
1000
0003
1000
,  // measure 64
0010
0100
0001
0000
0100
0010
2000
0100
,  // measure 65
3000
0010
0001
0010
0001
1000
0100
1000
,  // measure 66
0100
0010
0100
0000
0100
1000
0100
0000
,  // measure 67
0010
0001
0200
0010
0300
0100
0010
0001
,  // measure 68
0010
0100
0001
1000
0020
0100
0030
0010
,  // measure 69
1000
0001
0100
0010
0100
0010
2000
0001
,  // measure 70
3000
0001
0010
0100
1000
0010
0100
0001
,  // measure 71
2000
3020
0230
0301
,  // measure 72
2002
0000
3003
0000
;
