#VERSION:0.83;
#TITLE:Yume de mita tsubasa de;
#SUBTITLE:;
#ARTIST:usagi;
#TITLETRANSLIT:;
#SUBTITLETRANSLIT:;
#ARTISTTRANSLIT:;
#GENRE:;
#ORIGIN:;
#CREDIT:from pop n music 10 AC / 8 CS;
#BANNER:usagi - Yume de mita tsubasa de.png;
#BACKGROUND:;
#PREVIEWVID:;
#JACKET:;
#CDIMAGE:;
#DISCIMAGE:;
#LYRICSPATH:;
#CDTITLE:Popn_music_10_logo_small.png;
#MUSIC:usagi - Yume de mita tsubasa de.mp3;
#OFFSET:-0.437000;
#SAMPLESTART:7.819000;
#SAMPLELENGTH:15.800000;
#SELECTABLE:YES;
#BPMS:0.000=130.000;
#STOPS:;
#DELAYS:;
#WARPS:;
#TIMESIGNATURES:0.000=4=4;
#TICKCOUNTS:0.000=4;
#COMBOS:0.000=1;
#SPEEDS:0.000=1.000=0.000=0;
#SCROLLS:0.000=1.000;
#FAKES:;
#LABELS:0.000=Song Start;
#BGCHANGES:;
#KEYSOUNDS:;
#ATTACKS:
;

//---------------dance-single - ----------------
#NOTEDATA:;
#CHARTNAME:;
#STEPSTYPE:dance-single;
#DESCRIPTION:;
#CHARTSTYLE:;
#DIFFICULTY:Beginner;
#METER:1;
#RADARVALUES:0.070303,0.100317,0.009464,0.000000,0.000000,52.000000,51.000000,1.000000,0.000000,0.000000,0.000000,0.000000,0.000000,0.000000,0.070303,0.100317,0.009464,0.000000,0.000000,52.000000,51.000000,1.000000,0.000000,0.000000,0.000000,0.000000,0.000000,0.000000;
#CREDIT:;
#NOTES:
0000
0000
0000
0000
,
0000
0000
0000
0000
,
0100
0000
0000
0000
,
0010
0000
0000
0000
,
0100
0000
0000
0000
,
0001
0000
0000
0000
,
1000
0000
0000
0000
,
0001
0000
0000
0000
,
0100
0000
0000
0000
,
0010
0000
0000
0000
,
0100
0000
0000
0000
,
0001
0000
0000
0000
,
1000
0000
0000
0000
,
0010
0000
0000
0000
,
0100
0000
0000
0000
,
0001
0000
0000
0000
,
1000
0000
0000
0000
,
1000
0000
0000
0000
,
0001
0000
0000
0000
,
1000
0000
0000
0000
,
0001
0000
0000
0000
,
0001
0000
0000
0000
,
0010
0000
0000
0000
,
0001
0000
0000
0000
,
0010
0000
0000
0000
,
0010
0000
0000
0000
,
0001
0000
0000
0000
,
0001
0000
0000
0000
,
1000
0000
0000
0000
,
1001
0000
0000
0000
,
1000
0000
0000
0000
,
0100
0000
0000
0000
,
0010
0000
0000
0000
,
0001
0000
0000
0000
,
1000
0000
0000
0000
,
0100
0000
0000
0000
,
0100
0000
0000
0000
,
1000
0000
0000
0000
,
1000
0000
0000
0000
,
0001
0000
0000
0000
,
0001
0000
0000
0000
,
0100
0000
0000
0000
,
0010
0000
0000
0000
,
0100
0000
0000
0000
,
0001
0000
0000
0000
,
1000
0000
0000
0000
,
0100
0000
0000
0000
,
1000
0000
0000
0000
,
0000
0000
0000
0000
,
1000
0000
0000
0000
,
0001
0000
0000
0000
,
1000
0000
0000
0000
,
0001
0000
0000
0000
,
0010
0000
0000
0000
;

//---------------dance-single - ----------------
#NOTEDATA:;
#CHARTNAME:;
#STEPSTYPE:dance-single;
#DESCRIPTION:;
#CHARTSTYLE:;
#DIFFICULTY:Easy;
#METER:6;
#RADARVALUES:0.231189,0.300951,0.151422,0.170350,0.000000,171.000000,155.000000,16.000000,18.000000,0.000000,0.000000,0.000000,0.000000,0.000000,0.231189,0.300951,0.151422,0.170350,0.000000,171.000000,155.000000,16.000000,18.000000,0.000000,0.000000,0.000000,0.000000,0.000000;
#CREDIT:;
#NOTES:
0000
0000
0000
0000
,
0000
0000
0000
0000
,
0100
0000
0010
0000
0000
0100
0010
0000
,
0100
0000
0010
0000
0000
1000
0001
0000
,
0100
0000
0000
0001
0000
1000
0000
0010
,
0000
0000
0000
0100
0000
0001
0000
0200
,
0000
0000
0301
0000
,
1000
0000
0001
1000
,
0001
0000
0000
0010
0000
0100
0000
0010
,
0000
0001
0000
1000
0000
0000
0000
0002
,
0000
0000
0103
0000
,
0010
1000
0001
0100
,
0001
0000
0000
1000
0000
0001
0000
1000
,
0000
0000
0000
0001
0000
1000
0000
0002
,
0000
0000
1003
0000
,
0010
0100
0010
1000
,
0001
0000
0000
0100
0000
0001
0000
0100
,
0000
0001
0000
0100
0000
0000
0000
0000
,
0200
0000
0001
0301
,
0001
0000
1000
0000
,
1001
0000
0000
0000
1000
0001
0000
1000
,
0000
0001
0000
1000
0000
0001
1000
0000
,
0001
0000
0000
0000
0010
0001
0000
0010
,
0000
0002
0000
0000
0003
0000
0010
0000
,
0011
0000
0000
0001
0000
1000
0000
0001
,
0000
0100
0000
0001
0000
0000
0000
0000
,
1000
0000
0000
0010
0000
1000
0000
0020
,
0000
0000
0000
0030
,
0100
0000
0100
0000
,
0220
0000
0330
0100
,
0110
0000
0100
0010
,
0220
0000
0330
0000
,
0001
0000
1000
0001
,
2002
0000
3003
0000
,
0001
0100
0001
0000
,
1000
0000
0100
0010
0000
0100
0000
1000
,
0000
0001
0010
0001
,
0010
0200
0000
1300
,
0100
0020
0000
0031
,
0100
0020
0000
0130
,
0020
0000
0030
1000
,
0001
1001
0000
1000
,
0001
1001
0000
1000
,
0100
0011
0000
0001
,
0010
1100
0000
0100
,
0110
0010
0001
0100
,
0101
0010
1001
1000
,
0002
0100
0103
0000
,
0010
1000
0010
0000
,
0101
0001
1000
0010
,
1010
0100
0101
0001
,
2000
0001
3001
0010
,
0100
1000
0100
0001
,
0100
0000
0000
0000
;

//---------------dance-single - ----------------
#NOTEDATA:;
#CHARTNAME:;
#STEPSTYPE:dance-single;
#DESCRIPTION:;
#CHARTSTYLE:;
#DIFFICULTY:Medium;
#METER:10;
#RADARVALUES:0.413706,0.401268,0.264988,0.151422,0.000000,306.000000,278.000000,28.000000,16.000000,0.000000,0.000000,0.000000,0.000000,0.000000,0.413706,0.401268,0.264988,0.151422,0.000000,306.000000,278.000000,28.000000,16.000000,0.000000,0.000000,0.000000,0.000000,0.000000;
#CREDIT:;
#NOTES:
0000
0000
0000
0000
,
0000
0000
0000
0000
,
0100
0000
0010
0000
0100
0100
0010
0000
,
0100
0010
0000
0100
0001
1000
0001
0000
,
0101
0000
0001
0001
0100
2000
3000
0100
,
0001
0010
0000
0100
0000
1000
0000
0100
,
0020
0000
0001
0000
0130
1000
0100
0000
,
1000
0001
0100
0001
1000
0010
0001
0010
,
1000
0000
0001
0010
0010
0100
0000
0100
,
1000
1001
0000
1000
0000
0001
0100
0001
,
0200
0000
0001
0000
0310
1000
0010
0000
,
0100
0001
1001
0010
1001
0010
0100
0010
,
0100
0000
1000
0001
0000
0001
0000
0010
,
0100
0010
0000
1000
0000
0001
0000
0200
,
0000
1000
0301
1000
,
0110
0000
0000
0110
0000
0010
1000
0000
,
0001
0000
1000
0100
0100
0010
0000
0100
,
0000
1000
0000
0110
0000
0001
0010
0000
,
0200
0000
0010
0000
0001
0000
1300
0001
,
1000
0000
0001
1000
0000
1000
1001
0000
,
1000
0000
0010
0000
0010
0100
0000
1001
,
0000
0001
1000
0001
0000
0010
0100
0010
,
0001
0000
1000
0000
0010
0100
0000
0100
,
0010
0002
0000
0003
0010
0000
1000
0100
,
0011
0000
0001
0000
1000
1000
0000
0001
,
0000
0100
1000
0001
0000
0100
0001
0000
,
1001
0000
0100
0010
0010
1000
0001
0020
,
0000
0000
0001
0000
0100
0000
0031
1000
,
1100
0000
0000
0010
0100
0010
0110
0100
,
0020
0000
0030
0100
0010
0100
0010
0000
,
1000
0000
0010
0110
0000
0100
0020
0000
,
0230
0000
0301
0000
1000
0001
0100
0000
,
0001
0000
1000
0100
1000
0000
0001
0010
,
0002
0000
1000
0000
1003
0100
0010
0000
,
0011
0000
0100
0001
0000
0001
0000
1000
,
0110
0000
0001
0010
0000
0100
1000
1100
,
0000
0001
0100
0010
1000
1000
0001
0001
,
0020
0000
0100
0000
0031
0000
1000
0100
,
0000
0010
0001
1000
0100
0010
0001
0000
,
0101
0000
0001
0011
0000
0110
0000
2200
,
0000
0000
3300
0000
0001
0000
1000
0100
,
1001
0000
0001
0001
0000
0000
1000
0000
,
1001
0000
0010
1000
0020
0000
1030
0000
,
0001
0010
0200
0000
0300
1000
0100
1000
,
0100
0010
0000
0010
0100
0010
0100
1000
,
1100
0000
0001
0100
0010
0000
0100
0001
,
0100
0000
0010
1000
1001
0000
1000
0001
,
1001
0000
1000
0100
0000
0010
0001
0000
,
1000
0010
1000
0001
0100
0000
0010
0000
,
0100
0000
0001
0010
1000
0000
1000
0010
,
0001
0000
0100
0010
0101
0000
0001
0010
,
1010
0000
0100
0010
0000
1000
0001
0000
,
0100
0010
1000
0001
0100
0000
0010
0100
,
0100
0000
0000
0000
;

//---------------dance-single - ----------------
#NOTEDATA:;
#CHARTNAME:;
#STEPSTYPE:dance-single;
#DESCRIPTION:;
#CHARTSTYLE:;
#DIFFICULTY:Hard;
#METER:13;
#RADARVALUES:0.611096,0.677140,0.179814,0.151422,0.421142,452.000000,433.000000,19.000000,16.000000,0.000000,0.000000,0.000000,0.000000,0.000000,0.611096,0.677140,0.179814,0.151422,0.421142,452.000000,433.000000,19.000000,16.000000,0.000000,0.000000,0.000000,0.000000,0.000000;
#CREDIT:;
#NOTES:
// measure 0
0000
0000
0000
0000
,  // measure 1
0000
0000
0000
0000
,  // measure 2
0100
0000
0000
0000
0010
0000
0100
0010
0100
0010
0100
0000
0010
0000
0100
0010
,  // measure 3
0100
0010
1000
0100
0001
1000
0010
0001
,  // measure 4
0011
0000
0000
0000
0001
0000
0100
0001
0100
0000
0001
0100
0001
0000
0100
0000
,  // measure 5
0020
0000
0030
0000
1000
0000
0100
1000
0100
1000
0100
0000
0010
0000
0100
0000
,  // measure 6
1001
0000
0000
0000
0001
0000
0100
0001
0100
0000
0001
0010
0001
0000
1000
0001
,  // measure 7
1000
0000
0001
0000
0100
0000
0100
0001
0010
0001
0010
0000
0001
0000
1000
0100
,  // measure 8
1000
0000
0000
0000
0001
0000
0010
0100
0010
0100
0010
0000
0100
0000
1000
0000
,  // measure 9
0002
0000
0003
0000
1000
0000
0010
0100
0010
0100
0001
0000
0100
0000
0001
0010
,  // measure 10
0200
0000
0000
0000
1300
0000
0010
1000
0010
1000
0001
0000
0010
0000
0100
1000
,  // measure 11
0100
0000
0010
0000
0001
0000
0010
0100
0010
0000
0001
0000
0010
0000
0100
1000
,  // measure 12
0100
0000
0000
0000
1000
0000
0001
0100
0001
0100
0001
0000
0100
0000
0010
0100
,  // measure 13
0001
0000
0000
0000
1000
0000
0001
0100
0001
0010
0001
0000
0100
0000
0010
0100
,  // measure 14
0001
0000
0000
0000
0001
0000
1000
0001
1000
0001
1000
0000
0001
0000
0200
0000
,  // measure 15
0300
0000
0010
0000
0100
0000
0020
0000
0030
0000
0000
0000
1000
0000
0001
0100
,  // measure 16
0001
0000
0000
0000
1000
0000
0100
0010
0100
0010
0100
0000
0010
0000
0001
1000
,  // measure 17
0002
0000
0003
0000
1000
0000
0010
1000
0001
1000
0001
0000
0200
0000
0300
0000
,  // measure 18
0020
0000
1030
0000
0001
0001
1000
0002
,  // measure 19
0003
0000
0100
0000
0001
0000
2000
0000
3000
0000
0001
0000
1001
0000
0000
0001
,  // measure 20
1000
0000
0000
0000
0010
0000
0100
0010
0100
0000
0010
0100
0010
0000
1000
0001
,  // measure 21
1000
0000
0000
0000
1000
0000
0001
0010
0001
0010
0001
0000
0100
0000
0000
0000
,  // measure 22
1001
0000
1000
0000
0010
0100
0010
0100
,  // measure 23
0010
0000
1000
0000
0100
0000
0010
0001
0010
0100
1000
0000
0100
0000
0000
0000
,  // measure 24
0011
0000
0000
0000
0001
0000
1000
0001
1000
0000
0001
1000
0001
0000
1000
0010
,  // measure 25
0100
0000
0000
0000
1000
0000
0001
0010
0100
1000
0001
0000
0100
0000
0000
0000
,  // measure 26
1001
0000
0000
0000
0001
0000
1000
0001
1000
0001
1000
0001
1000
0000
0020
0000
,  // measure 27
0100
0000
0000
0000
0130
0000
0000
0000
0100
0010
0100
0000
0001
0100
0001
0100
,  // measure 28
0001
0000
0000
0010
0010
1000
0110
0010
,  // measure 29
1002
0000
0003
0100
0010
0100
0010
0000
,  // measure 30
1000
0000
0010
0100
0000
0100
0010
0100
,  // measure 31
0002
0000
1003
0100
1000
0001
0100
0010
,  // measure 32
1000
0100
1000
0000
0001
0100
0001
0010
,  // measure 33
0002
0000
1000
1000
0003
0100
0010
0000
,  // measure 34
0110
0000
0100
0010
0000
0100
1000
0001
,  // measure 35
0100
0000
0001
0010
0000
0100
1000
0100
,  // measure 36
0000
0000
0010
0000
0001
0000
1000
0000
0100
0000
1000
0000
0001
0100
0001
0000
,  // measure 37
0020
0000
0130
1000
0001
0100
1000
0100
,  // measure 38
0001
0010
0100
1000
0100
0001
0100
1000
,  // measure 39
0001
0100
1000
0100
0001
0010
0100
2000
,  // measure 40
0000
0001
3001
0100
0001
0010
0100
1000
,  // measure 41
1100
0000
0000
0000
0001
0010
0001
0000
0010
0000
0100
1000
0100
0000
0010
0000
,  // measure 42
0001
0000
0000
0000
0010
0001
0010
0000
0100
0000
1000
0100
1000
0000
0000
0000
,  // measure 43
0001
0001
0100
0001
0000
0001
0100
0010
,  // measure 44
0100
0000
0001
0010
0000
0000
0100
0000
1000
0010
0000
0100
0001
0000
1000
0000
,  // measure 45
1100
0000
0000
0000
1000
0000
0100
0010
0100
0010
0001
0000
0010
0000
0001
0100
,  // measure 46
0001
0000
0000
0000
0110
0000
1000
0001
0100
0001
0100
0000
0001
0100
0001
0000
,  // measure 47
1001
0000
0000
0000
0001
0000
0010
0100
0010
0100
1000
0000
0001
0000
0100
0001
,  // measure 48
0010
0000
0010
0000
0011
0000
0001
0010
0000
0001
0010
0000
0001
0000
1000
0010
,  // measure 49
0100
0000
0001
0000
1001
0000
1000
0100
1000
0100
1000
0000
0011
0000
0010
0001
,  // measure 50
0100
0000
0010
1000
0100
0000
0010
0001
0100
0001
0010
0000
0001
0010
0001
0000
,  // measure 51
0100
0000
0000
0000
1001
0000
0001
0010
0001
0010
0001
0000
1001
0000
1000
0010
,  // measure 52
0100
0000
0010
0000
1010
0000
0100
0001
0000
1000
0010
0000
0001
0010
0000
0000
,  // measure 53
1000
0000
0000
0000
;
