#TITLE:Yaneura post;
#SUBTITLE:;
#ARTIST:three-weeks-old lovesick puppy;
#TITLETRANSLIT:;
#SUBTITLETRANSLIT:;
#ARTISTTRANSLIT:;
#GENRE:;
#CREDIT:from pop n music 21 Sunny Park;
#BANNER:20140314003210!SP_HIGH_COLLAR_POP.png;
#BACKGROUND:;
#LYRICSPATH:;
#CDTITLE:;
#MUSIC:Yaneura_post.ogg;
#OFFSET:-0.003000;
#SAMPLESTART:0.318000;
#SAMPLELENGTH:19.100000;
#SELECTABLE:YES;
#BPMS:0.000000=183.979996
;
#STOPS:
;
#BGCHANGES:;
#KEYSOUNDS:;
#ATTACKS:;

//---------------dance-single - ----------------
#NOTES:
     dance-single:
     :
     Beginner:
     4:
     0.189180,0.248627,0.131549,0.087699,0.000000,151.000000,136.000000,15.000000,10.000000,0.000000,0.000000,0.189180,0.248627,0.131549,0.087699,0.000000,151.000000,136.000000,15.000000,10.000000,0.000000,0.000000:
0000
0000
0000
0000
,
0000
0000
0000
0000
,
0000
0000
0000
0000
,
0000
0000
0000
1001
,
0000
0000
0000
0100
,
0000
0000
0000
0010
,
0000
0100
0000
0001
,
0000
1000
0000
0100
,
0000
0010
0000
0001
,
0000
1000
0000
0001
,
0000
1000
0000
0100
,
0000
1000
0000
0100
,
0000
0001
0000
0100
,
0000
0000
0000
1000
,
0000
0001
0000
0010
,
0000
0001
0000
0100
,
0000
0010
0000
0001
,
0000
0000
0000
1000
,
0000
0000
0000
0001
,
0000
0010
0000
0001
,
0000
0000
0000
0010
,
0000
1000
0000
0010
,
0000
0000
0000
0002
,
0000
0003
0000
2000
,
0000
3000
0000
0010
,
0000
0010
0000
0100
,
0000
0000
0000
1001
,
0000
0100
0000
0020
,
0000
0000
0030
0000
,
0000
1000
0000
1001
,
0000
0010
0000
0011
,
0000
1000
0000
0002
,
0000
0003
0000
2000
,
0000
3000
0000
0010
,
0010
0010
0000
0100
,
0000
0000
0000
0001
,
0000
1000
0000
0010
,
0000
0000
0000
0010
,
0000
0100
0000
0001
,
0000
1000
0000
0001
,
0000
0000
0000
0100
,
0000
0100
0100
0100
,
0000
0001
0000
0010
,
0000
1000
0000
0000
,
0000
1000
0000
0010
,
0000
0001
0000
0100
,
0000
0000
0000
0110
,
0000
0000
0000
0101
,
0000
0001
0000
1000
,
0000
1100
0000
0100
,
0000
0000
0000
1001
,
0000
0000
0001
0001
,
0000
0000
1000
1000
,
0000
0000
0010
0010
,
0000
0100
0000
0101
,
0000
0010
0000
1010
,
0000
0000
1000
1000
,
0000
0000
0001
0001
,
0010
0000
0000
0001
,
0000
0100
0000
0020
,
0000
0130
0000
0010
,
0000
1000
0000
1001
,
0000
0101
0000
0000
,
0000
0001
0000
2001
,
0000
0000
3001
0001
,
0000
0000
1000
0100
,
0000
1000
0000
0100
,
0000
0010
0000
0002
,
0000
0003
0100
0010
,
0000
0010
0000
0100
,
0000
0001
0000
2000
,
0000
3001
0000
1001
,
0000
0001
0000
0100
,
0000
0010
0000
1000
,
0000
0100
0000
0010
,
0000
0001
0000
1000
,
1000
1000
0000
0001
,
0001
0001
0000
0100
,
0100
0100
0000
0010
,
0000
0110
0000
0020
,
0000
0000
0000
0000
,
0030
0000
0000
0000
;

//---------------dance-single - ----------------
#NOTES:
     dance-single:
     :
     Easy:
     7:
     0.314465,0.426219,0.271868,0.201708,0.000000,251.000000,220.000000,31.000000,23.000000,0.000000,0.000000,0.314465,0.426219,0.271868,0.201708,0.000000,251.000000,220.000000,31.000000,23.000000,0.000000,0.000000:
0000
0000
0000
0000
,
0000
0000
0000
0000
,
0000
1001
1000
0001
,
0000
0010
0100
1100
,
0000
0100
0010
0011
,
0000
0001
1000
0010
,
0000
0100
0001
1000
,
0000
1000
0100
0110
,
0010
0000
0001
0000
0000
1000
0000
0001
,
0000
1000
0000
0001
0000
0000
1000
0000
,
0100
1000
0000
0010
,
1000
0001
0000
0200
,
0300
0020
0030
1000
,
0001
0100
0010
2000
,
0001
0000
3001
0000
0000
0010
0000
0000
,
0000
0011
0000
0000
0000
0100
0000
0000
,
0010
0100
0000
0010
,
1000
0000
0010
0000
0000
2000
0000
0000
,
3000
0000
0000
0101
,
0000
0010
0000
0000
0000
0001
0000
0000
,
1000
0010
0001
1000
,
0000
0100
0001
1000
,
0000
0011
0000
0210
,
0000
0000
0302
0000
0000
2003
0000
0000
,
0000
3002
0003
0200
,
0300
0000
0010
0000
0000
0110
0000
0000
,
0000
0000
0000
1000
,
0001
0000
0100
0000
0000
0010
0000
0000
,
0000
1000
0100
0011
,
0000
0001
0000
1000
,
0010
0100
0010
0000
0000
0000
0001
0000
,
1000
1000
0000
0001
,
0100
0010
0100
0000
0000
0000
0010
0000
,
1000
0100
0000
0010
,
0001
0011
0000
0100
,
0000
0000
1100
0000
0000
0000
0001
0100
,
0001
0000
1000
0000
0000
0010
0000
0000
,
0100
0110
0011
0000
,
1000
0110
0000
0002
,
0003
0000
2000
0000
3000
0010
0000
0000
,
0000
0100
0101
0100
,
0010
1001
0000
0020
,
0030
1000
0001
0100
,
0010
0000
1000
0000
0000
1001
0000
0000
,
0000
0000
0002
0000
0000
0003
0200
0000
,
0000
0300
0000
0000
0000
0000
0202
0000
,
0303
0000
0001
0000
0000
0100
0000
0010
,
0000
0100
0000
0000
0000
0000
0101
0000
,
1000
0000
0001
0000
0000
0100
0000
0000
,
0000
0010
0010
0100
,
0000
0010
1000
0001
,
0000
0001
0010
0100
,
0000
0000
1100
1100
,
0000
0000
0010
0001
,
1000
0010
0001
0001
,
0000
0100
0000
1010
,
0000
0000
0100
0000
0000
0101
0000
0000
,
0000
0001
1000
1010
,
0010
0101
0000
0001
,
0011
0101
0000
0020
,
0000
0130
0001
1000
,
0010
1000
0100
1100
,
0000
0010
0001
0010
,
1000
0010
0000
0021
,
0000
0031
1000
0001
,
0000
0100
0010
0100
,
0000
0000
1000
0000
0000
0001
0000
0000
,
0000
0100
0000
0002
,
1000
0000
1003
0000
0000
0010
0000
0000
,
0100
0010
0000
0100
,
0001
1000
0000
0001
,
0001
0000
1000
0000
0000
2002
0000
0000
,
0000
3003
0001
0000
0000
0100
0000
0100
,
0000
0100
0000
0000
0010
0000
1000
0000
,
0000
0100
0010
0001
,
0000
1000
0001
1000
,
1000
0100
0100
0010
,
0010
0001
0001
0200
,
0300
0010
1000
0010
,
0000
0100
0001
0200
,
0000
0000
0000
0000
,
0300
0000
0000
0000
;

//---------------dance-single - ----------------
#NOTES:
     dance-single:
     :
     Medium:
     10:
     0.464806,0.473138,0.184169,0.306948,0.000000,371.000000,350.000000,21.000000,35.000000,0.000000,0.000000,0.464806,0.473138,0.184169,0.306948,0.000000,371.000000,350.000000,21.000000,35.000000,0.000000,0.000000:
0000
0000
0000
0000
,
0000
0000
0000
0000
,
0000
0000
1000
0000
0001
0100
0000
0100
,
0000
0100
0000
0010
0100
0000
0202
0000
,
0303
0000
0100
0000
0010
0100
0000
0001
,
0000
1000
0000
0001
1000
0000
0110
0000
,
0101
0000
1010
0000
0010
2000
0000
3000
,
0001
0000
1000
0100
0010
0000
0001
0000
,
0100
0000
0010
1000
0010
1000
0000
0001
,
0000
0100
0000
0101
0000
2020
0000
3030
,
1000
0000
0100
0000
0010
0001
0000
0000
,
0001
1000
0010
0000
0100
0010
0100
0000
,
0001
1000
0000
0010
0000
0100
0000
0000
,
0001
0000
0100
0001
0100
0000
0020
0000
,
1030
1000
1000
0000
0010
0100
0000
0000
,
0001
0100
0000
0000
0010
0100
0010
0000
,
0010
1000
0000
0001
0000
1010
0000
0000
,
1000
0010
0000
0100
0000
0020
0000
0000
,
0130
0100
0100
0000
0001
0100
0001
0000
,
0010
0100
0000
0000
1000
0001
0000
0000
,
1010
0000
0100
0000
0001
1000
0000
0000
,
0001
0000
0100
0000
0020
0030
2000
0000
,
0000
3001
0100
0020
,
1000
0000
0230
0000
0000
0302
0000
0000
,
0013
0100
0010
0002
,
1003
0000
0100
0000
0000
1100
0000
0000
,
0010
0001
1000
0100
,
0001
0000
0200
0000
0300
2000
0000
3000
,
0001
0000
0100
0001
0100
0000
0001
0100
,
0001
0000
1000
0000
0010
0000
0100
0010
,
0100
0000
0010
0000
1000
0002
0000
1003
,
0000
0001
1000
0000
0010
0100
0001
0000
,
0100
0001
0100
0000
0010
2000
0000
3000
,
0100
0000
0010
0000
0001
1000
0000
1000
,
0001
0000
0011
0000
0000
0110
0000
0000
,
1000
0000
0010
0100
0000
0101
0000
0000
,
0100
0001
2000
3000
0010
0100
0000
0000
,
0010
0000
0101
0000
1000
0000
0001
1000
,
0001
0100
0001
0100
0001
0000
2000
0000
,
3010
0000
0200
0000
0301
0010
0000
0000
,
0001
0000
0110
0000
1000
0000
0001
0010
,
0001
1000
0001
1000
0001
0000
1000
0000
,
0100
0000
0010
0000
0001
0100
0000
0100
,
0001
0000
1000
0001
1000
0002
0000
0000
,
0003
0000
0100
0000
0010
0100
0000
0100
,
0001
1010
0101
0200
,
0301
0000
1000
0010
1000
0010
0000
1000
,
0000
0010
0000
0100
0000
0000
0001
0000
,
1000
0001
1000
0000
0110
0000
0011
0000
,
0000
0000
0001
1000
0000
0002
0000
0000
,
0103
0000
0010
0000
1000
0001
1000
0000
,
0001
0010
0100
1000
,
0001
0100
0001
0000
1000
0100
0000
1000
,
0000
0100
0000
0010
0000
0001
1000
0000
,
0010
0000
0100
0001
0100
0001
0000
0000
,
0100
0010
0100
0000
0010
0000
2000
0000
,
3001
0000
0100
0010
1000
0010
0000
0000
,
0100
0000
0001
1000
0001
0000
1000
0100
,
1000
0000
0001
0010
0001
0000
0001
1000
,
0010
0000
0100
0001
0100
0000
0010
0000
,
0100
0000
0001
1000
0001
0000
1000
0000
,
0010
0000
0100
0001
0010
0000
0001
0000
,
0100
0010
1000
0000
0100
0010
0001
0000
,
1000
0100
0011
1001
,
0100
0000
0001
1000
0001
0100
0000
0001
,
0000
1000
0000
0010
0000
0200
0000
0000
,
0300
0010
0000
0000
0100
0010
0000
0000
,
0010
0000
1000
0001
0000
0001
2000
0000
,
3001
0000
1000
0001
1000
0001
0000
0100
,
0000
0010
0000
1000
0000
0200
0000
0000
,
0300
0020
0000
0000
0031
0000
1000
0000
,
1100
0000
0010
0000
0001
2000
0000
0000
,
0000
3000
0001
0000
0100
0010
0000
0100
,
0000
0001
0000
1000
0000
0020
0000
0000
,
0030
2000
0000
0000
3100
0000
0010
0000
,
0000
0000
0001
0100
0001
0000
1000
0000
,
0100
1000
0100
1000
0000
0100
0000
0000
,
0010
0001
0010
0001
0000
0200
0000
0000
,
0300
0000
0010
1000
0001
0000
0200
0000
,
0302
0000
1003
0100
1000
0200
0000
0000
,
0000
0000
0000
0000
,
0000
0000
0000
0000
,
0000
0000
0000
0000
,
0300
0000
0000
0000
;

//---------------dance-single - ----------------
#NOTES:
     dance-single:
     :
     Hard:
     15:
     0.794305,0.909880,0.306948,0.280638,0.425342,634.000000,599.000000,35.000000,32.000000,0.000000,0.000000,0.794305,0.909880,0.306948,0.280638,0.425342,634.000000,599.000000,35.000000,32.000000,0.000000,0.000000:
// measure 0
0000
0000
0000
0000
,  // measure 1
0000
0000
0000
0000
,  // measure 2
0000
0000
1000
0001
0100
0110
0000
0100
,  // measure 3
0010
0100
0010
0000
0000
0000
0010
0000
0100
0010
0100
0000
0001
0000
1000
0000
,  // measure 4
0100
0010
0001
0010
0100
0000
0000
0000
1000
0000
1100
0000
0000
0000
0011
0000
,  // measure 5
0000
0000
1000
0000
0000
0000
0001
0000
1000
0000
0010
0100
0010
0000
0000
0000
,  // measure 6
0100
0001
1000
0010
0010
2000
0000
3000
,  // measure 7
0110
0000
1000
0000
0010
0100
0001
0000
,  // measure 8
0100
0010
0100
0000
0010
0000
1000
0000
0001
0000
0011
0000
0000
0000
0001
0000
,  // measure 9
1000
0000
0010
0000
0100
0010
0100
0000
0010
0000
0200
0000
0000
0000
0300
0000
,  // measure 10
0010
0100
0001
0000
1000
0001
0000
0100
,  // measure 11
0001
0000
1000
0000
0010
0100
0010
0000
1000
0000
0010
0100
0001
0000
0000
0000
,  // measure 12
0001
1000
0001
0000
1000
0000
0010
0000
0010
0000
0101
0000
0000
0000
0100
0000
,  // measure 13
0002
0000
0003
0000
1000
0000
0010
0000
0100
0000
0010
0100
0020
0000
0000
0000
,  // measure 14
1030
0001
1000
0100
0010
0011
0000
0001
,  // measure 15
0100
0000
0001
0000
1000
0100
0010
0000
0001
0000
0100
0001
0100
0000
0000
0000
,  // measure 16
0010
1000
0010
0000
0100
0000
0001
0000
0000
0000
1001
0000
0000
0000
1000
0000
,  // measure 17
0100
0000
0010
0000
0001
0100
0001
0100
0001
0000
0020
0000
0000
0000
0000
0000
,  // measure 18
0031
0000
0010
0000
0001
0010
0001
0010
0100
0000
1000
0000
0001
0100
0010
0000
,  // measure 19
1000
0001
2000
0000
0000
0000
3000
0000
0010
0000
1000
0000
1010
0000
0000
0000
,  // measure 20
1000
0001
0100
0010
1000
0010
0000
0110
,  // measure 21
0010
0000
0010
0000
1000
0001
1000
0000
0010
0000
0010
0000
2000
0000
0000
0000
,  // measure 22
3010
0100
0001
0100
0001
0000
0000
0000
1000
0000
0010
0100
0002
0000
0000
0000
,  // measure 23
1003
0100
1000
0100
0010
0000
0000
0000
0001
0000
0201
0000
0000
0000
0000
0000
,  // measure 24
0310
0100
0010
0000
1000
0000
0010
0000
0001
0000
0000
0000
0010
0000
0100
0000
,  // measure 25
1000
0000
0000
0000
0100
0000
0001
0000
0100
0001
0100
0000
0000
0000
0001
0000
,  // measure 26
1000
0000
0010
0100
0001
0000
0000
0000
1000
0000
0100
0000
0100
0000
0010
0000
,  // measure 27
0001
0000
0000
0000
0100
0010
0100
0000
0010
0000
0200
0000
0000
0000
0300
0000
,  // measure 28
0001
0000
0100
0000
0010
0000
1000
0000
0100
0000
0010
0001
1000
0000
0100
0000
,  // measure 29
0010
0000
0000
0000
1001
0000
0100
0001
0100
0000
0000
0000
0010
0000
1000
0010
,  // measure 30
1000
0000
0010
0100
0001
2000
0000
3010
,  // measure 31
0100
0000
0001
1000
0001
0000
1000
0000
0010
0000
0100
0000
0010
0000
1000
0100
,  // measure 32
1000
0000
0001
0000
0100
0001
0100
0000
0001
0000
2000
0000
0000
0000
3000
0000
,  // measure 33
0010
0010
0100
0001
1000
1010
0000
1000
,  // measure 34
0001
0000
0100
0001
0100
0000
0010
0100
0010
0000
0220
0000
0000
0000
0330
0000
,  // measure 35
1000
0000
0010
0101
0000
0101
0000
0000
,  // measure 36
0001
0000
0010
0000
0100
0000
1000
0010
1000
0000
0100
0000
0000
0000
0010
0000
,  // measure 37
0001
0000
1000
0100
1000
0000
0100
1000
0100
0000
0010
0001
0010
0000
0001
0010
,  // measure 38
0001
0010
0001
0010
0100
0010
0100
0000
1000
0000
0000
0000
0010
0000
0100
0001
,  // measure 39
1000
0000
0010
0000
0010
0000
0100
0000
0001
0000
0101
0000
0000
0000
0001
0010
,  // measure 40
0100
0000
0100
1000
0001
0000
1000
0010
1000
0000
0001
0000
0100
0010
0100
0001
,  // measure 41
0100
0010
0100
0000
0010
0100
0001
0100
0001
0000
0100
0000
0101
0000
0000
0000
,  // measure 42
1010
0000
0100
0000
0101
0000
0000
0000
0001
0000
0100
0000
0000
0000
0100
0010
,  // measure 43
0100
0000
0010
1000
1001
0202
0000
0000
,  // measure 44
0303
0000
0100
0001
1000
0100
0010
0100
,  // measure 45
0010
0000
0000
0000
0001
0000
0100
0001
0100
0000
0010
0100
0010
0000
0000
0000
,  // measure 46
1000
0000
0010
0100
0010
0110
0000
1000
,  // measure 47
0001
0000
0010
0001
0010
0000
0001
0000
1000
0000
0000
0000
0001
0000
1000
0100
,  // measure 48
1000
0000
0001
0000
0100
0000
0001
0010
0001
0000
0010
0000
0001
0000
0010
0001
,  // measure 49
0010
0000
0001
0010
0001
0000
0010
0000
0100
0000
1000
0000
0000
0000
0100
0000
,  // measure 50
0010
0000
0000
0000
0001
0000
0010
0001
0010
0000
0100
0000
1000
0000
0010
0000
,  // measure 51
0001
0010
1000
0000
0100
0000
0101
0000
,  // measure 52
0001
0100
0001
1000
0100
1100
0000
1010
,  // measure 53
0100
0000
0001
0100
0001
0000
0100
0000
0000
0000
0020
0000
2030
0000
0000
0000
,  // measure 54
3001
0000
0100
0001
0100
0001
0100
0000
0001
0000
0200
0000
0000
0000
0310
0000
,  // measure 55
0100
0000
0001
0000
0100
0000
0010
0100
0010
0100
0010
1000
0200
0000
0000
0000
,  // measure 56
0310
0000
0001
0100
0011
0022
0000
0033
,  // measure 57
0100
0000
0001
1000
0001
0000
1000
0000
0010
0000
0100
0001
0100
0000
0001
0000
,  // measure 58
1000
0000
0000
0000
0001
0000
0100
0001
0100
0000
0001
0000
0000
0000
1000
0010
,  // measure 59
1000
0020
0000
1030
0100
0000
1000
0000
,  // measure 60
0100
0010
0001
0010
0001
0000
1000
0010
,  // measure 61
0100
0000
0100
0000
0000
0000
0010
0100
0010
0000
0110
0000
0000
0000
0000
0000
,  // measure 62
0100
0010
0100
0000
0020
0000
0000
0000
0130
0001
0100
0001
1000
0000
0000
0000
,  // measure 63
0010
1000
0010
1000
0001
0000
0000
0000
0001
0100
0001
0100
0001
0000
0000
0000
,  // measure 64
0100
0000
0001
1000
0010
0110
0000
0001
,  // measure 65
1000
0000
0001
1000
0001
0000
1000
0000
0100
0000
0010
0001
0010
0000
0000
0000
,  // measure 66
0001
0010
0100
1000
0100
0010
0000
0001
,  // measure 67
0010
0000
0001
0010
0001
0010
0001
0000
0000
0000
1000
0000
0200
0000
0000
0000
,  // measure 68
0310
0000
0001
1000
0100
1010
0000
0100
,  // measure 69
0010
0000
1000
0100
1000
0100
0010
0000
0001
0000
2000
0000
0000
0000
3001
0000
,  // measure 70
0010
0000
0002
0000
0000
0000
0103
0010
0100
0000
0010
0000
1000
0000
0001
0100
,  // measure 71
0001
1000
0010
1010
0010
0101
0000
0001
,  // measure 72
1000
0000
0010
0000
0100
0000
0001
0000
0100
0000
0010
0000
1000
0000
0100
0010
,  // measure 73
0100
0000
0010
0000
0000
0000
0010
0001
0010
0000
0002
0000
0000
0000
0203
0000
,  // measure 74
0000
0310
0100
0001
0100
0101
0000
0010
,  // measure 75
1000
0000
0010
0000
0010
0000
0100
0001
0100
0000
0000
0000
0010
0000
0100
0000
,  // measure 76
0001
0000
1000
0000
0100
0000
1000
0000
0100
0000
0010
0000
0000
0000
0010
0001
,  // measure 77
0100
0001
0010
0001
1000
2200
0000
3300
,  // measure 78
0001
0000
0100
0000
0001
0000
1000
0000
0001
0000
0100
0001
0100
0000
0001
0000
,  // measure 79
1000
0100
1000
0100
0010
0000
0001
0000
0010
0000
0200
0000
0000
0000
0000
0000
,  // measure 80
0000
0000
0000
0000
,  // measure 81
0000
0000
0000
0000
,  // measure 82
0000
0000
0000
0000
,  // measure 83
0300
0000
0000
0000
;
