#VERSION:0.83;
#TITLE:Yanagi Kouji no Sister;
#SUBTITLE:;
#ARTIST:Shine All Stars;
#TITLETRANSLIT:;
#SUBTITLETRANSLIT:;
#ARTISTTRANSLIT:;
#GENRE:;
#ORIGIN:;
#CREDIT:from pop n music 11;
#BANNER:Shine All Stars - Yanagi Kouji no Sister.png;
#BACKGROUND:;
#PREVIEWVID:;
#JACKET:;
#CDIMAGE:;
#DISCIMAGE:;
#LYRICSPATH:;
#CDTITLE:;
#MUSIC:Shine All Stars - Yanagi Kouji no Sister.ogg;
#OFFSET:-0.020000;
#SAMPLESTART:17.299000;
#SAMPLELENGTH:12.000000;
#SELECTABLE:YES;
#BPMS:0.000=111.000,
173.000=115.700,
176.000=111.000;
#STOPS:;
#DELAYS:;
#WARPS:;
#TIMESIGNATURES:0.000=4=4;
#TICKCOUNTS:0.000=4;
#COMBOS:0.000=1;
#SPEEDS:0.000=1.000=0.000=0;
#SCROLLS:0.000=1.000;
#FAKES:;
#LABELS:0.000=Song Start;
#BGCHANGES:;
#KEYSOUNDS:;
#ATTACKS:
;

//---------------dance-single - ----------------
#NOTEDATA:;
#CHARTNAME:;
#STEPSTYPE:dance-single;
#DESCRIPTION:;
#CHARTSTYLE:;
#DIFFICULTY:Beginner;
#METER:1;
#RADARVALUES:0.058218,0.085253,0.007689,0.000000,0.015378,53.000000,52.000000,1.000000,0.000000,0.000000,0.000000,0.000000,0.000000,0.000000,0.058218,0.085253,0.007689,0.000000,0.015378,53.000000,52.000000,1.000000,0.000000,0.000000,0.000000,0.000000,0.000000,0.000000;
#CREDIT:;
#NOTES:
0000
0000
0000
0000
,
0000
0000
0000
0000
,
0000
0000
0000
0000
,
0000
0000
0000
0000
,
0000
0000
0000
0000
,
0100
0000
0000
0000
,
0000
0000
0100
0000
,
0000
0000
0000
0000
,
0100
0000
0000
0001
,
0000
0000
1000
0000
,
0000
0000
0000
0000
,
0001
0000
0000
1000
,
0000
0000
0001
0000
,
0000
0000
0000
0000
,
1000
0000
0000
0010
,
0000
0000
1000
0000
,
0000
0000
0000
0000
,
0001
0000
0000
0010
,
0000
0000
0001
0000
,
0000
0000
0000
0000
,
0100
0000
0000
0010
,
0000
0000
0100
0000
,
0000
0001
0000
0000
,
1000
0000
0000
0001
,
0000
0000
1000
0000
,
0000
0000
0000
0000
,
0001
0000
0000
1000
,
0000
0000
0010
0000
,
0000
1000
0000
0000
,
0000
0000
0000
0001
,
0000
0000
1000
0000
,
0000
0001
0000
0000
,
1001
0000
0000
1000
,
0000
0000
1000
0000
,
0000
0000
0000
0000
,
0001
0000
0000
0001
,
0000
0000
0001
0000
,
0000
0000
0000
0000
,
1000
0000
0000
0001
,
0000
0000
1000
0000
,
0000
0000
0000
0000
,
0001
0000
0000
0001
,
0000
0000
0001
0000
,
0000
0000
0000
0000
,
1000
0000
0000
1000
,
0000
0000
0001
0000
,
0000
0000
0000
0000
,
0000
0000
0000
1000
,
0000
0000
0001
0000
,
0000
1000
0000
0000
,
0000
0000
0000
0001
,
0000
0000
1000
0000
,
0000
0000
0000
0000
,
0000
0010
0000
0000
0000
0000
0000
0000
0000
0000
0000
0000
0000
0100
0000
0000
,
0000
0000
0000
0000
0000
0000
0000
0000
0000
0100
0000
0000
0000
0000
0000
0000
,
0000
0000
0000
0000
0000
0000
0000
0001
0000
0000
0000
0000
0000
0000
0000
0000
;

//---------------dance-single - ----------------
#NOTEDATA:;
#CHARTNAME:;
#STEPSTYPE:dance-single;
#DESCRIPTION:;
#CHARTSTYLE:;
#DIFFICULTY:Easy;
#METER:3;
#RADARVALUES:0.141699,0.170506,0.053824,0.000000,0.026912,129.000000,122.000000,7.000000,0.000000,0.000000,0.000000,0.000000,0.000000,0.000000,0.141699,0.170506,0.053824,0.000000,0.026912,129.000000,122.000000,7.000000,0.000000,0.000000,0.000000,0.000000,0.000000,0.000000;
#CREDIT:;
#NOTES:
0000
0000
0000
0000
,
0000
0000
0000
0000
,
0000
0000
0000
0000
,
0000
0000
0000
0000
,
0000
0000
0000
0000
,
0100
0000
0000
0001
0000
0000
0100
0000
,
0000
0010
0000
0000
0100
0000
0000
0001
,
0000
1000
0000
0000
,
0100
0000
0000
0110
0000
0000
0001
0000
,
0000
1000
0000
0000
0001
0000
0000
0100
,
0000
0000
0010
0000
0000
0100
0000
0000
,
0001
0000
0000
1000
0000
0000
0001
0000
,
0000
0010
0000
0000
0001
0000
0000
1000
,
0000
0000
1000
0000
0000
1000
0000
0000
,
0001
0000
0000
0001
0000
0000
0010
0000
,
0000
0010
0000
0000
0100
0000
0000
0100
,
0000
0000
1000
0000
0000
1000
0000
0000
,
0001
0000
0000
0010
0000
0000
0100
0000
,
0000
1000
0000
0000
0001
0000
0000
0000
,
0000
0000
0001
0000
0000
0001
0000
0000
,
0100
0000
0000
0100
0000
0000
0010
0000
,
0000
0010
0000
0000
1000
0000
0000
0100
,
0000
0000
0010
0000
0000
0001
0000
0000
,
1000
0000
0000
0100
0000
0000
1000
0000
,
0000
0010
0000
0000
1000
0000
0000
0100
,
0000
0000
0010
0000
0000
0100
0000
0000
,
1000
0000
0000
0001
0000
0000
1000
0000
,
0000
0100
0000
0000
0010
0000
0000
0001
,
0000
0000
1000
0000
0000
1000
0000
0000
,
1001
0000
0000
0001
0000
0000
0010
0000
,
0100
1000
0001
0000
,
0000
1000
0000
0000
,
1001
0000
0000
0010
0000
0000
0100
0000
,
0000
0001
0000
0000
1000
0000
0000
0100
,
0000
0000
0011
0000
0000
1001
0000
0000
,
1000
0000
0000
0100
0000
0000
0010
0000
,
0000
0001
0000
0000
1000
0000
0000
1000
,
0000
0000
0001
0000
0000
1001
0000
0000
,
1000
0000
0000
0100
0000
0000
0010
0000
,
0000
0001
0000
0000
0001
0000
0000
1000
,
0000
0000
0000
0000
,
0001
0000
0000
0010
0000
0000
0100
0000
,
0000
1000
0000
0000
0001
0000
0000
0001
,
0000
0000
1000
0000
0000
1000
0000
0000
,
1000
0000
0000
0001
0000
0000
1000
0000
,
0000
0100
0000
0000
0010
0000
0000
0001
,
0000
0000
0000
0000
,
0000
0000
0000
1000
,
0000
1000
0000
0000
0001
0000
0000
0000
,
0000
0000
1000
0000
0000
0001
0000
0000
,
0001
0000
0000
1001
,
0000
0010
0000
0000
1000
0000
0000
0010
,
0000
0000
0000
0000
0000
0100
0000
0000
0000
0000
0000
0010
0000
0000
0000
0000
,
0000
0010
0000
0000
0000
0000
0000
0000
0000
0000
0000
0000
0000
0100
0000
0000
,
0000
0000
0000
0010
0000
0000
0000
0000
0000
0010
0000
0000
0000
0000
0000
0000
,
0000
0000
0000
0000
0000
0000
0000
1000
0000
0000
0000
0000
0000
0000
0000
0000
;

//---------------dance-single - ----------------
#NOTEDATA:;
#CHARTNAME:;
#STEPSTYPE:dance-single;
#DESCRIPTION:;
#CHARTSTYLE:;
#DIFFICULTY:Medium;
#METER:5;
#RADARVALUES:0.239461,0.255759,0.099958,0.061513,0.046135,218.000000,205.000000,13.000000,8.000000,0.000000,0.000000,0.000000,0.000000,0.000000,0.239461,0.255759,0.099958,0.061513,0.046135,218.000000,205.000000,13.000000,8.000000,0.000000,0.000000,0.000000,0.000000,0.000000;
#CREDIT:;
#NOTES:
0000
0000
0000
0000
,
0000
0000
0000
0000
,
0000
0000
0000
0000
,
0000
0000
0000
0000
,
0000
0000
0000
0000
,
0100
0000
0000
0001
0010
0010
0100
0000
,
0000
0010
0100
0000
0100
0000
0000
0001
,
0010
0100
1000
0000
0000
0000
0000
0000
,
0110
0000
0010
0100
0000
0000
0001
0000
,
0000
1000
0000
1000
0001
0000
0000
0100
,
0010
0000
0100
0000
0000
0100
0010
0000
,
0100
0000
0001
0100
0000
1000
0010
0000
,
0000
0100
0000
0000
0001
0000
0000
1000
,
0001
0000
1000
0001
0000
1000
0000
0000
,
1001
0000
1000
0001
0000
0100
0010
0000
,
0100
0010
0000
0000
0101
0000
0010
0100
,
0000
0000
1000
0000
0100
1000
0000
0000
,
0011
0000
0000
0010
0001
0010
0001
0000
,
0000
1000
0000
1000
0001
0000
0100
0010
,
0000
0010
0100
0000
0000
1001
0000
0000
,
0101
0000
0001
0100
0000
0001
0100
0000
,
0000
0010
1000
0000
1001
0000
1000
0000
,
0000
0100
0010
0000
0000
0001
1000
0000
,
1001
0000
0100
0010
0000
1000
0001
0000
,
0100
0010
0000
0000
0002
0003
0000
2000
,
3000
0000
0110
0000
0000
0100
0010
0100
,
0020
0030
0100
0001
0000
0100
0010
0000
,
0000
1000
0000
0010
0100
0000
0100
0001
,
0000
1000
0001
0000
1000
0001
0000
1000
,
1000
0001
0010
0100
,
0100
0000
1000
0000
0001
1000
0001
1000
,
0000
0001
0000
1000
0000
0002
0003
0000
,
1001
0000
1000
0010
0000
0100
0001
0000
,
1000
0100
0000
1000
0010
0000
1000
0001
,
0000
0100
0010
0000
0000
0100
0000
0100
,
0010
0000
0100
0010
0000
0010
0100
0000
,
0001
1000
0000
0000
1000
0000
0001
1000
,
0001
1000
0002
0000
0003
2000
0000
3000
,
0001
0100
0010
0010
,
0100
0000
0001
0000
0001
0000
1000
0001
,
0000
2000
0000
0000
3000
0000
0000
0000
,
0001
0000
0010
0100
0000
0010
0100
0000
,
1000
0000
0000
1000
0001
0000
1000
0001
,
0000
0000
1000
0000
0000
1000
0000
0000
,
1001
0000
0001
1000
0000
1000
0001
0000
,
0001
0010
0000
0010
0001
0000
0010
0001
,
0000
2000
0000
0000
0000
0000
3000
0000
,
0000
0000
0000
1000
,
0000
1000
0000
0000
0001
0000
0000
0001
,
0000
1000
0100
0010
,
0001
0000
0000
1001
,
0000
0010
0100
0000
1000
0100
0000
0000
,
0001
0000
0000
0000
0000
0100
0000
0000
0000
0000
0000
0010
0000
0010
0000
0010
,
0000
0010
0000
0000
0000
0000
0000
0100
0000
0000
0000
0000
0000
0110
0000
0000
,
0000
0000
0000
0010
0000
0010
0000
0010
0000
0010
0000
0000
0000
0000
0000
0000
,
0000
0000
0000
0000
0000
0000
0000
1000
0000
0000
0000
0000
0000
0000
0000
0000
;

//---------------dance-single - ----------------
#NOTEDATA:;
#CHARTNAME:;
#STEPSTYPE:dance-single;
#DESCRIPTION:;
#CHARTSTYLE:;
#DIFFICULTY:Hard;
#METER:9;
#RADARVALUES:0.298777,0.426265,0.123026,0.153782,0.057668,272.000000,256.000000,16.000000,20.000000,0.000000,0.000000,0.000000,0.000000,0.000000,0.298777,0.426265,0.123026,0.153782,0.057668,272.000000,256.000000,16.000000,20.000000,0.000000,0.000000,0.000000,0.000000,0.000000;
#CREDIT:;
#NOTES:
// measure 0
0000
0000
0000
0000
,  // measure 1
0000
0000
0000
0000
,  // measure 2
0000
0000
0000
0000
,  // measure 3
0000
0000
0000
0000
,  // measure 4
0000
0000
0000
0000
,  // measure 5
0100
0000
0000
0001
0010
0001
0010
0000
,  // measure 6
0000
0010
0100
0100
1000
0000
0000
0001
,  // measure 7
0010
0100
1000
0000
0000
1000
0000
0000
,  // measure 8
0110
0000
0010
0100
0000
0010
0001
0100
,  // measure 9
0001
0000
0000
1000
0100
0000
0100
1000
,  // measure 10
0010
0000
0100
0000
0002
0000
0000
0003
0200
0000
0000
0000
0310
0000
0010
0000
,  // measure 11
0100
0000
0001
0100
0000
0010
1000
0010
,  // measure 12
0100
0000
0100
0010
0002
0003
0010
2000
,  // measure 13
3000
0001
2000
3000
0002
0000
0003
0000
,  // measure 14
2001
0000
0001
0001
3000
0100
0010
0001
,  // measure 15
0001
0010
0000
0000
0011
0000
0010
0000
,  // measure 16
0100
1000
0020
0030
0100
0010
0000
0000
,  // measure 17
0110
0000
1000
0001
0001
0010
0001
0000
,  // measure 18
1000
0000
0100
1000
0001
0100
0010
0001
,  // measure 19
0010
0100
0001
0001
1001
1001
1001
1001
,  // measure 20
2000
0000
3001
0100
0000
0001
0100
0000
,  // measure 21
0000
0010
1000
0100
0010
0000
0001
0000
,  // measure 22
0010
0100
0010
0000
0000
0001
0001
1000
,  // measure 23
1000
0000
0100
0010
0001
1000
0100
0000
,  // measure 24
2000
3000
0100
0010
0100
0000
0010
1000
,  // measure 25
0000
0010
0001
0000
0100
0010
0010
0100
,  // measure 26
0110
0000
0000
0000
0200
0000
0000
0300
0001
0000
0000
0000
0010
0000
0000
0000
,  // measure 27
0100
1000
0100
0010
0100
0000
1000
0000
,  // measure 28
0001
0000
2000
0000
0000
0000
3000
0001
0000
0000
0001
0000
0001
0000
1000
0000
,  // measure 29
1001
0000
0001
0000
0010
0010
0100
0000
,  // measure 30
0100
1000
1000
0001
0001
0000
0001
1000
,  // measure 31
0000
0101
0000
0010
0100
1000
0100
0010
,  // measure 32
0011
0000
0001
0010
0000
0100
0001
0000
,  // measure 33
0100
0010
0000
0001
1000
0000
2000
3000
,  // measure 34
0010
0100
0010
0000
0100
0010
0100
0000
,  // measure 35
0020
0030
0100
0010
0000
0010
0100
0000
,  // measure 36
0001
1000
0000
1000
0100
0000
0010
0001
,  // measure 37
1000
0100
2000
0000
3000
2000
0000
3000
,  // measure 38
0001
0000
0100
0000
0010
0100
0010
0000
,  // measure 39
0100
0010
0100
0010
0100
0000
0001
0010
,  // measure 40
0000
2000
0000
0000
3000
0000
0000
0000
,  // measure 41
0010
0000
0010
0100
0000
0010
0001
0000
,  // measure 42
0010
0100
0000
1000
0001
0000
1000
0001
,  // measure 43
0000
1000
1000
0000
0000
1000
0000
0000
,  // measure 44
1001
0000
0001
1000
0000
1000
0001
0000
,  // measure 45
0001
0010
0100
1000
0001
0100
0010
0100
,  // measure 46
0001
2000
0000
0000
0000
0000
3000
0000
,  // measure 47
0000
0000
0000
1000
,  // measure 48
0000
1000
0000
0000
0001
0000
0000
0001
,  // measure 49
0000
1000
1000
0000
0100
0100
0000
0010
,  // measure 50
0010
0000
0000
0001
0000
1000
1010
0000
,  // measure 51
0010
0210
0300
0001
0001
0000
0001
0000
,  // measure 52
0001
0000
0000
0000
0000
0110
0000
0000
0000
0000
0000
0010
0000
0100
0000
0010
,  // measure 53
0000
0100
0000
0000
0000
0000
0000
0100
0000
0001
0000
0100
0000
0020
0000
0000
,  // measure 54
0030
0000
0000
1000
0000
0100
0000
0010
0000
0100
0000
0000
0000
0000
0000
0000
,  // measure 55
0000
0000
0000
0000
0000
0000
0000
1000
0000
0000
0000
0000
0000
0000
0000
0000
;
