#TITLE:World Spider Web;
#SUBTITLE:;
#ARTIST:Wly & The hampatensions;
#TITLETRANSLIT:;
#SUBTITLETRANSLIT:;
#ARTISTTRANSLIT:;
#GENRE:;
#CREDIT:;
#BANNER:Wly_-_-The-hampatensions-World-Spider-Web.png;
#BACKGROUND:;
#LYRICSPATH:;
#CDTITLE:;
#MUSIC:Wly_-_-The-hampatensions-World-Spider-Web.ogg;
#OFFSET:-0.119000;
#SAMPLESTART:52.974998;
#SAMPLELENGTH:15.000000;
#SELECTABLE:YES;
#BPMS:0.000000=134.000000
;
#STOPS:
;
#BGCHANGES:;
#KEYSOUNDS:;
#ATTACKS:;

//---------------dance-single - pop'n music 14 FEVER! CS----------------
#NOTES:
     dance-single:
     :
     Beginner:
     2:
     0.064603,0.109123,0.009831,0.019662,0.000000,46.000000,45.000000,1.000000,2.000000,0.000000,0.000000,0.064603,0.109123,0.009831,0.019662,0.000000,46.000000,45.000000,1.000000,2.000000,0.000000,0.000000:
0000
0000
0000
0000
,
0000
0000
0000
0000
,
0000
0000
0000
0000
,
0000
0000
0000
0000
,
0000
0000
0100
0000
,
0000
0000
0100
0000
,
0000
0000
0010
0000
,
0000
0000
0010
0000
,
0000
0000
1000
0000
,
0000
0000
0000
0000
,
0001
0000
0001
0000
,
0000
0000
0000
0000
,
1000
0000
1000
0000
,
0000
0000
0000
0000
,
0001
0000
0010
0000
,
0000
0000
1000
0000
,
1000
0000
1000
0000
,
0000
0000
0000
0000
,
0000
0000
0001
0000
,
0000
0000
0001
0000
,
0000
0000
0001
0000
,
0000
0000
1000
0000
,
0000
0000
0010
0000
,
0000
0000
0010
0000
,
0100
0000
0200
0000
,
0300
0000
0000
0000
,
0000
0000
0020
0000
,
0030
0000
0000
0000
,
0000
0000
1000
0000
,
1000
0000
1000
0000
,
0000
0000
0001
0000
,
0000
0000
1000
0000
,
0000
0000
0000
0000
,
0000
0000
0010
0000
,
0000
0000
0100
0000
,
0000
0000
0010
0000
,
0000
0000
0000
0000
,
0000
0000
1001
0000
,
0000
0000
0000
0000
,
0000
0000
1000
0000
,
0000
0000
1000
0000
,
0000
0000
0001
0000
,
0000
0000
0001
0000
,
0000
0000
0001
0000
,
0000
0000
0000
0000
,
0000
0000
0100
0000
,
0000
0000
0000
0000
,
0010
0000
0000
0000
,
0000
0000
0000
0000
,
0000
0000
0100
0000
,
0000
0000
0100
0000
,
0000
0000
0100
0000
,
0000
0000
0000
0000
,
0000
0000
0001
0000
,
0000
0000
0001
0000
,
0000
0000
0001
0000
;

//---------------dance-single - ----------------
#NOTES:
     dance-single:
     :
     Easy:
     4:
     0.151677,0.190965,0.039324,0.000000,0.000000,108.000000,104.000000,4.000000,0.000000,0.000000,0.000000,0.151677,0.190965,0.039324,0.000000,0.000000,108.000000,104.000000,4.000000,0.000000,0.000000,0.000000:
0000
0000
0000
0000
,
0000
0000
0000
0000
,
0000
0000
0000
0000
,
0000
0000
0000
0000
,
0000
0000
1000
0000
,
1000
0000
0001
0000
,
0001
0000
0010
0000
,
0010
0000
0100
0000
,
0000
0000
0110
0000
,
0100
0000
0010
0000
,
0100
0010
0000
0100
,
0010
0000
0000
1000
,
0001
0000
0000
1000
,
0010
0000
0100
0000
,
0100
0000
0010
0000
,
0110
0000
0010
0000
,
0110
0000
0010
0000
,
1000
0000
0000
0001
,
1000
0001
0000
1000
,
0010
0000
0000
1000
,
0100
0010
0000
0001
,
0000
0001
1000
0000
,
0000
0001
1000
0000
,
0010
0000
0100
0100
,
0100
0010
0010
0000
,
0000
0100
0001
0000
,
0000
1000
0010
0000
,
0000
0000
0100
0000
,
1000
0000
0001
0000
,
0001
0001
0001
0000
,
1000
0000
0000
0000
,
0010
0000
0000
0000
,
0100
0000
0000
0001
,
0010
0100
0000
0000
,
1000
0000
0000
0000
,
0101
0000
0000
0000
,
0010
0000
0000
0000
,
0001
0010
0100
0000
,
1000
0000
0001
0000
,
0000
1000
0001
0000
,
0000
0010
0001
0000
,
1000
0000
0100
0000
,
0000
0010
0010
0000
,
0000
0100
0100
0000
,
0000
1000
0000
0000
,
0010
0010
0000
0000
,
0100
0010
0100
0000
,
0010
0100
0010
0000
,
1000
0000
0001
0000
,
1000
0001
1000
0000
,
0000
0001
0001
0000
,
0000
1000
1000
0000
,
0000
0001
0010
0000
,
0000
0000
1000
0000
,
0100
0000
1000
0000
,
0001
0000
0001
0000
;

//---------------dance-single - ----------------
#NOTES:
     dance-single:
     :
     Medium:
     7:
     0.289310,0.354650,0.058985,0.029493,0.142548,206.000000,200.000000,6.000000,3.000000,0.000000,0.000000,0.289310,0.354650,0.058985,0.029493,0.142548,206.000000,200.000000,6.000000,3.000000,0.000000,0.000000:
0000
0000
0000
0000
0100
0000
0010
0100
,
0010
0100
0001
1000
,
0001
1000
0001
0000
1000
0000
0100
0000
,
0010
0001
0010
0000
0001
0000
1000
0000
,
0010
0010
0100
0001
,
0100
0001
0100
0000
0010
0000
1000
0000
,
0001
0010
0100
0000
0010
0000
0001
0000
,
1000
0100
0001
0000
1000
0000
0000
0000
,
0001
0000
0000
0000
1000
0100
1000
0000
,
0001
0000
0000
0100
0000
0000
0001
0000
0000
0000
0100
0000
0010
0000
0000
0000
,
0100
0010
0100
0000
0000
0001
1000
0001
,
1000
0000
0000
0001
0000
0000
1000
0000
0000
0000
0001
0000
1000
0000
0001
0000
,
1000
0000
0000
0000
0001
1000
0010
0000
,
0100
0000
0000
0100
0000
0000
0100
0000
0000
0000
0001
0000
1000
0000
0001
0000
,
1000
0000
0001
0000
,
1100
0000
0001
0001
,
0001
0000
0001
0000
0000
0000
1000
0100
,
0010
0000
0000
0001
0000
0000
0000
0000
0000
0000
1000
0000
0100
0000
0010
0000
,
0001
0000
0000
1000
0000
0001
1000
0001
,
0100
0000
0000
0010
0000
0000
0100
0000
0000
0000
0001
0000
1000
0000
0001
0000
,
0010
0000
0000
0000
0001
0000
0000
0000
1000
0000
0000
0001
0000
0000
1000
0000
,
0000
0000
0001
1000
,
0001
0000
0000
0000
1000
0000
0000
0000
0001
0000
0000
0010
0000
0000
0100
0000
,
0000
0000
1000
1001
,
0100
0001
1000
0000
,
1000
0001
0001
0000
,
0000
1000
1000
0000
,
0000
0000
0000
0020
0000
0000
0000
0000
,
0030
0000
0200
0000
,
0320
0000
0000
0000
0000
0000
0000
0000
0030
0000
0100
0000
0000
0001
0000
0000
,
0100
0000
0000
0000
0000
0000
0000
0000
0000
0000
0010
0000
0000
1000
0000
0000
,
0010
0000
0000
0000
0000
0000
0000
0000
0000
0000
1000
0000
0000
0001
0000
0000
,
0100
0000
0000
0010
,
0100
0000
0000
0100
0000
0000
0000
0000
0000
0000
0010
0000
0000
1000
0000
0000
,
0001
0000
0000
0000
0000
0000
0000
0000
0000
0000
0001
0000
0000
0010
0000
0000
,
0100
0000
0000
0000
0000
0000
0000
0000
0000
0000
0010
0000
0000
0001
0000
0000
,
1000
0000
0000
0000
0000
0000
0000
0000
0000
0000
0001
0000
0000
1000
0000
0000
,
0001
0000
0000
0000
1000
0000
0000
0000
0001
0000
0000
1000
0000
0000
0000
0001
,
0000
0000
0000
0000
1000
0000
0000
0000
0010
0000
0000
0100
0000
0000
0000
0010
,
0000
0000
0000
0000
0100
0000
0000
0000
0001
0000
0000
0010
0000
0000
0000
0001
,
0000
0000
0000
0000
0010
0000
0000
0000
0000
0000
0001
0000
0000
1000
0000
0000
,
0001
0000
0000
0000
0000
0000
0000
0000
1000
0000
0000
0100
0000
0000
0000
0100
,
0000
0000
0000
0000
1000
0000
0000
0000
0001
0000
0000
0010
0000
0000
0000
0010
,
0000
0000
0000
0000
0001
0000
0000
0000
1000
0000
0000
0010
0000
0000
0000
0010
,
0000
0000
0000
0000
0100
0000
0000
0000
0000
0000
0001
0000
0000
1000
0000
0000
,
0001
1001
0000
0000
,
0000
0000
0100
0000
,
0010
0000
0100
0010
,
0100
0001
0010
0100
,
0010
0001
1001
0100
,
0000
0010
0100
0001
,
0000
1000
0100
0010
,
0000
0010
0001
0001
,
1000
1000
1001
0000
,
0010
0000
0110
0000
,
0100
0000
0010
0000
;

//---------------dance-single - ----------------
#NOTES:
     dance-single:
     :
     Hard:
     12:
     0.502781,0.572896,0.000000,0.039324,0.565277,358.000000,358.000000,0.000000,4.000000,0.000000,0.000000,0.502781,0.572896,0.000000,0.039324,0.565277,358.000000,358.000000,0.000000,4.000000,0.000000,0.000000:
// measure 0
0000
0000
0000
0000
0000
0000
0000
0000
0100
0010
0000
0010
0000
0100
0000
0010
,  // measure 1
0100
0000
0010
0000
0100
0000
0000
0000
0010
0100
0000
0100
0000
0010
0000
0100
,  // measure 2
0010
0000
0100
0000
0010
0000
0000
0000
1000
0001
0000
1000
0000
0001
0000
1000
,  // measure 3
0001
0000
0100
0000
0001
0000
0000
0000
0100
0010
0000
0010
0000
0100
0000
0010
,  // measure 4
0100
0000
0000
0000
0100
0000
0000
0000
0010
1000
0000
0010
0000
1000
0000
0010
,  // measure 5
1000
0000
0010
0000
1000
0000
0000
0000
0001
0100
0000
0001
0000
0100
0000
0001
,  // measure 6
0100
0000
0001
0000
0100
0000
0000
0000
0010
1000
0000
0010
0000
1000
0000
0010
,  // measure 7
1000
0000
0001
0000
0100
0000
0000
0000
0010
0100
0000
0010
0100
0010
0000
0100
,  // measure 8
0001
0100
0000
0001
0100
0001
0000
0100
0010
0000
0001
0000
0010
0000
1000
0000
,  // measure 9
0100
0000
0000
0001
0000
0000
0200
0000
0300
0000
1000
0000
0001
0000
1000
0000
,  // measure 10
0001
0100
0010
0000
0010
0100
0001
0010
,  // measure 11
0100
0000
0000
1000
0000
0000
0002
0000
0000
0000
0103
0000
0010
0000
0100
0000
,  // measure 12
0001
0000
0000
0000
0000
0000
1000
0001
0000
0000
0010
0000
1000
0000
0010
0000
,  // measure 13
0001
0100
0000
0100
0000
0001
1000
0100
,  // measure 14
0001
0000
0001
0100
1000
0000
0001
0010
,  // measure 15
0010
0000
0001
0100
0100
0000
0010
0100
,  // measure 16
0010
0100
0001
0000
0000
0000
1000
0100
,  // measure 17
0010
0000
0000
0010
0000
0000
0001
0010
0001
0000
1000
0000
0010
0000
0100
0000
,  // measure 18
0001
1000
0001
0100
0000
0010
0100
1000
,  // measure 19
0100
0010
0000
0100
0001
0100
0001
0010
,  // measure 20
0100
0000
1000
0000
0010
0000
0000
0000
0100
0000
0000
0100
0000
0000
0100
0000
,  // measure 21
0000
0000
0001
0000
1000
0000
0001
1000
0001
0000
1000
0000
0100
0000
0100
0000
,  // measure 22
1000
0000
0000
0000
0100
0000
0000
0000
0010
0000
0000
0010
0000
0000
0010
0000
,  // measure 23
0000
0001
1000
0100
0100
0000
1000
0000
,  // measure 24
0010
0100
0002
0000
,  // measure 25
1000
0000
1000
0003
,  // measure 26
1000
0010
0200
0000
,  // measure 27
0001
0000
0001
0300
,  // measure 28
0001
1000
0001
1000
0010
0100
0010
1000
,  // measure 29
0001
0000
1000
0000
0001
0000
0000
0000
0000
0000
1000
0000
0000
0100
0000
0000
,  // measure 30
1000
0000
0000
0000
0001
0000
1000
0000
0010
0000
0100
0000
0000
0010
0000
0000
,  // measure 31
1000
0000
0000
0000
0001
0000
1000
0000
0001
0000
0100
0000
0000
0010
0000
0000
,  // measure 32
0100
0000
0001
1000
0000
0010
0100
0000
,  // measure 33
0010
0100
0000
0100
0010
0000
0000
0000
0000
0000
0100
0000
0000
0010
0000
0000
,  // measure 34
0100
0000
0000
0000
0001
0010
0001
0000
0000
0000
1000
0000
0000
0010
0000
0000
,  // measure 35
0100
0000
0000
0000
0001
0100
0001
0000
0000
0000
1000
0000
0000
0001
0000
0000
,  // measure 36
0010
0000
0000
0000
0001
1000
0001
0000
0000
0000
1000
0000
0000
0001
0000
0000
,  // measure 37
1000
0000
0001
0000
1000
0000
0001
0000
0100
0010
0000
0010
0000
0010
0000
0100
,  // measure 38
0000
0010
0000
0100
0010
0000
0000
0000
1000
0001
0000
0001
0000
0001
0000
1000
,  // measure 39
0000
0001
0000
1000
0001
0000
0000
0000
0001
1000
0000
1000
0000
1000
0000
0001
,  // measure 40
0000
1000
0000
0001
1000
0000
0000
0000
0000
0000
0010
0000
0000
0100
0000
0000
,  // measure 41
0010
0000
0000
0000
0000
0000
0000
0000
0100
0001
0000
0100
0000
0001
0000
0100
,  // measure 42
0000
0001
0000
0100
0001
0000
0000
0000
0100
0001
0000
0100
0000
0001
0000
0100
,  // measure 43
0000
0001
0000
0100
0001
0000
0000
0000
1000
0100
0000
1000
0000
0100
0000
1000
,  // measure 44
0000
0100
0000
1000
0100
0000
0000
0000
0000
0000
0001
0000
0000
1000
0000
0000
,  // measure 45
0001
1000
0001
0000
0000
0000
0000
0000
,  // measure 46
0000
0000
0000
0000
0000
0000
0000
0000
0100
0000
0010
0100
0010
0000
0000
0000
,  // measure 47
0100
0000
0010
0100
0010
0000
0100
0010
,  // measure 48
0100
0000
0000
0000
0010
0100
0010
0000
0100
0000
0000
0000
0000
0000
0000
0000
,  // measure 49
0010
0000
0000
0000
0100
0010
0100
0010
0100
0000
0000
0000
0001
1000
0000
0000
,  // measure 50
0001
1000
0001
1000
0001
0000
0000
0000
1000
0001
0000
0000
1000
0001
0000
0000
,  // measure 51
1000
0001
1000
0001
1000
0000
0000
0000
0001
1000
0000
0000
0001
1000
0000
0000
,  // measure 52
0001
1000
0001
1000
0001
0000
0000
0000
1000
0001
0000
1000
0000
0001
0000
1000
,  // measure 53
0001
0000
0000
0000
1000
0001
1000
0001
1000
0000
0000
0000
0010
0000
0000
0000
,  // measure 54
0100
0010
0001
0010
0100
0000
0001
0000
,  // measure 55
1000
0001
1000
0010
0100
0000
0000
0000
;
