#VERSION:0.83;
#TITLE:Wonderful;
#SUBTITLE:;
#ARTIST:Marques Houston;
#TITLETRANSLIT:;
#SUBTITLETRANSLIT:;
#ARTISTTRANSLIT:;
#GENRE:R&B;
#ORIGIN:;
#CREDIT:;
#BANNER:;
#BACKGROUND:;
#PREVIEWVID:;
#JACKET:;
#CDIMAGE:;
#DISCIMAGE:;
#LYRICSPATH:;
#CDTITLE:;
#MUSIC:Marques Houston - Wonderful (1).ogg;
#OFFSET:-0.226000;
#SAMPLESTART:50.662998;
#SAMPLELENGTH:15.000000;
#SELECTABLE:YES;
#DISPLAYBPM:188.000000;
#BPMS:0.000=187.966,
353.000=189.500,
365.000=188.000;
#STOPS:;
#DELAYS:;
#WARPS:;
#TIMESIGNATURES:0.000=4=4;
#TICKCOUNTS:0.000=4;
#COMBOS:0.000=1;
#SPEEDS:0.000=1.000=0.000=0;
#SCROLLS:0.000=1.000;
#FAKES:;
#LABELS:0.000=Song Start;
#BGCHANGES:;
#KEYSOUNDS:;
#ATTACKS:
;

//---------------dance-single - ----------------
#NOTEDATA:;
#CHARTNAME:;
#STEPSTYPE:dance-single;
#DESCRIPTION:;
#CHARTSTYLE:;
#DIFFICULTY:Beginner;
#METER:1;
#RADARVALUES:0.067097,0.110155,0.023882,0.047764,0.000000,59.000000,56.000000,3.000000,6.000000,0.000000,0.000000,0.000000,0.000000,0.000000,0.067097,0.110155,0.023882,0.047764,0.000000,59.000000,56.000000,3.000000,6.000000,0.000000,0.000000,0.000000,0.000000,0.000000;
#CREDIT:;
#DISPLAYBPM:188.000000;
#NOTES:
0000
0000
0000
0000
,
0000
0000
0000
0000
,
0000
0000
0000
0000
,
0000
0000
0000
0000
,
0000
0000
0000
0000
,
0000
0000
0000
0000
,
0000
1000
0000
0000
,
0000
0000
0000
0000
,
0000
1000
0000
0000
,
0000
0000
0000
0000
,
0000
0001
0000
0000
,
0000
0000
0000
0000
,
0000
0001
0000
0000
,
0000
0000
0000
0000
,
0000
1000
0000
0000
,
0000
0000
0000
0000
,
0000
1000
0000
0000
,
0000
0000
0000
0000
,
0000
0100
0000
0000
,
0000
0000
0000
0000
,
0000
0100
0000
0000
,
0000
0000
0000
0000
,
0000
0010
0000
0000
,
0000
0000
0000
0000
,
0000
0010
0000
0000
,
0000
0000
0000
0000
,
0000
0001
0000
0000
,
0000
0000
0000
0000
,
0000
1000
0000
0000
,
0000
0000
0000
0000
,
0000
0001
0000
0000
,
0000
0001
0000
0000
,
0000
0001
0000
0000
,
0000
0000
0000
0000
,
0000
1001
0000
0000
,
0000
0000
0000
0000
,
0000
1000
0000
0000
,
0000
1000
0000
0000
,
0000
1000
0000
0000
,
0000
0000
0000
0000
,
0000
0001
0000
0000
,
0000
0000
0000
0000
,
0000
0220
0000
0000
,
0330
0000
0000
0000
,
0000
0001
0000
0000
,
0000
0000
0000
0000
,
0000
2002
0000
0000
,
3003
0000
0000
0000
,
0000
1000
0000
0000
,
0000
0000
0000
0000
,
0000
0002
0000
0000
,
0003
0000
0000
0000
,
0000
1000
0000
0000
,
0000
1000
0000
0000
,
0000
2000
0000
0000
,
3000
0000
0000
0000
,
0000
0001
0000
0000
,
0000
0000
0000
0000
,
0000
0100
0000
0000
,
0000
0010
0000
0000
,
0000
0100
0000
0000
,
0000
0000
0000
0000
,
0000
0010
0000
0000
,
0000
1000
0000
0000
,
0000
0010
0000
0000
,
0000
0000
0000
0000
,
0000
0100
0000
0000
,
0100
0000
0000
0000
,
0000
0010
0000
0000
,
0000
0010
0000
0000
,
0000
0000
0000
0000
,
0000
0001
0000
0000
,
0000
0001
0000
0000
,
0000
0000
0000
0000
,
0000
0001
0000
0000
,
0000
0010
0000
0000
,
0000
0010
0000
0000
,
0000
0000
0000
0000
,
0000
0100
0000
0000
,
0000
0100
0000
0000
,
0000
0100
0000
0000
,
0000
0000
0000
0000
,
0000
1000
0000
0000
,
0000
1000
0000
0000
,
0000
0001
0000
0000
,
0000
0000
0000
0000
,
0000
0001
0000
0000
,
0000
1000
0000
0000
,
0000
0001
0000
0000
,
0000
0000
0000
0000
,
0000
1000
0000
0000
,
0000
0001
0000
0000
,
0000
0100
0000
0000
;

//---------------dance-single - ----------------
#NOTEDATA:;
#CHARTNAME:;
#STEPSTYPE:dance-single;
#DESCRIPTION:;
#CHARTSTYLE:;
#DIFFICULTY:Easy;
#METER:4;
#RADARVALUES:0.162625,0.186578,0.079606,0.199016,0.000000,143.000000,133.000000,10.000000,25.000000,0.000000,0.000000,0.000000,0.000000,0.000000,0.162625,0.186578,0.079606,0.199016,0.000000,143.000000,133.000000,10.000000,25.000000,0.000000,0.000000,0.000000,0.000000,0.000000;
#CREDIT:;
#DISPLAYBPM:188.000000;
#NOTES:
0000
0000
0000
0000
,
0000
0000
0000
0000
,
0000
0001
0000
0000
,
0000
0000
0000
0000
,
0000
2000
0000
3000
,
0000
0000
0000
0000
,
0000
1000
0000
0001
,
0000
1000
0000
0000
,
0000
0101
0000
0000
,
0001
0000
0000
0000
,
0000
1001
0000
0000
,
0000
1000
0000
0001
,
0000
1000
0000
0000
,
1001
0000
0000
0001
,
0000
0001
0000
0100
,
0000
0100
0000
0001
,
0000
0100
0000
0000
,
0101
0000
0000
1000
,
0000
0100
0000
1000
,
0000
0100
0000
1000
,
0000
0001
0000
0000
,
1001
0000
0000
0001
,
0000
0010
0000
0001
,
0000
0010
0000
0001
,
0000
1000
0000
0000
,
0002
0000
0003
1000
,
0000
0001
0000
0000
,
0000
0100
0000
0010
,
0000
0100
0000
0000
,
0110
0000
0000
0010
,
0000
0100
0000
0010
,
0000
1000
0000
0010
,
0000
1000
0000
0000
,
0200
0000
0300
1000
,
0000
0001
0000
0100
,
0000
0001
0000
1000
,
0000
0001
0000
0000
,
2000
0000
3000
0001
,
0000
0100
0000
0001
,
0000
0100
0000
0000
,
0000
0200
0000
0300
,
0020
0000
0030
0100
,
0000
0001
0000
1000
,
0000
0001
0000
0100
,
0000
2000
0000
3000
,
0002
0000
0003
1000
,
0000
0001
0000
0100
,
0000
0001
0000
1000
,
0000
0020
0000
0030
,
2000
0000
3000
0001
,
0000
1000
0000
0010
,
0000
0100
0000
0001
,
0000
0200
0000
0300
,
0002
0000
0003
0000
,
0000
1001
0000
0000
,
0000
0100
0000
0010
,
0000
0200
0000
0300
,
0020
0000
0030
0000
,
0000
0100
0000
0010
,
0000
0100
0000
0001
,
0000
0100
0000
0000
,
0000
0010
0000
1000
,
0000
0010
0000
0100
,
0000
0001
0000
0000
,
0000
1000
0000
0000
,
0002
0000
0003
0000
,
0000
1001
0000
0000
,
2000
0000
0000
3000
,
0002
0000
0000
0003
,
0000
1000
0000
0001
,
0000
0100
0000
0000
,
0000
0010
0000
0000
,
0000
0100
0000
0000
,
0200
0000
0300
0000
,
0000
0001
0000
0010
,
0000
0100
0000
0000
,
0000
1001
0000
0000
,
2000
0000
3000
0000
,
0000
0001
0000
0100
,
0000
0001
0000
0000
,
0000
2000
3000
0000
,
0002
0000
0000
0103
,
0000
0100
0000
0010
,
0000
0010
0000
1000
,
0000
0002
0003
0000
,
0200
0000
0000
0310
,
0000
0001
0000
0010
,
0000
0010
0000
0000
,
0000
1000
0000
0000
,
0001
0000
0000
0000
,
0000
1000
0000
0010
,
0000
1000
0000
0000
,
0000
0220
0000
0000
,
0030
0000
0000
0300
;

//---------------dance-single - ----------------
#NOTEDATA:;
#CHARTNAME:;
#STEPSTYPE:dance-single;
#DESCRIPTION:;
#CHARTSTYLE:;
#DIFFICULTY:Medium;
#METER:9;
#RADARVALUES:0.347994,0.447786,0.119410,0.421914,0.000000,306.000000,291.000000,15.000000,53.000000,0.000000,0.000000,0.000000,0.000000,0.000000,0.347994,0.447786,0.119410,0.421914,0.000000,306.000000,291.000000,15.000000,53.000000,0.000000,0.000000,0.000000,0.000000,0.000000;
#CREDIT:;
#DISPLAYBPM:188.000000;
#NOTES:
0000
0000
0000
0000
,
0000
0000
0000
0000
,
0000
0000
0000
0000
,
0000
0000
0000
0000
,
0000
0000
0020
0000
0030
0200
0000
0300
,
0002
0000
0003
1000
,
0000
1000
0000
0001
,
0000
0001
0000
1000
,
0010
0100
0001
0000
0000
0101
0000
0000
,
2000
3000
0001
0100
,
0000
0000
1001
0000
0000
0001
1000
0000
,
0000
1000
0100
0000
0000
0010
0000
0000
,
0001
0000
1000
0000
0000
0001
1000
0000
,
1001
0000
0100
0001
,
1000
0002
0203
0320
,
0230
0000
0000
0000
0300
0000
0001
1000
,
0001
0000
0100
0000
0000
0110
0000
0000
,
0020
0030
0100
0010
,
0000
0000
0200
0000
0300
0001
1000
0000
,
0000
0001
0100
0000
0000
0010
0000
0000
,
0100
0000
1001
0000
0000
0100
0001
0000
,
0101
0000
0000
0001
,
1000
0020
0230
0320
,
2030
3020
0000
0130
,
0000
0010
0200
0000
0300
0001
0100
0000
,
0002
0000
1003
0000
,
1000
0001
0100
0000
0001
0100
0000
0000
,
0001
1000
0100
0000
1000
0000
0001
0100
,
0001
0000
0100
0010
0000
0100
0010
0000
,
0100
0010
0100
0000
0010
0000
0100
0000
,
0001
0000
1000
0000
0000
0000
0001
1000
,
0001
0000
1000
0000
0001
0100
0002
0000
,
0003
0000
1000
0000
0000
0001
2000
0000
,
3002
0000
1003
0001
,
0100
0001
0000
0000
0100
0000
0100
0000
,
0010
0010
1000
1001
,
0000
0000
1000
0000
0000
0001
1000
0000
,
0010
0100
0010
0000
0000
0000
0200
0000
,
0300
0001
0010
0000
0000
0000
0010
0001
,
0010
0001
0010
0000
0000
0000
0002
0000
,
0003
0000
1001
0000
0000
1000
0001
0000
,
0200
0000
0300
0010
,
0000
0001
1000
1000
,
0001
0011
0001
0220
,
0330
0010
2000
0000
3000
0200
0000
0300
,
0020
0000
0030
0001
,
2000
0000
0000
3000
0001
0000
0101
0000
,
0000
0100
0001
0000
1000
0000
0100
0000
,
0010
0000
0002
0000
0003
0020
0000
0030
,
0200
0000
0300
0010
,
0001
1001
2000
3020
,
0230
0302
1003
0002
,
0000
0003
0200
0000
0300
0002
0000
0003
,
2000
0000
3000
0001
,
0010
0100
0010
0001
,
0000
0200
0320
2030
,
3002
0000
0203
0000
0300
0010
0100
0000
,
0100
0010
0100
0010
,
0000
0000
0100
0000
0010
0100
0010
0000
,
0020
0000
0000
0130
,
0001
0100
0000
0001
,
0100
0010
0001
0010
,
0000
1000
0000
0001
,
0000
0000
0101
0000
0000
0001
0000
0000
,
0000
0001
0000
0000
1000
0001
1000
0000
,
0002
0000
0003
0001
,
0000
0010
0100
0100
,
2000
0000
3000
0001
,
0100
0010
0000
0100
,
0000
0110
0000
0100
,
0010
0100
0001
1000
,
0000
0001
0000
0100
,
0000
0000
0010
0000
0000
0010
0000
0000
,
0010
1000
0010
0001
,
0000
1000
0000
0001
,
0100
0010
0100
0000
0000
0000
0010
0100
,
0010
0000
0100
0000
0000
0010
0100
0000
,
0020
0000
0230
0000
,
0000
0000
0301
0000
0100
0000
0000
0001
,
0000
1000
0000
0000
0001
0000
1000
0001
,
1000
0000
0001
0000
0000
1000
0001
0000
,
0200
0000
0000
0310
,
0000
0100
0010
0000
0000
1000
0001
0000
,
0000
0000
1000
0000
0001
0000
0100
0001
,
0100
0000
0001
0000
0000
1001
0000
0000
,
1000
0000
0001
1000
,
0001
1000
0010
0001
,
0000
0010
0100
0001
,
1000
0000
0001
0000
0000
0001
0100
0000
,
0002
0000
0000
0000
0003
0000
0100
0010
,
0100
0010
0000
0100
,
0000
0010
0100
0000
0000
0000
0001
1000
,
0001
0000
1000
0000
0000
0001
0000
0000
,
0200
0000
0000
0300
;

//---------------dance-single - ----------------
#NOTEDATA:;
#CHARTNAME:;
#STEPSTYPE:dance-single;
#DESCRIPTION:;
#CHARTSTYLE:;
#DIFFICULTY:Hard;
#METER:14;
#RADARVALUES:0.569755,0.634364,0.366190,0.541324,0.119410,501.000000,455.000000,46.000000,68.000000,0.000000,0.000000,0.000000,0.000000,0.000000,0.569755,0.634364,0.366190,0.541324,0.119410,501.000000,455.000000,46.000000,68.000000,0.000000,0.000000,0.000000,0.000000,0.000000;
#CREDIT:;
#DISPLAYBPM:188.000000;
#NOTES:
// measure 0
0000
0000
0000
0000
0000
0000
0000
0000
1000
0001
1000
0001
1000
0000
0000
0000
,  // measure 1
0001
1000
0001
1000
0001
0000
0000
0000
0000
0000
0000
0000
0000
0000
0000
0000
,  // measure 2
0000
1000
0000
0001
0000
0100
0020
0000
,  // measure 3
0030
0200
0300
0001
,  // measure 4
1000
0000
0002
0000
0003
0200
0000
0300
,  // measure 5
0020
0030
0000
0100
,  // measure 6
0000
0000
0010
0000
0000
0000
1000
0000
0000
0000
0010
0100
0001
0100
0001
0000
,  // measure 7
0100
0000
0010
0010
0100
0000
0101
0000
,  // measure 8
1000
0010
0110
0000
0001
0010
0011
0000
,  // measure 9
1000
0001
0000
0000
0000
0000
0000
0000
0100
0000
0010
0000
0110
0000
0000
0000
,  // measure 10
0000
0010
1010
0000
0000
0100
0011
0000
,  // measure 11
0000
0001
1010
0000
0000
2000
3001
0000
,  // measure 12
0001
0000
1001
0000
1000
0010
1010
0000
,  // measure 13
0001
0100
0000
0000
0000
0000
0000
0000
0010
0000
0000
0000
0200
0000
0000
0000
,  // measure 14
0302
0000
2003
0000
3002
0003
0110
0000
,  // measure 15
2000
0000
0001
0000
3000
0000
0001
0010
,  // measure 16
0001
0000
0110
0000
0000
0110
0110
0000
,  // measure 17
0100
0001
0000
0000
0000
0000
0000
0000
0000
0000
0001
0000
1000
0000
0000
0000
,  // measure 18
1000
0000
0100
0000
0000
1000
1100
0100
,  // measure 19
0000
0010
0101
0001
0000
1000
0001
1000
,  // measure 20
0010
0000
0101
0000
0000
0100
0011
0000
,  // measure 21
1000
0001
0000
0000
0000
0000
0000
0000
1000
0000
0000
0000
0002
0000
0000
0003
,  // measure 22
0202
0000
0000
0303
0020
0000
0000
0030
2002
0000
0000
3003
2200
0000
0000
3300
,  // measure 23
0000
0000
0020
0000
0000
0000
0000
0030
0000
0000
0100
0000
0001
0000
0000
0000
,  // measure 24
0000
0000
0001
1000
0002
0000
0000
0000
0003
0000
1000
0100
0010
0000
0000
0000
,  // measure 25
0022
0000
0000
0000
0030
0000
0000
0003
0200
0000
0300
0000
0110
0000
0000
0000
,  // measure 26
0001
0100
0001
0000
1000
0020
0000
0030
,  // measure 27
0100
0000
0100
0000
0100
0000
0110
0100
,  // measure 28
0000
0001
0101
0101
0000
1000
0001
0100
,  // measure 29
0010
0000
1000
0000
0002
0000
0000
0003
0200
0000
0000
0300
0022
0000
0000
0000
,  // measure 30
0033
0000
0202
0000
0303
0000
0010
1000
,  // measure 31
0010
0100
1000
0100
0010
0000
0200
0000
,  // measure 32
0301
0000
0100
0000
0020
0000
0000
0000
0030
0000
0100
0001
0100
0000
0000
0000
,  // measure 33
0002
0000
0003
2000
3010
0100
0001
0000
,  // measure 34
0001
0000
2000
0000
0000
0000
3000
0000
0101
0000
0000
0100
0010
0000
0000
0000
,  // measure 35
0101
0000
0000
1000
0001
0000
0000
0000
0002
0000
0003
1000
0100
0000
0000
0010
,  // measure 36
0001
0000
0001
0010
0000
0001
0010
0100
,  // measure 37
1000
0001
0100
0000
0001
0100
0002
0000
,  // measure 38
1003
0100
0100
0010
0000
0000
0001
0010
,  // measure 39
0001
0000
0010
0000
0011
0000
0000
0000
2000
0000
3001
0100
0002
0000
0000
0000
,  // measure 40
0003
0000
0100
0000
0020
0000
0000
0000
0030
0000
0100
0010
0100
0000
0000
0000
,  // measure 41
0220
0000
0300
0000
0130
0000
0100
0001
,  // measure 42
0010
0000
0001
1000
0000
1000
0001
0000
,  // measure 43
1001
0000
0001
0000
0101
0000
0100
0010
,  // measure 44
1000
0000
0010
0000
0200
0000
0000
0000
0300
0000
0001
0010
0001
0000
0000
0000
,  // measure 45
2200
0000
0300
0000
3001
0000
1000
0001
,  // measure 46
0100
0000
0001
0000
0100
0000
0100
0010
,  // measure 47
0100
0010
0110
0000
0010
0000
0010
1000
,  // measure 48
0001
0000
0100
0000
0022
0000
0000
0000
0033
0000
0001
0010
0100
0000
0000
0000
,  // measure 49
2002
0000
0003
0000
3100
0000
0010
0001
,  // measure 50
1000
0100
1000
0000
0010
0100
0010
0000
,  // measure 51
0100
0001
0100
0000
0002
0003
0200
0310
,  // measure 52
0100
0000
0010
0000
2002
0000
0000
0000
3003
0000
0100
0001
0100
0000
0000
0000
,  // measure 53
0202
0300
1003
0020
,  // measure 54
0130
0010
0100
0000
0001
1000
0100
0001
,  // measure 55
0100
1000
0100
0000
0010
0000
0001
0010
,  // measure 56
0100
0000
0010
0000
0002
0000
0000
0000
0003
0000
1000
0001
1000
0000
0000
0000
,  // measure 57
0100
0000
0001
0000
0100
0010
0001
0000
,  // measure 58
0100
0010
1000
0000
0010
0000
0000
0000
0100
0000
0001
0000
0001
0000
0000
0000
,  // measure 59
2000
0010
3000
0001
,  // measure 60
0100
0001
0100
0000
0010
0000
1000
0000
,  // measure 61
0010
0000
0110
0000
0001
0000
0000
1000
,  // measure 62
0000
0100
0010
0000
0000
0010
0100
0000
,  // measure 63
0000
0000
0001
1000
0000
0001
0010
0100
,  // measure 64
0000
1000
0001
0000
1000
0100
0010
0000
,  // measure 65
0022
0000
0033
0000
0000
0100
0000
0000
,  // measure 66
0010
0000
0100
0000
0010
0000
0000
0000
1000
0000
0000
1000
0001
0000
0000
0000
,  // measure 67
2000
0000
0000
0000
0000
0000
3000
0000
0000
0000
0000
0001
0100
0000
0000
0000
,  // measure 68
0001
0000
0000
0000
1000
0000
0010
0000
0100
0000
0000
0001
0100
0000
0000
0000
,  // measure 69
0010
0000
1100
0000
1000
0000
0010
0100
,  // measure 70
0001
0000
0100
0000
0000
0100
0010
0000
,  // measure 71
0100
0000
0001
0000
0000
1000
0001
0100
,  // measure 72
0001
1000
1001
0000
0001
0100
0001
0000
,  // measure 73
2000
0000
0000
0000
0000
0000
0000
3000
0001
0000
0100
0000
0001
0000
0100
0000
,  // measure 74
0001
0000
0000
0000
1000
0000
0000
0000
0000
0000
0000
0010
0100
0000
0000
0000
,  // measure 75
0000
0000
0100
0000
0010
0000
0100
0001
,  // measure 76
1000
0100
0010
0000
0001
0010
0001
0000
,  // measure 77
2000
0000
0000
0000
3001
0000
0100
0010
,  // measure 78
0100
0000
0010
0100
0010
0000
1000
0001
,  // measure 79
1000
0000
0001
0000
0100
0000
0001
0010
,  // measure 80
0100
0000
1000
0000
1001
0000
0000
0000
0000
0000
0001
1000
0001
0000
0000
0000
,  // measure 81
1000
0000
0100
0000
0010
0000
0001
1000
,  // measure 82
0001
1000
0010
0000
0000
0100
0010
0100
,  // measure 83
0010
0100
0001
0000
0000
0000
1000
0001
,  // measure 84
0010
0100
1000
0000
0001
1000
0010
0000
,  // measure 85
0200
0000
0000
0000
0300
0000
0010
0100
,  // measure 86
0010
0100
0200
0000
0300
0000
0011
0000
,  // measure 87
0000
0000
1000
0000
0010
0000
0100
0001
,  // measure 88
0010
0001
0100
0000
0000
0001
0100
0000
,  // measure 89
0012
0000
0000
0000
0003
0000
0001
1000
,  // measure 90
0010
1000
0001
0000
1000
0000
1000
0100
,  // measure 91
0010
0001
0001
0000
0000
0000
1000
0001
,  // measure 92
0100
0000
0001
0000
1000
0000
0000
0000
0000
0000
0001
0010
0001
0000
0000
0000
,  // measure 93
0020
0000
0030
0010
;
