#VERSION:0.83;
#TITLE:Wonder Island;
#SUBTITLE:;
#ARTIST:T. Sakisaka with ME;
#TITLETRANSLIT:;
#SUBTITLETRANSLIT:;
#ARTISTTRANSLIT:;
#GENRE:;
#ORIGIN:;
#CREDIT:from pop n music 13;
#BANNER:T. Sakisaka with ME - Wonder Island.png;
#BACKGROUND:;
#PREVIEWVID:;
#JACKET:;
#CDIMAGE:;
#DISCIMAGE:;
#LYRICSPATH:;
#CDTITLE:;
#MUSIC:T. Sakisaka with ME - Wonder Island.mp3;
#OFFSET:-0.444000;
#SAMPLESTART:47.402000;
#SAMPLELENGTH:12.000000;
#SELECTABLE:YES;
#BPMS:0.000=141.011;
#STOPS:;
#DELAYS:;
#WARPS:;
#TIMESIGNATURES:0.000=4=4;
#TICKCOUNTS:0.000=4;
#COMBOS:0.000=1;
#SPEEDS:0.000=1.000=0.000=0;
#SCROLLS:0.000=1.000;
#FAKES:;
#LABELS:0.000=Song Start;
#BGCHANGES:;
#KEYSOUNDS:;
#ATTACKS:
;

//---------------dance-single - ----------------
#NOTEDATA:;
#CHARTNAME:;
#STEPSTYPE:dance-single;
#DESCRIPTION:;
#CHARTSTYLE:;
#DIFFICULTY:Beginner;
#METER:4;
#RADARVALUES:0.177451,0.199262,0.098065,0.141649,0.000000,114.000000,105.000000,9.000000,13.000000,0.000000,0.000000,0.000000,0.000000,0.000000,0.177451,0.199262,0.098065,0.141649,0.000000,114.000000,105.000000,9.000000,13.000000,0.000000,0.000000,0.000000,0.000000,0.000000;
#CREDIT:;
#NOTES:
// measure 0
0000
0000
0000
0100
,  // measure 1
0000
0000
0000
0100
,  // measure 2
0000
0000
0000
0100
,  // measure 3
0000
0000
0000
0010
,  // measure 4
0000
0100
0000
0001
,  // measure 5
0000
1000
0000
0010
,  // measure 6
0000
0100
0000
0001
,  // measure 7
0000
1000
0000
0010
,  // measure 8
0000
0100
0000
0001
,  // measure 9
0000
1000
0000
0010
,  // measure 10
0000
0100
0000
0110
,  // measure 11
0000
1001
0000
2000
,  // measure 12
0000
3001
0000
0002
,  // measure 13
0000
0103
0000
0020
,  // measure 14
0000
0130
0000
2000
,  // measure 15
0000
3010
0000
0210
,  // measure 16
0000
0310
0000
0020
,  // measure 17
0000
1030
0000
0002
,  // measure 18
0000
1003
0000
2001
,  // measure 19
0000
3001
0000
0001
,  // measure 20
0000
0100
0000
0101
,  // measure 21
0000
2000
3000
0001
,  // measure 22
0000
1000
0000
0001
,  // measure 23
0000
0100
0000
0110
,  // measure 24
0000
0010
0000
1001
,  // measure 25
0000
1000
0000
0001
,  // measure 26
0000
0001
0000
0100
,  // measure 27
0000
1000
0000
0002
,  // measure 28
0000
0000
0003
1000
,  // measure 29
0000
1000
0000
1000
,  // measure 30
0000
0100
0100
0100
,  // measure 31
0000
0200
0300
0020
,  // measure 32
0000
0000
0030
0001
,  // measure 33
0000
0100
0000
0010
,  // measure 34
0000
0010
0010
0010
,  // measure 35
0000
0010
0000
0010
,  // measure 36
0000
0101
0000
1000
,  // measure 37
0000
0010
0000
0100
,  // measure 38
0000
0001
0000
1000
,  // measure 39
0100
0010
0000
1010
,  // measure 40
0000
0100
0000
0001
,  // measure 41
0000
0001
0000
1000
,  // measure 42
0000
0100
0000
0010
,  // measure 43
0001
0010
0000
0001
,  // measure 44
0000
0001
0001
1000
,  // measure 45
0000
1000
0000
1000
,  // measure 46
0000
0100
0000
0010
,  // measure 47
0000
0001
0000
2000
,  // measure 48
0000
3001
0001
0100
,  // measure 49
0000
0010
0000
0100
,  // measure 50
0000
0001
0000
1000
,  // measure 51
0000
0001
0000
0100
,  // measure 52
0000
0100
0000
0000
;

//---------------dance-single - ----------------
#NOTEDATA:;
#CHARTNAME:;
#STEPSTYPE:dance-single;
#DESCRIPTION:;
#CHARTSTYLE:;
#DIFFICULTY:Easy;
#METER:8;
#RADARVALUES:0.409382,0.486238,0.424948,0.152545,0.038136,263.000000,224.000000,39.000000,14.000000,0.000000,0.000000,0.000000,0.000000,0.000000,0.409382,0.486238,0.424948,0.152545,0.038136,263.000000,224.000000,39.000000,14.000000,0.000000,0.000000,0.000000,0.000000,0.000000;
#CREDIT:;
#NOTES:
0000
0000
0000
0100
,
0010
0100
0010
0000
1000
0100
1000
0000
,
0001
0010
0002
0000
0003
0000
0100
0010
,
0100
0001
0100
0000
0010
0000
0110
0000
,
0110
1001
1001
1000
,
0100
0010
0001
1001
,
1001
0110
0110
0001
,
0010
0100
1000
0010
,
0110
0100
0110
0001
,
1000
0001
1000
0010
,
0110
0100
0110
0001
,
0010
0100
1000
0002
,
0000
0103
0010
2000
,
0000
3100
0010
0002
,
0000
1003
0010
0200
,
0000
0310
0010
1000
,
0001
0010
0010
0001
,
1000
0010
0100
0020
,
0100
0000
0130
0000
0010
0100
0020
0000
,
0000
0130
0000
1001
,
0100
0101
0001
1001
,
1000
0100
0010
0000
0000
0000
0011
0000
,
0001
0110
1000
1100
,
0100
0010
0001
0000
0000
0000
0110
0000
,
0100
0000
0010
0100
0010
0000
1001
0000
,
0001
0010
0100
0000
0000
0000
1100
0000
,
1000
1010
0100
0010
,
0100
0010
0100
0000
0000
0000
0002
0000
,
0013
0000
0001
0010
0001
0000
2000
0000
,
3100
0000
1000
0100
1000
0000
0002
0000
,
0003
0000
0010
0000
0100
0010
0001
0000
,
0001
0000
0100
0010
0100
0000
0020
0000
,
1030
0000
0010
1000
0010
0000
0200
0000
,
0301
0000
0100
0001
0100
0000
0010
0000
,
0010
0100
0100
0010
,
0100
0000
0010
0100
0010
0000
0110
0000
,
0000
0100
0001
0000
0000
0000
1000
0001
,
1000
0001
1000
0000
0000
0001
0100
0000
,
0000
0100
0001
0000
0000
0000
0100
0000
,
0100
0000
0110
0000
0000
0010
0100
0000
,
0000
0100
0010
0000
0000
0000
1000
0100
,
1000
0100
1000
0000
0000
0010
0001
0000
,
0000
0001
0010
0000
0000
0000
0001
0010
,
0001
0000
0010
0000
0001
0000
0000
0000
1000
0000
0000
0000
0001
0000
0000
0100
,
0000
0000
0100
0000
0001
0000
0000
0000
0100
0000
0001
0000
1000
0000
0000
0010
,
0000
0000
0010
0000
1000
0000
0000
0000
0010
0000
1000
0000
0001
0000
0000
0100
,
0000
0200
0320
0130
,
0110
0000
0000
0000
0110
0000
0000
0000
1001
0000
0000
0000
1001
0000
0000
1001
,
0000
0000
0000
0000
0001
0000
1000
0000
0001
0000
0000
0000
0110
0000
0000
0110
,
0000
0000
0000
0000
0100
0000
0010
0000
0100
0000
0000
0000
1001
0000
0000
1001
,
0000
0000
0000
0000
1000
0000
0001
0000
1000
0000
0000
0000
0110
0000
0000
0110
,
0000
0000
0010
0100
0010
0000
0110
0000
,
0110
0101
0101
0000
;

//---------------dance-single - ----------------
#NOTEDATA:;
#CHARTNAME:;
#STEPSTYPE:dance-single;
#DESCRIPTION:;
#CHARTSTYLE:;
#DIFFICULTY:Medium;
#METER:10;
#RADARVALUES:0.474758,0.486238,0.370467,0.163441,0.059929,305.000000,271.000000,34.000000,15.000000,0.000000,0.000000,0.000000,0.000000,0.000000,0.474758,0.486238,0.370467,0.163441,0.059929,305.000000,271.000000,34.000000,15.000000,0.000000,0.000000,0.000000,0.000000,0.000000;
#CREDIT:;
#NOTES:
0000
0000
0000
0101
,
0100
0001
0100
0110
,
0010
0000
0100
0000
0010
0010
0100
0000
,
0001
0000
1000
0000
0001
0010
0010
0000
,
0110
0100
0110
0001
,
1000
0000
1001
0000
0001
0000
0010
0100
,
0010
0100
1000
0000
0001
0000
1001
0000
,
1000
0000
0100
0010
0100
0010
0001
0000
,
1000
0000
0100
0010
0100
0000
0001
0000
,
0010
0000
0100
0010
0100
0000
1000
0000
,
0001
0000
0100
0010
0100
0000
0010
0000
,
0010
0000
0100
0010
0010
0000
0010
0100
,
0100
0000
0001
0000
0000
0000
1000
0001
,
0000
0001
0200
0000
0301
0000
2000
0000
,
0000
3020
1030
2000
,
3010
0010
0100
0210
,
0001
0301
1000
0120
,
1000
1030
0001
0210
,
0001
0000
0301
0000
1000
0010
0200
0000
,
0300
0202
0303
0001
,
0010
0100
1000
0100
0010
0000
0011
0000
,
0001
0010
0001
0000
1000
0100
1000
0000
,
0001
0010
1000
0010
0001
0000
1001
0000
,
1000
0100
0010
0000
0100
0010
0001
0000
,
1000
0100
0001
0100
1000
0000
1010
0000
,
0100
0010
1000
0000
0100
0010
1000
0000
,
0001
0010
0100
0010
0001
0000
0100
0000
,
0010
0100
0001
0000
0010
0100
0001
0000
,
1000
0000
0100
0000
0010
0000
0100
0000
0010
0000
0000
0000
0001
0000
0000
1000
,
0000
0000
0010
0000
0100
0000
0010
0000
0100
0000
0010
0000
1000
0000
0000
0100
,
0000
0010
0100
0010
0100
0010
0002
0000
,
1003
0000
0000
0000
0110
0000
0000
0000
0100
0000
0010
0000
0100
0000
0000
0001
,
0000
0000
1000
0000
1000
0000
0100
0000
0010
0000
0100
0000
0010
0000
0000
0001
,
0000
0001
0001
0010
0100
0010
0100
0000
,
1000
0000
0100
0010
0100
0010
0001
0000
,
1100
0000
0020
0030
0200
0300
0010
0000
,
0000
0110
0110
0000
0000
0000
1000
0000
,
0100
0010
1000
0000
0000
0010
0100
0000
,
0000
0011
0011
0000
0000
0000
1001
0000
,
0100
0010
1000
0000
0010
0100
0001
0000
,
0000
0110
0220
0000
0330
0000
0001
0000
,
1000
0001
1001
0000
0000
0001
1000
0000
,
0000
0101
0101
0000
0000
0010
1010
0000
,
0001
0000
0100
0000
0101
0000
0000
0000
0000
0000
0000
0000
1001
0000
0000
1000
,
0000
0000
0010
0000
0100
0000
0100
0000
0001
0000
0000
0000
1001
0000
0000
0001
,
0000
0000
0100
0000
0010
0000
0010
0000
1000
0000
0000
0000
1000
0000
0100
1000
,
0000
0010
0100
0010
0100
1000
0001
0000
,
0011
0000
0000
0000
0110
0000
0000
0000
1100
0000
0000
0000
1001
0000
0000
0001
,
0000
0000
0100
0000
0010
0000
0100
0000
0001
0000
0000
0000
0110
0000
0000
1000
,
0000
0000
0010
0000
0100
0000
0010
0000
1000
0000
0000
0000
0001
0000
0010
0001
,
0000
0000
0100
0000
0010
0000
0100
0000
0010
0000
0001
0000
1000
0000
0000
0100
,
0000
0000
0001
0010
0001
0000
0100
0010
,
0100
0010
0100
0010
0100
0000
0000
0000
;

//---------------dance-single - ----------------
#NOTEDATA:;
#CHARTNAME:;
#STEPSTYPE:dance-single;
#DESCRIPTION:;
#CHARTSTYLE:;
#DIFFICULTY:Hard;
#METER:14;
#RADARVALUES:0.764283,0.744544,0.359571,0.119857,0.501220,491.000000,458.000000,33.000000,11.000000,0.000000,0.000000,0.000000,0.000000,0.000000,0.764283,0.744544,0.359571,0.119857,0.501220,491.000000,458.000000,33.000000,11.000000,0.000000,0.000000,0.000000,0.000000,0.000000;
#CREDIT:;
#NOTES:
0000
0000
0000
0000
0000
0000
0000
0000
0000
0000
0000
0000
1010
0000
0100
1000
,
0100
0000
1000
0000
0001
0000
0010
0001
0010
0000
0100
0010
0100
0000
0010
0000
,
0001
0000
1000
0000
1010
0000
0100
0010
0100
0000
0010
0000
0010
0000
0100
0010
,
1000
0001
0100
0010
0100
0000
0010
0100
0001
1000
0001
0000
0100
0000
0000
0000
,
0010
0000
0000
0000
0100
0010
0100
0000
0010
0100
0010
0000
1000
0000
0001
0000
,
1000
0000
0000
0000
0001
0000
0100
0001
0100
0000
0010
0000
0110
0000
0000
0000
,
1000
0000
0000
0000
0001
0000
0010
0001
0010
0000
0001
0010
0001
0000
0000
0000
,
1000
0000
0100
0000
0010
0000
0001
1000
0001
0000
1000
0000
0001
0000
0010
0001
,
0010
0000
0001
0000
0010
0100
0010
0100
1000
0000
0100
1000
0100
0000
1000
0000
,
0100
0000
0010
0000
0001
0000
0010
0100
0010
0000
0100
0000
1000
0000
0000
0000
,
1001
0001
1000
0000
1000
0001
1001
0000
,
0100
0010
0100
0010
0100
0000
0010
0100
0010
0100
0010
0000
0200
0000
0000
0000
,
0001
0000
0301
0010
0100
1000
1100
0000
,
0100
0110
0001
0000
0001
1000
0010
0100
,
0010
0000
1000
0000
1100
0000
0000
0000
0010
0000
0001
0000
0100
0000
0010
0100
,
0000
0001
0010
0100
1000
0100
0010
0000
0001
0000
1000
0000
0002
0000
0000
0000
,
0100
0100
1003
0000
0100
0010
0001
0000
,
1000
0000
0100
0010
0100
0000
0010
0000
0100
0000
0100
0000
0110
0000
0000
0000
,
1000
0000
0001
0000
0101
0000
0001
0000
0100
0000
0010
0000
0100
0000
0010
0100
,
0010
0100
0010
0000
0100
0010
0100
0010
0100
0000
0001
0000
1001
0000
0000
0000
,
1000
0100
1100
0000
0010
0001
0011
0000
,
1000
0001
0200
0300
0010
0000
0101
0000
,
0010
0000
1000
0000
1000
0000
0000
0000
0001
0000
0001
0000
0101
0000
0000
0100
,
0010
0000
1000
0000
0002
0000
0003
0000
1000
0000
0000
0000
0110
0000
0000
0100
,
0010
0000
0100
0000
0010
0000
0100
0010
0100
0000
0001
0100
0001
0000
0000
0000
,
1100
0010
0001
0000
1000
0000
1001
0000
,
0001
0000
1000
0000
0001
0000
1000
0001
1000
0000
0001
0000
0100
0000
0010
0100
,
0000
0010
0100
0000
0010
0100
0001
0010
0100
0000
1000
0000
1100
0000
0100
1000
,
0100
0000
1000
0000
0100
0000
0010
0000
0001
1000
0001
0000
2000
0000
3100
1000
,
0100
0000
0010
0000
0001
0000
1000
0100
0010
0000
0100
0000
0020
0000
0000
0000
,
0031
0001
1000
1000
0010
0100
0110
0010
,
0100
0000
0010
0100
0010
0000
0100
0001
0100
0000
0010
0000
0100
0000
0001
0010
,
0001
0000
0001
0000
0010
0000
0100
0000
1000
0000
0001
1000
0001
0000
1000
0100
,
1000
0000
0010
0000
0100
0000
0001
0010
0000
0001
0010
0000
0002
0000
1000
0000
,
1003
0000
0010
0100
0010
0000
0100
0000
0010
0000
1000
0001
1000
0000
0001
1000
,
0001
0000
1000
0001
1000
0001
1000
0000
0001
0010
0001
0000
0101
0000
0000
0000
,
0100
0000
0010
0000
0110
0000
0100
0010
0100
0000
0010
0100
0010
0000
1000
0000
,
0001
0000
0000
0000
1001
0000
1000
0001
1000
0000
0010
0000
0100
0000
0001
0000
,
0100
0000
0101
0000
0101
0000
0000
0000
0001
0000
1000
0001
0100
0000
0000
0000
,
0010
0000
1000
0000
1010
0000
0010
0100
0010
0000
0100
0000
0001
0010
0100
0000
,
1000
0010
0100
0000
0120
0000
0000
0000
0130
0000
0010
1000
0001
0000
1000
0001
,
0010
0001
0011
0000
0010
0100
0001
0000
,
1000
0000
0010
0000
0210
0000
0000
0000
0310
0000
0010
1000
0001
0000
0100
0010
,
0100
0010
0100
0000
0010
1000
0010
1000
0010
0000
1000
0000
1001
0000
1000
0001
,
1000
0000
0010
0000
0100
0001
0010
0000
0001
0100
0001
0000
1000
0000
0001
1000
,
0001
0000
0100
0000
0001
0010
0100
0000
0010
0001
0100
0000
0210
0000
0000
0000
,
0310
0000
0100
0000
0001
0000
1000
0000
0001
0000
1000
0000
1000
0100
1000
0000
,
0010
0100
0010
0000
0001
0010
0001
0000
0010
0000
0000
0000
0101
0000
0001
0100
,
0001
0000
0010
0000
0100
1000
0100
0000
0010
0000
0001
0000
0011
0000
0001
0010
,
0001
0000
1000
0000
0010
0000
0100
0010
0100
0000
0001
1000
0002
0000
0000
0000
,
1003
0100
0010
0100
1000
0100
0001
0100
,
1000
0000
0010
0000
0100
0010
0100
0000
0100
0000
0000
0000
0010
0100
0010
0000
,
1000
0100
1000
0000
0001
0010
0001
0000
0100
0010
0000
0000
0000
0000
0000
0000
;
