#TITLE:What You Are;
#SUBTITLE:;
#ARTIST:The Citrus Clouds;
#TITLETRANSLIT:;
#SUBTITLETRANSLIT:;
#ARTISTTRANSLIT:;
#GENRE:;
#CREDIT:;
#BANNER:;
#BACKGROUND:;
#LYRICSPATH:;
#CDTITLE:;
#MUSIC:The Citrus Clouds - What You Are.ogg;
#OFFSET:-0.223000;
#SAMPLESTART:100.199997;
#SAMPLELENGTH:25.200001;
#SELECTABLE:YES;
#BPMS:0.000000=192.000000
;
#STOPS:
;
#BGCHANGES:;
#KEYSOUNDS:;
#ATTACKS:;

//---------------dance-single - ----------------
#NOTES:
     dance-single:
     :
     Beginner:
     3:
     0.143696,0.234262,0.112499,0.224997,0.000000,152.000000,135.000000,17.000000,34.000000,0.000000,0.000000,0.143696,0.234262,0.112499,0.224997,0.000000,152.000000,135.000000,17.000000,34.000000,0.000000,0.000000:
0000
0000
0000
0000
,
0000
0000
0000
0000
,
0000
0000
0000
0000
,
0000
0000
0000
0000
,
1000
0000
0000
0000
,
0010
0000
0000
0000
,
0100
0000
0000
0000
,
0010
0000
0100
0000
,
0020
0000
0000
0030
,
0200
0000
0000
0300
,
0002
0000
0000
0003
,
2000
0000
0000
3000
,
0020
0000
0000
0030
,
0200
0000
0000
0300
,
0020
0000
0000
0030
,
0100
0000
0100
0000
,
0002
0000
0000
0000
,
1000
0000
0000
0000
,
2003
0000
0000
0000
,
0001
0000
0000
0000
,
3002
0000
0000
0000
,
0000
0000
0000
0000
,
0023
0000
0000
0000
,
0000
0000
0000
0030
,
0001
0000
0100
0000
,
0010
0000
0100
0000
,
0100
0000
0010
0000
,
0000
0000
0000
0000
,
0010
0000
0100
0000
,
0010
0000
0100
0000
,
0010
0000
0000
0000
,
0000
0000
0100
0000
,
0002
0000
0000
0003
,
1000
0000
0000
0000
,
2000
0000
0000
3000
,
0010
0000
0000
0000
,
0100
0000
0000
0000
,
0100
0000
0000
0000
,
0100
0000
0000
0000
,
0000
0000
0000
0000
,
1001
0000
0000
0000
,
0001
0000
0100
0000
,
0010
0000
0000
0000
,
1100
0000
0000
0000
,
0110
0000
0000
0000
,
0010
0000
0000
0000
,
0100
0000
0100
0000
,
0010
0000
0000
0000
,
0110
0000
0000
0000
,
0001
0000
0000
0000
,
1000
0000
1000
0000
,
1000
0000
0000
0000
,
0100
0000
0100
0000
,
0100
0000
0000
0000
,
0200
0000
0000
0000
,
0301
0000
0001
0000
,
0020
0000
0030
0000
,
0200
0000
0300
0000
,
0020
0000
0030
0000
,
1000
0000
0001
0000
,
2000
0000
0000
3000
,
0001
0000
0010
0000
,
0010
0000
0010
0000
,
0010
0000
0000
0000
,
0210
0000
0000
0000
,
0310
0000
0000
0000
,
0020
0000
0000
0000
,
0130
0000
0000
0000
,
1001
0000
0000
0000
,
1100
0000
0000
0000
,
0011
0000
0000
0000
,
0110
0000
0000
0000
,
0002
0000
0003
0000
,
2000
0000
3000
0000
,
0200
0000
0300
0000
,
0010
0000
0010
0000
,
0200
0000
0000
0000
,
0300
0000
0000
0000
,
0010
0000
0000
0000
,
0100
0000
0000
0000
,
1001
0000
0000
0000
,
0010
0000
0100
0000
,
0010
0000
0100
0000
,
0020
0000
0000
0000
,
0130
0000
0000
0000
,
1000
0000
0001
0000
,
1000
0000
0000
0000
,
0011
0000
0000
0000
,
2001
0000
0000
0000
,
3001
0000
0001
0000
,
0001
0000
1000
0000
,
2000
0000
3000
0000
,
0110
0000
0000
0000
,
0010
0000
0010
0000
,
1000
0000
1000
0000
,
1000
0000
0000
0000
,
0110
0000
0000
0000
,
0100
0000
0100
0000
,
0001
0000
0001
0000
,
0001
0000
0000
0000
,
0110
0000
0000
0000
,
0010
0000
0010
0000
,
0100
0000
0100
0000
,
0100
0000
0000
0000
,
1001
0000
0000
0000
,
1000
0000
1000
0000
,
1000
0000
1000
0000
,
0010
0000
0000
0000
,
0200
0000
0000
0300
,
0020
0000
0000
0030
,
0200
0000
0000
0300
,
0002
0000
0000
0003
,
2000
0000
0000
0000
,
0000
0000
0000
0000
,
3000
0000
0000
0000
,
0020
0000
0030
0000
,
1002
0000
0000
0000
,
0000
0000
0000
0000
,
0003
0000
0000
0000
;

//---------------dance-single - ----------------
#NOTES:
     dance-single:
     :
     Easy:
     4:
     0.160712,0.273305,0.119116,0.284555,0.000000,170.000000,152.000000,18.000000,43.000000,0.000000,0.000000,0.160712,0.273305,0.119116,0.284555,0.000000,170.000000,152.000000,18.000000,43.000000,0.000000,0.000000:
0000
0000
0000
0000
,
0000
0000
0000
0000
,
0000
0000
0000
0000
,
0000
0000
0000
0000
,
0000
0000
0000
0000
,
0000
0000
0000
0000
,
0000
0000
0000
0000
,
0000
0000
0000
0000
,
1000
0000
0010
0000
,
0100
0000
0010
0000
,
0001
0000
1000
0000
,
0002
0000
0000
0000
,
1003
0000
0010
0000
,
0010
0000
0100
0000
,
0100
0000
0010
0000
,
0220
0000
0030
0000
,
0301
0000
0001
0000
,
1000
0000
0000
0000
,
0010
0000
0000
0000
,
0200
0000
0000
0000
,
0320
0000
0000
0000
,
0230
0000
0000
0000
,
0320
0000
0000
0000
,
0230
0000
0000
0000
,
0320
0000
0000
0030
,
0200
0000
0000
0300
,
0002
0000
0000
0003
,
2000
0000
0000
3000
,
0002
0000
0003
0000
,
1001
0000
0000
0000
,
0100
0000
0010
0000
,
1001
0000
0000
0000
,
1001
0000
0000
0000
,
0010
0000
0000
0000
,
1000
0000
0010
0000
,
0100
0000
0010
0000
,
0100
0000
0000
0000
,
0100
0000
0000
0000
,
0100
0000
0000
0000
,
0000
0000
0000
0000
,
1001
0000
0010
0000
,
0010
0000
0010
0000
,
1100
0000
0100
0000
,
0200
0000
0000
0300
,
1001
0000
0001
0000
,
0001
0000
0110
0000
,
0010
0000
0010
0000
,
0020
0000
0000
0030
,
0100
0000
0100
0000
,
0010
0000
0010
0000
,
1000
0000
1000
0000
,
2000
0000
0000
0000
,
3001
0000
0100
0000
,
0100
0000
0100
0000
,
0001
0000
1000
0000
,
2000
0000
0000
3000
,
0010
0000
0100
0000
,
0010
0000
0100
0000
,
0010
0000
0100
0000
,
0002
0000
0000
0000
,
1000
0000
0000
0000
,
1003
0000
0000
0000
,
0002
0000
0003
0000
,
2000
0000
3000
0000
,
0010
0000
0000
0000
,
0010
0000
0000
0000
,
0100
0000
0000
0000
,
2002
0000
3003
0000
,
0010
0000
0000
0000
,
0010
0000
0000
0000
,
0100
0000
0100
0000
,
0010
0000
0000
0000
,
0100
0000
0020
0000
,
0030
0000
0002
0000
,
0003
0000
2000
0000
,
3000
0000
0002
0000
,
1003
0000
1000
0000
,
0001
0000
0001
0000
,
1000
0000
1000
0000
,
0100
0000
0000
0000
,
0110
0000
0110
0000
,
0110
0000
0000
0000
,
0100
0000
0200
0000
,
0302
0000
0000
0000
,
1003
0000
0010
0000
,
0010
0000
1000
0000
,
0010
0000
0100
0000
,
0002
0000
0003
0000
,
0101
0000
0101
0000
,
0101
0000
0000
0000
,
0100
0000
0001
0000
,
0002
0000
0003
0000
,
1000
0000
0000
0000
,
0010
0000
0010
0000
,
0010
0000
0100
0000
,
0200
0000
0300
0000
,
0020
0030
0000
0000
,
0020
0030
0000
0000
,
2000
3000
0002
0003
,
0200
0000
0000
0000
,
0310
0000
0010
0000
,
0010
0000
1000
0000
,
1000
0000
0001
0000
,
0002
0000
0003
0000
,
1001
0000
0000
0000
,
2000
3000
0002
0003
,
0200
0300
0000
0000
,
0102
0000
0000
0000
,
0103
0000
0000
0000
,
0100
0000
0100
0000
,
0100
0000
0000
0000
,
0010
0000
0010
0000
,
0120
0000
0000
0000
,
0000
0000
0000
0000
,
0030
0000
0000
0000
,
0100
0000
0000
0000
,
0200
0000
0000
0000
,
0000
0000
0000
0000
,
0300
0000
0000
0000
;

//---------------dance-single - ----------------
#NOTES:
     dance-single:
     :
     Medium:
     8:
     0.300626,0.468524,0.125734,0.218380,0.000000,318.000000,299.000000,19.000000,33.000000,0.000000,0.000000,0.300626,0.468524,0.125734,0.218380,0.000000,318.000000,299.000000,19.000000,33.000000,0.000000,0.000000:
0000
0000
0000
0000
,
0000
0000
0000
0000
,
0000
0000
0000
0000
,
0000
0000
0000
0000
,
2200
0000
0000
0000
,
3300
0000
0000
0000
,
0022
0000
0000
0000
,
0033
0000
0000
0000
,
1000
0000
0001
0000
,
0200
0000
0300
0000
,
0001
0000
1000
0000
,
0002
0000
0003
0000
,
1000
0000
0001
0000
,
2000
0000
3000
0000
,
0001
0010
0001
0010
,
0001
0000
0000
0000
,
2000
0000
0000
0000
,
3001
0000
0000
0000
,
0002
0000
0000
0000
,
1003
0000
0000
0000
,
0220
0000
0000
0000
,
0330
0000
0000
0000
,
0001
0000
0000
0000
,
1000
0000
0000
0000
,
0001
0000
0000
0000
,
0100
0000
0000
0000
,
0010
0000
0000
0000
,
1000
0000
0001
0000
,
0100
0000
0100
0000
,
0001
0000
1000
0000
,
0001
0000
0100
0000
,
0010
0000
1000
0000
,
0002
0000
0000
0000
,
1003
0000
0100
0000
,
1000
0000
0001
0000
,
0100
0000
0010
0000
,
2000
0000
3000
0000
,
0200
0000
0300
0000
,
0200
0000
0300
0000
,
0020
0000
0030
0000
,
1001
0000
0100
0010
,
1000
0001
0100
0001
,
1000
0000
0001
0100
0001
0000
1000
0000
,
0001
0100
0010
0000
,
0010
1000
0001
0100
,
0001
0000
1000
0100
1000
0000
0001
0000
,
0010
0100
0010
0001
,
1000
0000
0001
0100
0001
0000
1000
0000
,
0002
0000
0103
0000
,
2000
0000
3010
0000
,
0201
0000
0301
0000
,
1020
0000
1030
0000
,
0001
1000
0100
0010
,
0100
1000
0001
0010
,
0100
0010
0001
1000
,
0100
0100
0100
0010
,
0002
0000
1003
0010
,
0100
0000
0001
0100
0001
0000
1000
0000
,
0010
0000
1000
0100
1000
0000
0001
0000
,
0100
0010
1000
0001
,
0200
0000
0000
0000
,
0310
0100
0010
1000
,
0001
0100
0010
1000
,
0001
0100
0010
0010
,
0010
0000
2000
0000
,
3001
0100
0001
0000
,
0001
0100
0010
1000
,
0001
0000
0001
1000
,
0100
0010
0001
0000
,
0001
0010
0100
1000
,
0100
0000
0100
0010
,
0001
1000
0001
0000
,
0100
0100
0100
0100
,
0001
0001
0001
0001
,
1000
1000
1000
1000
,
0001
0100
0001
1000
,
0001
0000
0100
0000
,
0010
0000
1000
0000
,
0001
0000
0220
0000
,
0000
0000
0330
0000
,
1001
1000
0001
0100
,
0010
0000
1000
0100
0010
0000
0001
0000
,
0100
0000
0001
0100
0010
0000
1000
0000
,
0001
0000
1000
0100
1000
0000
0001
0000
,
0100
0000
0001
0100
0001
0000
1000
0000
,
0100
0000
1000
0001
1000
0000
0001
0000
,
0100
0000
0001
1000
0001
0000
0100
0000
,
0010
0000
0100
0010
0100
0000
0010
0000
,
1000
0000
0001
0010
0001
0000
1000
0000
,
0001
0000
1000
0010
1000
0000
0001
0000
,
0100
0000
0001
0010
0001
0000
0100
0000
,
0010
0000
1000
0010
1000
0000
0001
0000
,
0100
0000
1001
0000
,
0011
0000
1100
0000
,
0011
0000
1000
0100
,
0010
0001
1000
0100
,
0020
0001
0031
1000
,
1000
0000
0001
0100
0001
0000
0010
0000
,
0010
0000
0001
0100
0001
0000
1000
0000
,
1000
0000
0010
0100
0001
0000
1000
0000
,
1000
0000
0001
0100
0001
0000
0100
0000
,
0100
0000
0010
1000
0001
0000
1000
0000
,
1001
0000
0101
0000
,
1010
0000
0101
0000
,
0001
0000
0100
0000
,
0110
0000
1000
0000
,
0011
0000
1000
0000
,
0001
0000
1001
0000
,
0200
0000
0000
0000
,
0320
0000
0000
0000
,
2030
0000
0000
0000
,
3002
0000
0000
0000
,
0203
0000
0000
0000
,
0000
0000
0000
0000
,
0300
0000
0000
0000
,
0020
0000
0000
0000
,
0230
0000
0000
0000
,
0000
0000
0000
0000
,
0300
0000
0000
0000
;

//---------------dance-single - ----------------
#NOTES:
     dance-single:
     :
     Hard:
     12:
     0.453776,0.663742,0.251467,0.344113,0.188601,480.000000,442.000000,38.000000,52.000000,0.000000,0.000000,0.453776,0.663742,0.251467,0.344113,0.188601,480.000000,442.000000,38.000000,52.000000,0.000000,0.000000:
0000
0000
0000
0000
,
0000
0000
0000
0000
,
0000
0000
0000
0000
,
0000
0000
0000
0000
,
2200
0000
0000
0000
,
0000
0000
0000
0000
,
0000
0000
3300
0000
,
0000
0000
0000
0000
0010
0000
0000
0100
0000
0000
0000
0010
0000
0100
0000
0000
,
0020
0000
2030
0000
,
3001
0100
0002
0000
,
1003
1000
0001
0001
,
0100
0010
0100
0000
,
0010
0100
0001
1000
,
0001
0100
0110
0000
,
0010
0100
0001
0100
,
0002
0000
0000
0000
0003
0000
0000
0000
2002
0000
0000
0000
3003
0000
0000
0010
,
0000
0000
0000
0100
0000
0000
0000
0010
0000
0000
0000
0100
0000
0010
0000
0000
,
0000
0100
0000
0001
0000
0000
0000
0101
0000
0000
0000
0001
0000
0000
0000
1000
,
0000
0010
0000
0100
0000
0010
0000
1000
0000
0000
0000
0100
0000
1000
0000
0000
,
0000
0100
0000
0010
0000
0000
0000
0100
0000
0000
0000
0000
0000
0000
0000
0001
,
0000
0000
0000
0100
0000
0000
0000
0010
0000
0000
0000
0010
0000
0100
0000
0000
,
0000
0001
0000
1000
0000
0000
0000
1100
0000
0000
0000
0001
0000
0100
0000
0000
,
0000
0001
0000
0010
0000
0000
0000
0011
0000
0000
0000
0100
0000
0010
0000
0000
,
0000
1000
0000
0001
0000
0000
0000
0100
0000
0000
0000
0000
0000
0000
0000
0000
,
0010
0000
0101
0000
,
0002
2003
3020
0000
,
0030
0000
0100
0000
,
0100
0000
0010
0000
0200
0000
0000
0302
,
0000
0000
0003
0000
,
1100
0000
0000
0000
,
0011
0000
0200
0320
,
0230
0310
2002
0003
,
3001
0000
0000
0001
0000
0000
0000
0000
,
0100
0000
0000
0100
0000
0000
0000
0000
,
0010
0000
0000
0000
0000
0000
0000
1000
0000
0000
0000
0010
0000
0000
0000
0100
,
0000
0000
0000
0010
0000
0000
0000
0100
0000
0000
0000
0000
0000
0000
0000
0000
,
0210
0000
0300
0000
,
0210
0000
0300
0000
,
0200
0000
0300
0000
,
0000
0000
0000
0000
,
1000
0000
0001
0010
0100
0000
0011
0000
,
0100
0000
0010
0100
0010
0000
1000
0000
,
1010
0000
0100
0001
0010
0000
0001
0000
,
0011
2000
0000
3001
,
0001
0000
0100
0000
0010
0000
0100
0010
,
0000
0010
0100
0000
1001
0000
1000
0010
,
1000
0000
0001
0010
0001
0000
0101
0000
,
0011
0000
1000
0100
0010
0000
0001
0010
,
0100
0000
1000
0001
0100
0000
0010
0000
,
1001
0000
0001
0100
0010
0000
1000
0000
,
1100
0000
0001
0010
0001
0000
2020
0000
,
3030
0202
0303
0220
,
0000
0330
0101
1001
,
1001
0000
1000
0100
0010
0000
0002
0000
,
1003
0000
1000
0010
0100
0000
0001
0000
,
0001
1000
2000
3000
,
0020
0000
0030
0100
,
0001
0000
0100
0010
1000
0000
0001
0000
,
0101
0000
0100
0001
0001
0000
0000
1000
,
0010
0000
0000
0100
0001
0000
0000
0200
,
0000
0000
0310
0100
0010
0100
0010
0000
,
1000
0000
0001
1000
0001
0100
0001
0000
,
1000
0000
0010
1000
0100
0001
0100
0000
,
1000
0000
0001
0010
0100
0000
1000
0010
,
0200
0000
0000
0000
0000
0000
0000
0300
0020
0000
0000
0000
0130
0000
0000
0000
,
0000
1000
0000
0000
,
2002
0000
0000
3003
,
0200
0000
0000
0000
,
0002
0000
0000
0300
,
2000
0000
0000
3003
,
0001
0000
0010
0000
0100
0000
0010
0000
0000
0001
0000
0000
,
1000
0000
0001
0000
0100
0000
0010
0000
0000
1000
0000
0000
,
1000
0000
0001
0000
1000
0000
0001
0000
0000
1000
0000
0000
,
0010
0000
0100
0000
0001
0000
1000
0000
0000
0010
0000
0000
,
0010
0000
0100
0000
0100
0000
0001
0000
0000
1000
0000
0000
,
1000
0000
0010
0000
1000
0000
0001
0000
0000
0000
0000
0000
,
2002
0000
0000
0000
,
0000
0000
0000
0000
,
0000
3003
0000
0000
0000
0000
0000
0000
0021
0000
0000
0000
0000
0000
0000
0000
,
0230
0000
0310
0000
,
1010
0000
0001
0100
0001
0000
1000
0100
,
1000
0000
0001
0010
0001
0000
0100
0010
,
0100
0000
0001
0010
0100
0000
1000
0010
,
0100
0000
0001
0010
0001
0000
1000
0010
,
0200
0000
0301
0010
0100
0000
0100
0010
,
0001
0000
0001
0010
0100
0000
1000
0100
,
1000
0000
0010
0100
0010
0000
0100
0001
,
0010
0000
0001
1000
0001
0000
0100
0000
,
0110
0000
0001
0000
1010
0000
0001
0100
,
0010
0000
1000
0000
0101
0000
0001
0010
,
0001
0000
0001
0000
1001
0000
0100
0010
,
0100
0000
0001
0000
0011
0000
0100
0010
,
0002
0000
1003
0001
0100
0000
0010
0100
,
0010
0000
0100
0010
1000
0000
0001
0010
,
0001
0000
1000
0010
0100
0000
0001
1000
,
0001
0000
1000
0010
0100
0001
1000
0100
,
0010
0001
1000
0001
1000
0000
0010
0100
,
0010
0000
0010
0100
0010
0000
1000
0100
,
1000
0000
1000
0100
1000
0000
0001
0010
,
0001
0000
0001
0010
0001
0000
0001
0010
,
0100
0000
1000
0100
0010
0000
0001
0010
,
0100
0000
1000
0100
0010
0000
0001
0100
,
0010
0000
1000
0010
0100
0000
0001
0010
,
0100
0000
0010
0001
0100
0000
0001
0100
,
0010
0000
1000
0010
0100
0000
0001
0100
,
1000
0000
0100
0010
0100
0000
0001
0010
,
1000
0000
0010
0100
0010
0000
0001
0010
,
0001
0000
1000
0010
0001
0000
0010
0000
,
0200
0000
0000
0300
,
0010
0100
1000
0100
0010
1000
0010
0100
,
0001
1000
0100
0010
0100
0010
0001
1000
,
0002
0000
0000
0003
,
0120
0000
0000
0000
1030
0001
1000
0001
,
0100
0010
0100
0010
2000
0000
0000
0000
,
0000
0000
3000
0000
,
0022
0000
0000
0030
,
0200
0000
0000
0000
,
0000
0000
0000
0000
,
0303
0000
0000
0000
;

//---------------dance-single - ----------------
#NOTES:
     dance-single:
     :
     Challenge:
     12:
     0.431087,0.702785,0.423524,0.555875,0.043014,456.000000,392.000000,64.000000,84.000000,0.000000,0.000000,0.431087,0.702785,0.423524,0.555875,0.043014,456.000000,392.000000,64.000000,84.000000,0.000000,0.000000:
// measure 0
0000
0000
0000
0000
,  // measure 1
0000
0000
0000
0000
,  // measure 2
0000
0000
0000
0000
,  // measure 3
2000
0000
0000
0000
,  // measure 4
3002
0000
0000
0000
,  // measure 5
0203
0000
0000
0000
,  // measure 6
0320
0000
0000
0000
,  // measure 7
0030
0000
0000
0000
,  // measure 8
0110
0000
0011
0000
,  // measure 9
1100
0010
0011
0000
,  // measure 10
0011
0100
1100
0010
,  // measure 11
0101
0011
1001
0000
,  // measure 12
0020
0030
0200
0300
,  // measure 13
0002
0003
2000
3000
,  // measure 14
0011
0011
0110
1100
,  // measure 15
1100
0000
0001
0000
,  // measure 16
0020
0000
0000
0000
,  // measure 17
0230
0000
0000
0000
,  // measure 18
0302
0000
0000
0000
,  // measure 19
2003
0000
0000
0000
,  // measure 20
3010
0000
0000
0000
,  // measure 21
0110
0000
0110
0000
,  // measure 22
1000
0000
0001
0000
,  // measure 23
0001
0000
0000
0000
,  // measure 24
0020
0000
0100
0000
,  // measure 25
1030
0000
0001
0000
,  // measure 26
0010
0000
0200
0000
,  // measure 27
0010
0000
0300
0000
0001
0000
0000
1000
,  // measure 28
0000
0000
0000
0010
0000
0000
0000
0100
,  // measure 29
0000
0000
0000
0010
0000
0000
0000
0100
,  // measure 30
0000
0000
0000
0010
0000
0000
0000
0000
,  // measure 31
0100
0010
0120
0000
,  // measure 32
1030
0000
0100
0002
0000
0000
0003
1000
,  // measure 33
0010
0000
0100
0020
0000
0000
0000
0000
,  // measure 34
0230
0000
0000
0300
0110
0000
0110
0000
,  // measure 35
0011
0100
0020
0030
,  // measure 36
1001
0001
0001
0001
,  // measure 37
1001
1000
1000
1000
,  // measure 38
1010
0010
0010
0010
,  // measure 39
0010
0200
0000
0300
,  // measure 40
0110
0000
1000
0001
1100
0000
0010
0001
,  // measure 41
0011
0000
1000
0100
0011
0000
0001
0100
,  // measure 42
1000
0000
0100
0010
0100
0000
0010
0100
,  // measure 43
0010
2000
3002
0203
,  // measure 44
0310
0010
0010
0010
,  // measure 45
0100
0100
0100
0100
,  // measure 46
0001
1000
0000
1000
0000
1000
0000
0001
,  // measure 47
0000
0001
0000
0100
0000
0010
0100
0000
,  // measure 48
0010
0110
0000
0110
,  // measure 49
0000
0000
1001
0000
0001
1000
0001
0000
,  // measure 50
2200
3300
0022
0033
,  // measure 51
0200
0000
0320
0000
,  // measure 52
0130
0000
0010
0100
1000
0100
0010
0001
,  // measure 53
0011
0000
1000
0100
0010
0001
0001
0010
,  // measure 54
1100
0000
0100
0010
0101
0000
0001
0000
,  // measure 55
0110
0000
0001
1000
0010
0000
0100
0001
,  // measure 56
0010
0000
0100
0001
0010
0000
1000
0001
,  // measure 57
0100
0000
1000
0001
0100
0000
0001
0100
,  // measure 58
0010
0000
0001
0100
0010
0000
0000
0010
,  // measure 59
0100
0000
0000
0100
0010
0000
0000
0000
,  // measure 60
0200
0001
0001
0001
,  // measure 61
0320
1000
1000
1000
,  // measure 62
0230
0010
0010
0010
,  // measure 63
0302
1000
1000
0100
,  // measure 64
0023
0000
0000
0000
,  // measure 65
0230
0000
0000
0000
,  // measure 66
1300
0001
0100
0010
,  // measure 67
0101
0011
0011
1001
,  // measure 68
0020
0030
2200
3300
0002
0003
0220
0330
,  // measure 69
0002
0003
2000
3000
0020
0030
0022
0033
,  // measure 70
0200
0300
2000
3000
0020
0030
0202
0303
,  // measure 71
0020
0030
2000
3000
0002
0003
0100
0010
,  // measure 72
0100
0000
0010
0100
0010
0000
2000
0000
,  // measure 73
3001
2000
3001
0020
,  // measure 74
0130
0020
1030
0001
,  // measure 75
0202
0003
0020
0000
,  // measure 76
0330
0000
0010
0000
,  // measure 77
0010
0000
0100
0000
,  // measure 78
0100
0000
0000
0000
0010
0100
0000
0000
,  // measure 79
0010
0100
0000
0000
0000
0000
0000
0000
,  // measure 80
1001
0000
0010
0100
1001
0000
0010
0100
,  // measure 81
0010
2000
0001
3002
,  // measure 82
0013
0000
0010
0000
1000
0001
0200
0000
,  // measure 83
0320
0000
0100
0000
,  // measure 84
0130
0001
1000
1001
,  // measure 85
0011
0100
1010
0100
,  // measure 86
0101
0011
0001
1001
,  // measure 87
0010
0000
0100
0001
0001
0000
1000
0010
,  // measure 88
0010
0210
0300
1002
,  // measure 89
0013
0210
0300
1000
,  // measure 90
0101
0011
0101
0110
,  // measure 91
2200
0000
0300
0000
,  // measure 92
3001
0000
0000
0000
0100
0010
0000
0000
0000
0000
0000
0000
0100
0010
0000
0000
,  // measure 93
0000
0000
0000
0000
1000
0001
0000
0000
0000
0000
0000
0000
0100
0001
0000
0000
,  // measure 94
0000
0000
0000
0000
0010
0100
0000
0000
0000
0000
0000
0000
0001
0000
0000
0000
,  // measure 95
0011
0000
1000
0000
0100
0000
0010
0100
,  // measure 96
0010
0100
2000
0000
0000
0000
3020
0000
,  // measure 97
0030
0000
0000
0000
0100
0020
0000
0000
0030
0000
0000
0000
0001
0020
0000
0000
,  // measure 98
0030
0000
0000
0000
1000
0200
0000
0000
0300
0000
0000
0000
0010
0000
0001
0000
,  // measure 99
0011
0000
0100
0010
1000
0001
0010
0100
,  // measure 100
0100
0010
0100
0010
0000
0001
1000
0001
,  // measure 101
0000
1000
0100
0010
0000
0100
0010
0001
,  // measure 102
0000
0100
0001
0010
0000
0010
0001
0100
,  // measure 103
0000
0010
1000
0100
0000
0010
0001
0100
,  // measure 104
0000
0010
0100
0010
0000
1000
0010
0100
,  // measure 105
0000
0100
0001
1000
0000
0010
0100
0010
,  // measure 106
0000
1000
0000
0010
0000
0100
0000
1001
,  // measure 107
0000
0010
0100
0010
1000
0001
0010
0000
,  // measure 108
0002
0000
0000
0000
0003
1000
0100
0000
0000
0000
0000
0000
0000
0001
0010
0000
,  // measure 109
0000
0000
0000
0000
0000
0001
0100
0000
0000
0000
0000
0000
0000
0001
0010
0000
,  // measure 110
0000
0000
0000
0000
0000
0010
0100
0000
0000
0000
0000
0000
0000
0000
0000
0000
,  // measure 111
0010
0100
0010
0000
,  // measure 112
0200
0000
0000
0000
,  // measure 113
0320
0000
0000
0000
,  // measure 114
0230
0000
0000
0000
,  // measure 115
0302
2000
0003
3000
0002
2000
0003
3000
,  // measure 116
0020
0000
0000
0000
,  // measure 117
0000
0000
0000
0000
,  // measure 118
0030
0000
0000
0000
;
