#TITLE:WARUDOC senchou no blues;
#SUBTITLE:;
#ARTIST:Naya~n Brothers Band;
#TITLETRANSLIT:;
#SUBTITLETRANSLIT:;
#ARTISTTRANSLIT:;
#GENRE:;
#CREDIT:from pop n music 11;
#BANNER:Naya~n Brothers Band - WARUDOC senchou no blues.png;
#BACKGROUND:;
#LYRICSPATH:;
#CDTITLE:;
#MUSIC:Naya~n Brothers Band - WARUDOC senchou no blues.mp3;
#OFFSET:-0.002000;
#SAMPLESTART:67.889000;
#SAMPLELENGTH:16.100000;
#SELECTABLE:YES;
#BPMS:0.000000=144.000000
;
#STOPS:
;
#BGCHANGES:;
#KEYSOUNDS:;
#ATTACKS:;

//---------------dance-single - ----------------
#NOTES:
     dance-single:
     :
     Beginner:
     3:
     0.141080,0.206530,0.056032,0.070040,0.000000,141.000000,133.000000,8.000000,10.000000,0.000000,0.000000,0.141080,0.206530,0.056032,0.070040,0.000000,141.000000,133.000000,8.000000,10.000000,0.000000,0.000000:
0000
0000
0000
0000
,
0000
0000
0000
0000
,
0000
0000
0000
0001
,
0000
0000
0000
1000
,
0000
0000
0000
1000
,
0000
0001
0000
0100
,
0000
0000
0000
0010
,
0000
1000
0000
0001
,
0000
0001
0000
1001
,
0000
0001
0000
1000
,
0000
0010
0000
0100
,
0000
0001
0000
0100
,
0000
0010
0000
0100
,
0000
0001
0000
0100
,
0000
1000
0000
0100
,
0000
0001
0000
1000
,
0000
0000
0000
2000
,
3000
0000
0000
0001
,
0000
0001
0000
0200
,
0300
0000
0000
0010
,
0000
0100
0000
0110
,
0000
0100
0000
0001
,
0000
0100
0000
1000
,
0000
0100
0000
0001
,
0000
0000
0000
1000
,
0000
1000
0000
0001
,
0000
0000
0000
0001
,
0000
0100
0000
1000
,
0000
0100
0000
0001
,
0000
0000
0000
0001
,
0000
0010
0000
1000
,
0000
0010
0000
0001
,
0000
0000
0000
2000
,
3000
0000
0000
0001
,
0000
0001
0000
0002
,
0003
0100
0000
0010
,
0000
0000
0000
1000
,
0000
1000
0000
0010
,
0000
0001
0000
0001
,
0000
0000
0000
1000
,
0000
0100
0000
0010
,
0000
0000
0000
0010
,
0000
0001
0000
0100
,
0000
0000
0000
0002
,
0003
0100
0000
0010
,
0000
0100
0000
0011
,
0000
0000
0000
1000
,
0000
0100
0000
0010
,
0000
0011
0000
0000
,
0000
0000
0000
0002
,
0000
0003
0000
1000
,
0000
0100
0000
0100
,
0000
0000
0000
1000
,
0000
0000
0110
0000
,
0000
0010
0000
0011
,
0000
0000
0100
0000
,
0000
0100
0100
0100
,
0000
0000
0101
0000
,
0000
0001
0001
0001
,
0000
0000
0000
1000
,
0000
0000
0000
0100
,
0000
0000
0000
0010
,
0000
0001
0000
1000
,
0000
0100
0000
1000
,
0000
0000
0000
1000
,
0000
1000
0000
0010
,
0000
0001
0000
0001
,
0000
0000
0110
0000
,
0000
0100
0100
0100
,
0000
0010
0100
0010
,
0000
0000
0000
0010
,
0010
0010
0000
0000
,
0000
0000
0000
0100
,
0000
0010
0000
0100
,
0000
0010
0000
1000
,
0000
0001
0000
1000
,
0000
0001
0000
0200
,
0000
0300
0000
0020
,
0000
0030
0000
1000
,
0000
1000
0000
0100
,
0000
0001
0000
0001
,
0000
0000
0000
2000
,
0000
3000
0000
0010
,
0000
0010
0000
0002
,
0000
0003
0000
0000
;

//---------------dance-single - ----------------
#NOTES:
     dance-single:
     :
     Easy:
     6:
     0.255145,0.295043,0.126072,0.112064,0.000000,255.000000,237.000000,18.000000,16.000000,0.000000,0.000000,0.255145,0.295043,0.126072,0.112064,0.000000,255.000000,237.000000,18.000000,16.000000,0.000000,0.000000:
0000
0000
0000
0002
,
0000
1003
0100
0010
,
0000
0001
0010
0100
,
0000
1000
0010
1000
,
0000
0100
0000
1000
,
0001
0001
0100
0100
,
0000
0010
0000
0110
,
0010
0100
0000
0001
,
0001
1000
1000
1001
,
0000
0100
0001
0000
0000
0010
1000
0000
,
0000
0001
0010
0000
0000
0000
0100
0000
,
0100
0010
0010
0001
,
1000
0010
0000
0100
,
0001
1001
1000
0010
,
0100
1000
0000
0100
,
0010
0001
0000
1000
,
0001
0100
0000
2000
,
3001
0001
0100
0001
,
0001
0001
0200
0301
,
0001
0010
0100
1000
,
0000
0110
0000
1000
,
1000
0100
0100
0001
,
0001
0100
0100
1000
,
1000
0001
0000
0100
,
0000
0020
0000
1030
,
0000
0001
1000
0000
0000
0001
1000
0000
,
0000
0001
0000
0001
,
0100
0100
0000
1000
,
0010
0010
0000
0100
,
0001
0001
0000
0100
,
1000
1000
0000
0001
,
0100
0010
0000
0100
,
0000
0010
0000
2001
,
3000
1002
0003
0100
,
0000
0001
0001
0200
,
0300
0001
0000
0210
,
0300
1000
0000
1000
,
0010
1000
0000
0001
,
0010
0001
0000
1000
,
0100
0100
0000
0100
,
0100
1000
0000
0010
,
0100
0001
0000
0010
,
0010
0001
0000
0001
,
0001
0010
0000
0002
,
0003
0101
0000
0010
,
1000
0100
0000
0010
,
1000
0010
0000
1001
,
0000
0110
0000
0010
,
0100
0000
0010
0000
0000
0000
0100
0001
,
0000
0000
0000
0000
0000
0001
2000
0000
,
3000
0000
0010
1001
,
0000
0100
0010
0100
,
0000
0001
0000
1001
,
0000
0100
0000
0000
0010
0000
0000
0100
,
0000
0010
0010
0010
,
0000
0100
0000
0000
0010
0000
0000
1000
,
0000
0001
0001
0001
,
0000
1000
0000
0000
0001
0000
0000
1000
,
0000
0001
1000
0001
,
0000
1000
0001
1000
,
0000
0010
0100
0100
,
0000
0010
0100
0100
,
0000
0002
0003
2000
,
3000
0010
0010
1010
,
0000
0100
0000
1000
,
0000
0100
0100
0101
,
0000
0002
0003
1000
,
0000
0001
0000
0000
1000
0000
0000
0001
,
0000
1000
0001
1000
,
0000
0000
0001
0000
0000
0100
0000
0000
,
0000
0010
0000
0000
0000
0000
0010
0000
,
0000
0010
0000
0000
0000
0010
0000
0000
,
0000
0100
0000
0000
0000
0000
0100
0000
,
0010
0100
0001
0100
,
0000
0010
0000
0010
,
0100
0010
1000
0010
,
0000
0100
0000
0001
,
0100
0000
0001
0100
,
0000
0010
0000
1001
,
0000
1100
0000
0100
,
0010
0001
0000
0011
,
0000
1000
0000
2002
,
0000
3003
0000
0010
,
0100
0010
0100
0002
,
0000
0003
0000
0000
;

//---------------dance-single - ----------------
#NOTES:
     dance-single:
     :
     Medium:
     10:
     0.352200,0.382986,0.070040,0.035020,0.301171,352.000000,342.000000,10.000000,5.000000,0.000000,0.000000,0.352200,0.382986,0.070040,0.035020,0.301171,352.000000,342.000000,10.000000,5.000000,0.000000,0.000000:
0000
0000
0000
0002
,
1000
1003
0100
0010
,
0001
0000
0000
1000
0000
0010
0100
0000
0000
0010
0000
0000
,
0100
0000
0010
0100
0000
0000
0001
0000
1000
0010
0000
0000
,
0100
0010
0000
1000
,
0001
0000
1000
0000
0000
0010
0000
0000
0100
0010
0000
0000
,
0000
0000
0100
0010
0000
0000
0000
0000
0000
1001
0000
0000
,
0001
0000
1000
0000
0000
0001
0000
0000
1000
0001
0000
0000
,
0001
0000
0000
1000
0000
0010
0100
0000
0000
1000
0000
0001
,
0000
0000
0000
0100
0000
0001
0000
0000
0000
0010
0000
0000
,
0010
0000
1000
0000
0000
0000
0000
0000
0000
0100
0000
0010
,
0000
0000
0000
0100
0000
0010
0000
0000
0100
0000
0000
0010
,
0000
0000
0100
0010
0000
0000
1000
0000
0000
0001
0000
0000
,
1000
0000
0010
0000
0000
0000
1000
0000
0010
0000
0000
0000
,
1000
0000
0100
0000
0000
0100
0000
0000
0010
0001
0000
0000
,
0100
0010
0000
1000
,
0100
0001
0100
1000
,
0001
0000
0010
0000
0000
0000
0001
0000
0010
0000
0000
0000
,
0001
0000
0100
0000
0000
0000
0001
0000
0100
0000
0000
0000
,
0001
0000
1000
0001
0000
0000
1000
0000
0001
1000
0000
0000
,
0001
0000
1000
0001
0000
0000
0100
0000
0010
0100
0000
0000
,
0010
0000
0000
0110
0000
0000
0100
0000
0010
0000
0000
0100
,
0000
0000
0010
0000
0000
0100
0000
0000
0010
0100
0000
0000
,
0001
0000
0000
1000
0000
0010
1000
0000
0000
0010
0000
0000
,
0000
0000
0000
0001
0000
0100
0001
0000
0000
0100
0000
0000
,
0000
0010
0100
0010
,
0100
0000
0001
0000
0000
0001
0000
0000
1000
0000
0000
0001
,
1000
0000
0000
0001
0000
1000
0001
0000
0000
1000
0000
0001
,
1000
0001
0000
0010
,
0100
0000
0000
1000
0000
0000
0000
0000
0001
1000
0000
0000
,
0000
0000
0010
0000
0000
0100
0000
0000
0001
0000
0000
0000
,
0100
0000
0100
0010
,
0100
0000
0010
0100
,
0010
0000
0000
0000
0000
0000
0100
0000
0100
0000
0000
0000
,
0010
0000
0010
0000
0000
0000
0100
0000
0100
0000
0000
0000
,
0100
0000
0010
0000
0000
0000
0010
0000
0100
0000
0000
0000
,
0000
0000
0010
0000
0000
1000
0001
0000
0000
1000
0000
0000
,
0010
0000
0100
0000
0000
0000
0010
0000
0100
0000
0000
0000
,
0001
0000
0100
0000
0000
0000
1000
0000
0010
0000
0000
0000
,
0110
0000
1000
0200
,
0310
0001
1000
0100
,
0020
0000
0000
0031
0000
0000
0000
0000
0110
0000
0000
0010
,
0000
0000
0010
0000
0000
0000
0100
0000
0000
0100
0000
0000
,
0000
0010
0010
1000
,
0000
0001
0010
0100
,
0000
1000
0100
0001
,
0000
1000
0100
0001
,
0000
0100
0000
0100
,
0100
0000
0100
0000
0000
0000
0100
0001
,
0100
0001
0000
0000
0000
0001
1000
0001
,
1000
0000
0010
1000
,
0100
0010
0010
0100
,
0000
0000
0001
0100
0000
0000
0000
0000
0000
0101
0000
0000
,
0000
0100
0010
0000
0010
0100
0000
0100
,
0001
0000
0010
0001
0010
0000
0011
0000
,
0000
0100
0001
0000
0100
0001
0000
1000
,
0010
0000
0100
0001
0100
0000
0101
0000
,
0000
1000
0001
0000
0010
0100
0000
1000
,
0001
0000
0100
0010
0100
0000
0110
0000
,
0000
0000
0100
0010
0100
0000
0010
0100
,
0010
0000
1000
0100
0010
0000
0001
0000
,
1000
0100
0010
0000
0001
0000
0100
0000
,
0100
0000
0000
0010
0000
0010
0000
0000
0000
1000
0000
1000
,
0000
0000
0000
0010
0000
0100
0000
0000
0000
0001
0000
0100
,
0001
0000
0000
0100
0000
0001
0100
0000
0000
0100
0000
0001
,
0100
0000
0000
0001
0000
0100
0001
0000
0000
0200
0000
0000
,
0300
0000
0000
0002
0000
0000
0103
0000
0000
1000
0000
0001
,
0000
0000
0000
0001
0000
0000
1000
0000
0001
0000
0000
0000
,
0001
0100
0001
0110
,
0010
0000
0000
0010
0000
0000
0100
0000
0100
0000
0000
0100
,
0000
0000
0010
0000
0000
0100
0000
0000
0001
0100
0000
0000
,
0010
0000
0000
1000
0000
0000
0001
0000
0100
0000
0000
0000
,
0001
0000
0010
0000
0000
0000
0001
0000
0000
0100
0000
0010
,
0000
0000
0000
0010
0000
0010
0000
0000
0000
1000
0000
1000
,
0000
0000
0000
0001
0000
0000
0100
0000
0000
0001
0000
0100
,
0000
0000
0000
0010
0000
1000
0000
0000
0000
0010
0000
0000
,
0100
0001
1000
0010
,
0100
0000
0100
0000
0000
0000
0000
0000
0000
0001
0000
0000
,
1000
0010
0110
1000
,
1000
0100
0100
0010
,
0010
0001
0001
1000
,
0010
0001
0010
1000
,
0000
0001
0000
0010
,
1000
0010
0001
0100
,
0000
0010
0000
0000
0000
0000
0000
0000
;

//---------------dance-single - ----------------
#NOTES:
     dance-single:
     :
     Hard:
     14:
     0.570324,0.649094,0.203115,0.126072,1.029585,570.000000,541.000000,29.000000,18.000000,0.000000,0.000000,0.570324,0.649094,0.203115,0.126072,1.029585,570.000000,541.000000,29.000000,18.000000,0.000000,0.000000:
// measure 0
0000
0000
0000
0001
,  // measure 1
0001
1000
0001
1000
0000
0000
0100
0100
0010
0001
0000
1000
,  // measure 2
0001
0100
0010
1000
0000
0001
0010
0000
0100
1000
0000
0010
,  // measure 3
0100
0000
0000
1000
0000
0110
0000
0000
0001
1000
0000
0001
,  // measure 4
0200
0000
0000
0000
0000
0000
0000
0000
0301
0000
0000
0000
0000
0000
0000
0000
0000
0000
0000
0000
0000
0001
0000
0000
0000
0000
0000
0000
0000
0000
0000
0000
0001
0000
0000
0000
1000
0000
0000
0000
0000
0000
0000
0000
0000
0000
0000
0000
,  // measure 5
0001
0000
0101
0000
0000
0000
0100
0000
0000
0100
0000
0010
,  // measure 6
0010
0000
0100
0100
0000
0000
0000
0000
0010
0200
0000
0300
,  // measure 7
0010
0000
0100
0000
0000
0001
0000
0100
0000
0010
0000
1000
,  // measure 8
0001
0000
0001
1000
0000
0001
0100
0000
0000
1001
0000
0100
,  // measure 9
0001
0000
0001
0010
0000
0010
0001
0000
0001
0010
0000
0000
,  // measure 10
0010
0000
0000
0000
0100
0000
0000
0000
0000
0000
0001
0000
0100
0000
0000
0000
1000
0000
0000
0000
0000
0010
0000
0000
,  // measure 11
0000
0000
0000
0000
0100
0000
0010
0000
0000
0000
0100
0000
0010
0000
0000
0000
0001
0000
0000
0000
0000
1000
0000
0000
,  // measure 12
0000
0000
0100
0000
0000
0010
0001
0000
0100
0000
0000
0001
,  // measure 13
1000
0000
0100
0010
0000
0001
0010
0000
0010
0001
0000
0000
,  // measure 14
0100
0000
1000
0000
0000
0100
0010
0000
0001
0010
0000
0100
,  // measure 15
0000
0000
0010
0000
0000
0010
0100
0010
0100
0000
0000
0020
,  // measure 16
0000
0030
0000
0100
0010
0100
0001
0000
1000
0000
0000
0001
,  // measure 17
0010
1000
0010
0001
0000
0100
0000
0000
0002
0003
0000
0100
,  // measure 18
0001
0000
1000
0010
0000
0000
0001
0000
0010
1000
0000
0100
,  // measure 19
0010
0001
1000
0010
0000
0100
0010
0000
1000
0000
0000
0001
,  // measure 20
0000
0000
0100
0000
0000
0010
0100
0010
0100
0010
0000
0010
,  // measure 21
1000
0100
0010
0100
0000
1000
0100
0000
0110
0000
0000
0011
,  // measure 22
0000
0000
0000
0000
1000
0000
0100
0000
0000
0000
2000
0000
0000
0000
3000
0000
0200
0000
0300
0000
0000
1100
0000
0000
,  // measure 23
0000
0000
0100
0001
0000
0001
0100
0000
0100
1000
0000
0001
,  // measure 24
0010
0000
0010
1000
0000
0000
1100
0000
0010
1000
0000
0010
,  // measure 25
0000
0000
0010
0000
0000
0100
0010
0000
0010
1000
0000
0000
,  // measure 26
0011
0000
1001
0000
0000
1000
0000
0000
0010
0100
0000
0010
,  // measure 27
0100
0000
0001
0100
0000
1000
0100
0000
0010
1000
0000
0010
,  // measure 28
0100
0020
0000
0000
0030
0000
0100
0000
0000
0100
0000
0001
,  // measure 29
1000
0000
0000
0001
0000
0100
1000
0000
1000
0100
0000
0001
,  // measure 30
1000
0000
1001
0000
0000
0100
0000
0000
0010
0000
0000
0100
,  // measure 31
0010
0000
0100
0000
0000
0010
0000
0000
0100
0000
0000
0100
,  // measure 32
0010
1000
0000
0010
0000
0100
0100
0000
0000
0001
0000
1000
,  // measure 33
0100
0010
0100
1000
0100
0010
0100
0000
1000
0000
0000
0000
,  // measure 34
0110
0000
0000
1100
0000
0000
0100
0000
1000
0100
0000
0100
,  // measure 35
0010
0100
1000
0100
0000
0100
0010
0000
0001
0000
0000
0011
,  // measure 36
0000
0000
2000
0000
0000
3000
0010
0000
0100
0000
0000
0010
,  // measure 37
0100
0010
0001
1000
0000
0100
0010
0000
0101
0000
0000
0000
,  // measure 38
0010
0000
0002
0000
0000
1003
0000
0000
0001
1000
0000
0100
,  // measure 39
0000
0000
0010
0100
0000
0010
0100
0000
0001
0200
0000
0000
,  // measure 40
1300
0000
0000
0010
0000
0100
0010
0000
0000
0010
0000
0100
,  // measure 41
0000
0000
0001
0000
0000
1000
0010
0000
0100
0000
0000
0010
,  // measure 42
0100
0000
0100
0001
1000
0001
1000
0000
0000
0001
0000
0001
,  // measure 43
0000
0000
0000
0001
0000
0010
0000
0000
0000
0010
0001
0010
,  // measure 44
0000
0000
0000
0100
0000
0101
0000
0000
0000
0010
0000
1000
,  // measure 45
0010
0000
0100
0000
0000
0000
0001
0000
0020
0000
0030
1000
,  // measure 46
0010
0000
0001
0000
0000
0000
0100
0000
0000
1000
0000
1000
,  // measure 47
0000
0000
0000
1000
0000
0100
0000
0000
0000
0100
1000
0100
,  // measure 48
0000
0000
0000
0000
0000
0000
0010
0000
0000
0000
0110
0000
0000
0000
0000
0000
0000
0000
0100
0000
0000
0001
0000
0000
,  // measure 49
0010
0000
0002
0000
0000
0000
0003
0000
0000
0000
0001
0000
1000
0010
0000
0100
,  // measure 50
0000
0000
0000
0100
0000
0000
0010
0000
0000
0000
0000
0000
0010
0000
0000
0000
0010
0000
1000
0000
0000
0000
0100
0000
,  // measure 51
0010
0100
0010
0001
0000
1000
0010
1000
0010
0000
0000
0000
,  // measure 52
0100
0000
0000
0001
0000
0010
0001
0000
0001
1000
0000
0000
,  // measure 53
0010
0100
0000
0010
0100
0000
0010
1000
0001
0100
0010
0000
,  // measure 54
0100
0010
0100
0000
0000
0000
0000
1000
0001
1000
0001
1000
,  // measure 55
0001
0000
1000
0100
0010
0001
0010
0000
0010
0001
0010
0001
,  // measure 56
1000
0000
0100
0010
0001
0000
0100
0000
0000
0001
0010
0100
,  // measure 57
1000
0010
0000
0200
0000
0300
0010
0000
0100
0001
0000
1000
,  // measure 58
0001
1000
0000
0001
0000
0000
0110
0000
0000
0011
0000
0001
,  // measure 59
0010
0001
0010
0001
0000
0000
0001
0000
0000
1000
0000
0000
,  // measure 60
0100
0010
0100
0010
0100
0010
1000
0000
0100
0000
0000
0000
,  // measure 61
0010
0000
0001
0010
0000
0100
1000
0100
0010
0001
0010
0001
,  // measure 62
0000
0000
0000
0001
0000
0010
0100
1000
0000
1000
0100
0010
,  // measure 63
0001
1000
0001
0100
0000
0010
0100
0001
1000
0010
0010
0100
,  // measure 64
0100
0000
0001
0100
0001
1000
0010
1000
0001
0000
0001
0100
,  // measure 65
0001
0000
0010
0100
0000
0100
0010
0000
0001
0000
0010
0000
,  // measure 66
0100
0001
0100
1000
,  // measure 67
0010
0100
0010
0100
0000
0001
1000
0000
0001
0100
0000
0010
,  // measure 68
0100
0000
0000
1000
0001
1000
0001
0000
0000
1100
0000
0000
,  // measure 69
0001
0000
0000
0001
0000
0010
0000
0000
0100
0000
0000
1000
,  // measure 70
0010
0000
1000
0000
0000
0001
0010
0000
0000
0011
0000
0011
,  // measure 71
0000
0000
0001
0000
0000
0100
0010
0000
0010
0000
0000
0100
,  // measure 72
0010
0000
0100
0000
0000
0001
1000
0001
1000
0010
0000
0010
,  // measure 73
0000
0000
0000
0100
0000
0110
0000
0000
0000
0110
0000
0110
,  // measure 74
0000
0000
0000
0011
0000
0011
0000
0000
0000
0010
0000
0100
,  // measure 75
0010
0100
0010
0100
0000
1000
0001
1000
0001
0100
0001
0100
,  // measure 76
0000
0000
0010
0100
0000
0010
0000
0000
0000
0101
0000
0000
,  // measure 77
0100
0000
0020
0000
0030
0000
0001
0010
0100
1000
0001
0000
,  // measure 78
0100
0010
0000
0110
0000
1000
0001
0000
0000
1001
0000
0010
,  // measure 79
0100
0000
0010
0200
0000
0300
0010
0000
0000
0200
0000
0300
,  // measure 80
0010
0000
0100
0001
0000
1000
0010
0000
0000
0100
0000
0010
,  // measure 81
0100
0000
0010
0000
0000
0000
0000
0000
0000
2000
0000
0001
,  // measure 82
3000
0100
0000
0000
0020
0000
0030
0000
0000
0010
0000
0100
,  // measure 83
0010
0000
0100
0000
0000
0001
0100
0000
0001
0000
0000
0100
,  // measure 84
0001
0000
0100
0001
0000
0000
0000
0000
0000
0000
0000
0000
;
