#VERSION:0.83;
#TITLE:VELVET BULLET;
#SUBTITLE:;
#ARTIST:Des-ROW+2;
#TITLETRANSLIT:;
#SUBTITLETRANSLIT:;
#ARTISTTRANSLIT:;
#GENRE:;
#ORIGIN:;
#CREDIT:from pop n music 19;
#BANNER:20140804175924!19_VELVET_BULLET_HIT.png;
#BACKGROUND:;
#PREVIEWVID:;
#JACKET:;
#CDIMAGE:;
#DISCIMAGE:;
#LYRICSPATH:;
#CDTITLE:;
#MUSIC:VELVET_BULLET.ogg;
#OFFSET:-0.132000;
#SAMPLESTART:0.751000;
#SAMPLELENGTH:16.100000;
#SELECTABLE:YES;
#BPMS:0.000=177.000;
#STOPS:;
#DELAYS:;
#WARPS:;
#TIMESIGNATURES:0.000=4=4;
#TICKCOUNTS:0.000=4;
#COMBOS:0.000=1;
#SPEEDS:0.000=1.000=0.000=0;
#SCROLLS:0.000=1.000;
#FAKES:;
#LABELS:0.000=Song Start;
#BGCHANGES:;
#KEYSOUNDS:;
#ATTACKS:
;

//---------------dance-single - ----------------
#NOTEDATA:;
#CHARTNAME:;
#STEPSTYPE:dance-single;
#DESCRIPTION:;
#CHARTSTYLE:;
#DIFFICULTY:Beginner;
#METER:5;
#RADARVALUES:0.231279,0.316082,0.059961,0.162752,0.000000,189.000000,182.000000,7.000000,19.000000,0.000000,0.000000,0.000000,0.000000,0.000000,0.231279,0.316082,0.059961,0.162752,0.000000,189.000000,182.000000,7.000000,19.000000,0.000000,0.000000,0.000000,0.000000,0.000000;
#CREDIT:;
#NOTES:
0000
0000
0000
0000
,
0000
0000
0000
0000
,
0000
0000
0000
0000
,
0000
0000
0000
0000
,
0000
0000
0000
0000
,
0000
0000
0000
0000
,
0000
0000
0000
0000
,
0000
0000
0000
0000
,
1001
0000
0100
0000
,
0010
0000
1000
0000
,
0001
0000
1000
0001
,
0100
0010
1000
0001
,
0100
0000
0010
1000
,
0001
0001
1000
0000
,
0001
0000
0101
0100
,
0001
0100
0010
0000
,
1000
0000
0001
0100
,
0001
0100
0010
1000
,
0002
0003
1000
0001
,
0100
0000
0001
1000
,
0010
0000
1000
0001
,
0100
0000
0001
1000
,
0100
0000
0110
0000
,
1001
0000
0110
0000
,
1000
0000
1000
1000
,
0001
0001
0100
0100
,
0200
0000
0310
0000
,
0000
0000
0010
0000
,
1000
0000
0001
0000
,
0100
0000
0010
0000
,
0100
0000
0001
0001
,
0100
0001
0001
0000
,
1000
0000
0100
1000
,
0100
0100
0010
0000
,
0001
0000
1000
0100
,
1000
0100
1000
0000
,
0001
0000
0010
0001
,
0010
0001
0010
0000
,
0001
0000
1000
0001
,
0100
0010
0100
0001
,
1000
0001
0001
0001
,
0001
0000
2000
0000
,
3000
0000
0002
0000
,
0003
0000
1000
0010
,
0010
0000
0200
0000
,
0300
0000
1000
0100
,
0100
0000
0020
0000
,
0030
0000
0100
0001
,
0001
0000
1000
0001
,
0100
0000
0001
1000
,
0100
0000
1000
1000
,
1000
0000
0001
0001
,
0001
0000
1000
0100
,
1000
0000
0001
0100
,
0001
0000
0001
0010
,
0001
0000
1000
0010
,
0100
0000
0001
1000
,
0100
0000
0002
0000
,
0003
0000
2000
0000
,
3001
0000
0002
0000
,
0103
0000
0020
0000
,
1030
0000
0200
0000
,
0301
0000
0002
0000
,
1003
0000
2000
0000
,
3001
0000
0020
0000
,
0130
0000
0002
0000
,
1000
0000
1003
0000
,
1000
0000
0200
0000
,
0010
0000
0310
0000
,
0001
0000
2000
0000
,
0000
0000
0001
0000
,
0001
0000
3001
0000
,
0100
0000
0010
0000
,
0100
0000
0110
0000
,
0001
0000
1000
0000
,
1000
0000
1001
0000
,
0001
0000
0001
0000
,
0100
0000
0010
0000
,
1000
0000
0001
0000
,
0100
0000
0002
0000
,
0000
0000
0103
0000
,
0010
0000
2000
0000
,
3000
0000
0000
0000
;

//---------------dance-single - ----------------
#NOTEDATA:;
#CHARTNAME:;
#STEPSTYPE:dance-single;
#DESCRIPTION:;
#CHARTSTYLE:;
#DIFFICULTY:Easy;
#METER:7;
#RADARVALUES:0.332846,0.421442,0.299806,0.248411,0.000000,272.000000,237.000000,35.000000,29.000000,0.000000,0.000000,0.000000,0.000000,0.000000,0.332846,0.421442,0.299806,0.248411,0.000000,272.000000,237.000000,35.000000,29.000000,0.000000,0.000000,0.000000,0.000000,0.000000;
#CREDIT:;
#NOTES:
0000
0000
0000
0000
,
0000
0000
0000
0000
,
0000
0000
0000
0000
,
0000
0000
0000
0000
,
0000
0000
0001
0000
,
0101
0000
1010
0000
,
0101
0000
0200
0000
,
0010
0000
0310
0000
,
1000
0001
0100
0010
,
0110
0000
1000
0001
,
0001
0000
1000
1001
,
0100
0010
1000
0100
,
0010
0001
1001
1000
,
0001
0100
0110
1000
,
1000
0001
0001
0100
,
0001
0100
0110
0010
,
0010
1000
1001
0100
,
0001
1000
0001
1000
,
0002
0000
1003
0100
,
0100
1000
0020
0000
,
1000
0030
1000
0100
,
0100
0010
0002
0000
,
1000
0003
1000
1100
,
0010
0001
1000
0010
,
0010
0100
0100
0001
,
1000
0010
0110
0101
,
0202
0000
0303
0000
,
0001
1000
0010
0100
,
0010
1000
0001
1000
,
0100
0010
0100
1000
,
0001
0000
0001
0001
,
1000
1000
0010
0100
,
0001
1000
0200
0000
,
1000
0300
1000
0100
,
0010
0000
0020
0000
,
0031
0100
0020
0000
,
1030
0100
0020
0000
,
0031
0100
0200
0000
,
0310
1000
1001
0001
,
0101
0000
0100
0010
,
0110
0000
0001
1000
,
0001
0100
0020
0000
,
1030
0100
0200
0000
,
0310
0001
1001
0100
,
1001
0000
0010
1000
,
0001
0100
0020
0000
,
0130
0000
0010
0010
,
1000
0001
0200
0000
,
0301
0010
0200
0000
,
1300
0100
0020
0000
,
0031
0000
1000
1000
,
1100
0000
0001
0001
,
0011
0000
1000
1000
,
1100
0000
0001
0001
,
0101
0000
0002
1000
,
1003
0000
2000
0010
,
3010
0000
0110
0100
,
0110
0010
0220
0000
,
0330
0000
2000
0000
,
3001
0100
0002
0000
,
0103
0010
2000
0000
,
3001
0100
0010
0100
,
0001
1000
0010
0100
,
1000
0000
0202
0000
,
0303
0000
0010
0000
,
0110
0000
1000
0000
,
1000
0001
0100
0001
,
2000
0000
3001
0010
,
0100
0010
0002
0000
,
1003
0100
0010
0001
,
0100
0000
0001
0100
,
0001
0000
1000
0000
,
0110
0000
0011
0000
,
1001
0000
1100
0000
,
0110
0000
0011
0000
,
1000
0001
0100
0001
,
0001
0000
0001
0001
,
0001
1000
0100
0000
,
1000
1000
1000
0001
,
0010
0000
0011
0000
,
1001
0000
0100
0100
,
0010
0020
0000
0000
,
0030
0000
0000
0000
;

//---------------dance-single - ----------------
#NOTEDATA:;
#CHARTNAME:;
#STEPSTYPE:dance-single;
#DESCRIPTION:;
#CHARTSTYLE:;
#DIFFICULTY:Medium;
#METER:9;
#RADARVALUES:0.401373,0.456562,0.171318,0.231279,0.000000,328.000000,308.000000,20.000000,27.000000,0.000000,0.000000,0.000000,0.000000,0.000000,0.401373,0.456562,0.171318,0.231279,0.000000,328.000000,308.000000,20.000000,27.000000,0.000000,0.000000,0.000000,0.000000,0.000000;
#CREDIT:;
#NOTES:
// measure 0
0000
0000
0000
0000
,  // measure 1
0000
0000
0000
0000
,  // measure 2
0000
0000
1000
0001
,  // measure 3
0000
0100
0010
1000
,  // measure 4
0000
0001
1001
0000
,  // measure 5
0110
0000
0000
0000
0100
0001
0100
0000
,  // measure 6
0001
1000
0001
0000
2000
0000
0010
0000
,  // measure 7
3010
0000
0100
0001
0010
0000
0001
0000
,  // measure 8
1000
0010
1000
0000
0002
0000
1000
0000
,  // measure 9
1003
0000
0010
0000
1000
0001
1000
0000
,  // measure 10
0001
1000
0000
0000
1000
0000
0001
0000
,  // measure 11
1000
0010
0100
0020
0000
0000
0030
0000
,  // measure 12
1001
0001
1001
1000
,  // measure 13
0001
0100
0010
0200
0000
0000
0301
0000
,  // measure 14
0100
0001
0100
0000
1001
0000
0010
0000
,  // measure 15
1001
0000
0001
1000
0001
0000
1000
0000
,  // measure 16
0010
1000
0101
0001
,  // measure 17
0101
0000
0001
1000
0001
0000
1000
0000
,  // measure 18
0200
0000
0310
0001
,  // measure 19
0100
0010
1000
0020
0000
0000
1030
0000
,  // measure 20
1000
0000
0101
0001
,  // measure 21
1000
0010
1000
0020
0000
0000
1030
0000
,  // measure 22
0001
0100
0001
0000
1000
0000
0110
0000
,  // measure 23
0001
0000
1001
0000
0010
0000
0100
0010
,  // measure 24
0100
0010
0100
0000
0001
0000
1000
0000
,  // measure 25
1000
0010
0200
0300
,  // measure 26
0020
0030
0100
0010
,  // measure 27
1000
0010
1000
0000
0001
0000
0100
0000
,  // measure 28
0001
0000
0010
0001
0100
0000
0001
0000
,  // measure 29
1000
0000
0010
0100
0001
0000
0010
0000
,  // measure 30
0100
0000
1000
0000
0001
0100
0000
0010
,  // measure 31
0000
1000
0000
0010
0100
0010
0000
1000
,  // measure 32
0000
0001
0000
0100
0010
0000
0100
0000
,  // measure 33
0010
1000
0001
0000
1000
0001
1000
0000
,  // measure 34
0001
0000
0100
0000
0010
0100
0000
0001
,  // measure 35
0000
0100
0000
0010
1000
0001
0000
0100
,  // measure 36
0000
0010
0000
0000
1000
0000
0001
0000
,  // measure 37
1000
0010
1000
0000
0001
0100
0010
0100
,  // measure 38
0001
0000
1000
0100
,  // measure 39
0010
0100
0010
0001
,  // measure 40
1000
0001
1000
0000
0001
0000
1000
0000
,  // measure 41
0010
0100
0010
0100
,  // measure 42
0002
0000
0000
0003
1000
0000
0001
0100
,  // measure 43
0001
0100
0001
0000
1000
0000
1000
0000
,  // measure 44
1100
0000
0000
0000
0001
0000
1000
0010
,  // measure 45
1000
0010
1000
0000
0001
0000
1000
0000
,  // measure 46
0200
0000
0000
0300
0010
0000
0000
0000
,  // measure 47
0001
0100
0001
0000
0100
0000
0010
0000
,  // measure 48
1000
0001
0200
0000
,  // measure 49
0310
0010
0020
0000
,  // measure 50
0130
0000
1001
1000
,  // measure 51
0001
0000
1001
0100
,  // measure 52
0010
0000
0000
0000
0100
0000
0010
0100
,  // measure 53
0010
0100
0010
2000
,  // measure 54
0002
3000
0103
0010
,  // measure 55
1000
0000
0001
0100
0001
0000
1000
0000
,  // measure 56
0010
0000
0100
0001
1000
0000
0010
0000
,  // measure 57
0110
0010
2000
0000
,  // measure 58
3001
0000
0001
0000
,  // measure 59
0010
0100
2000
0000
,  // measure 60
3010
0000
0100
0010
,  // measure 61
1000
0001
0020
0000
,  // measure 62
0100
0030
0200
0000
,  // measure 63
1000
0300
1000
0001
,  // measure 64
1000
0000
1000
0001
,  // measure 65
1000
0000
0002
0000
,  // measure 66
1000
0003
2000
0000
,  // measure 67
0010
3000
0020
0000
,  // measure 68
0100
0030
0200
0000
,  // measure 69
0001
0300
0001
0000
,  // measure 70
1001
0000
0010
0100
,  // measure 71
0010
0000
0102
0000
,  // measure 72
0100
0003
1020
0000
,  // measure 73
1000
0030
1000
0010
,  // measure 74
0100
0000
0010
0000
1000
0000
0001
0100
,  // measure 75
0001
0000
0100
0001
0100
0000
0010
0000
,  // measure 76
0010
0000
1000
1000
,  // measure 77
1010
0000
0000
0000
0110
0000
0010
0100
,  // measure 78
0010
1000
0001
0100
,  // measure 79
0020
0000
0000
0000
1030
0000
0001
1000
,  // measure 80
0001
0000
1000
0010
1000
0000
0001
0100
,  // measure 81
0001
0200
0000
0000
,  // measure 82
0300
0000
0000
0000
;

//---------------dance-single - ----------------
#NOTEDATA:;
#CHARTNAME:;
#STEPSTYPE:dance-single;
#DESCRIPTION:;
#CHARTSTYLE:;
#DIFFICULTY:Challenge;
#METER:16;
#RADARVALUES:0.903090,0.913125,0.239845,0.094225,0.800911,738.000000,710.000000,28.000000,11.000000,0.000000,0.000000,0.000000,0.000000,0.000000,0.903090,0.913125,0.239845,0.094225,0.800911,738.000000,710.000000,28.000000,11.000000,0.000000,0.000000,0.000000,0.000000,0.000000;
#CREDIT:;
#NOTES:
0000
0000
0000
0000
,
0000
0000
0000
0000
,
0000
0000
0000
0000
1001
0000
0100
0010
,
0100
0000
0001
0000
1000
0000
0010
0100
0001
0000
1000
0000
0001
0100
0001
0100
,
0001
1000
1001
0010
0110
0100
0101
0000
,
1100
0000
1100
0000
0010
0100
0010
0100
0010
0000
0110
0000
0001
0000
1000
0000
,
0110
0010
0110
0100
0020
0000
0100
0000
,
1030
0100
0001
0100
1000
0001
0010
1000
,
0010
0001
0200
0000
0320
0000
0130
0000
,
0002
0000
1003
0010
0100
0001
1000
0001
,
0100
0000
0000
0010
0000
0000
0000
0000
0000
0000
0000
0000
0100
0000
0010
0000
0100
0000
0100
0000
0000
0000
0000
0000
,
0001
1000
0001
1000
0000
0000
0010
0100
0010
0100
0001
1000
,
0010
0100
0001
0001
0000
0000
1000
0010
0100
0001
0000
0000
,
1000
0100
1000
0100
0000
0000
0010
0001
0010
0001
1000
0100
,
0010
0001
1000
0001
0000
0000
0100
0010
0010
0100
0000
0000
,
0001
0010
0100
1000
0000
0000
1000
0100
0010
0001
0100
0010
,
1000
0100
0010
0001
0000
0000
0100
0010
1000
0010
0100
0001
,
1000
0001
0010
0100
0000
0000
1000
0100
1000
0100
0010
0100
,
0010
0001
0010
0001
0000
0000
1000
0001
0100
0001
1000
0001
,
0010
0001
1000
1000
0100
0100
0010
0010
0001
0001
1000
0001
,
1000
0001
0100
0001
0000
0000
0001
1000
0010
0100
0010
0100
,
0001
0010
0100
0010
0001
1000
0010
1000
0001
0010
0001
1000
,
0010
0100
0010
0100
0000
0000
0100
0010
0100
0010
0000
0000
,
0010
1000
0001
0010
0000
0000
0001
0100
0010
1000
0010
0100
,
0001
1000
0001
0100
0000
0000
0010
0010
0100
0100
0000
0000
,
0001
0000
0000
0000
1000
0000
0000
0000
0001
0000
0000
0000
0100
0000
0000
0000
0000
0000
0000
0000
0000
0000
0000
0000
0010
0000
0000
0100
0000
0000
0010
0000
0000
0100
0000
0000
0001
0000
0000
0000
0000
0000
0000
0000
0000
0000
0000
0000
,
1000
0001
1000
0001
0100
0000
0000
0000
0010
0000
1000
0000
0001
0000
0100
0000
,
0010
0000
1000
0000
0001
0100
0001
0000
1000
0010
1000
0000
0001
0010
0001
0000
,
1000
0000
0100
0000
0101
0000
0000
0000
0001
0000
1000
0000
0010
0100
0001
0000
,
1000
0000
0100
0000
0010
0000
0001
0000
1000
0001
1000
0000
0001
0100
0001
0000
,
0100
0000
0010
0000
0100
0010
0100
0010
0100
0000
0010
0000
1000
0000
0001
0000
,
1000
0000
0100
0000
0010
0001
0010
0000
0011
0000
1000
0000
0100
0010
0100
0000
,
1000
0001
0100
0010
0110
0001
1000
0100
,
0011
0101
2001
0000
3001
0000
0100
0010
,
0100
0000
0001
0000
0100
0001
0100
0001
1000
0000
0010
0000
0100
0010
0100
0000
,
0001
0000
0010
0000
0100
0000
1000
0100
0010
0000
0001
0000
0100
0000
0010
0000
,
0010
0000
0100
0010
0100
0000
0001
0000
1000
0000
0001
0000
0100
0001
0100
0000
,
0010
0000
1000
0000
0001
0010
0100
0000
0010
0000
0001
0000
0010
0100
0010
0000
,
0001
0010
0100
1000
0001
0000
0000
0000
1000
0001
1000
0000
0010
0100
0010
0000
,
0100
0000
0001
0000
0101
0000
0010
0000
1000
0000
0001
0000
0100
0010
0100
0000
,
0010
1000
1010
0001
0100
0010
0100
0001
,
0010
0000
0001
0000
0010
0001
0010
0001
0010
0000
0001
0000
1000
0000
0100
0000
,
1000
0100
1000
0100
1000
0100
0010
0001
0010
0000
0000
0000
0001
0000
1000
0000
,
0001
0100
0001
0100
0010
0000
1000
0000
0100
0000
0010
0001
0010
0000
0001
0000
,
1000
0100
0010
0001
1000
0000
0001
0000
0100
0000
0010
0100
0010
0000
0100
0000
,
0010
0100
0010
0100
0010
0000
1000
0000
0001
0000
1000
0001
1000
0000
0001
0000
,
1000
0001
1000
0001
1000
0010
1000
0010
1000
0000
0001
0000
0100
0010
0100
0000
,
0010
0000
0100
0000
0001
0000
1000
0000
0010
0100
0001
0000
1000
0100
1000
0000
,
0001
0010
0001
0010
0001
0000
1000
0000
0010
0000
0100
0000
0001
0000
1000
0000
,
0001
0000
0100
0000
0010
0100
0010
0000
1000
0001
1000
0001
1000
0000
0001
0000
,
0100
0001
1000
0001
0100
0000
0000
0000
0020
0000
0000
0000
0130
0000
0010
0000
,
0100
0010
1000
0001
0102
0000
0103
0001
,
0100
0001
1000
0010
0200
0010
0310
1000
,
0002
0000
1000
0000
1003
0000
0001
0000
0100
0000
0000
0000
0010
0100
0010
1000
,
0001
0000
0100
0001
0010
0001
0100
0001
0010
0000
0000
0000
0001
0000
1000
0000
,
0010
0000
0100
0010
0100
0000
0010
0000
0110
0000
1000
0000
0001
0100
0001
0100
,
0010
1000
0100
0010
0011
0001
1000
0010
,
1000
0000
0001
0100
0010
0000
0100
0001
1000
0000
0000
0000
0001
0000
0000
0000
,
0010
0100
1000
0000
1000
0100
0010
0000
,
0001
0010
0001
0000
1000
0000
0100
0000
0010
0000
0001
0000
0010
0000
0010
0000
,
0100
1000
0100
0001
0100
1000
0100
0000
,
0010
0001
0010
0000
0100
0000
1000
0010
0100
0000
0000
0000
0001
0000
0000
0000
,
1000
0010
0100
0000
0001
0000
0001
0000
0100
0000
0000
0000
0010
0000
1000
0000
,
1001
0000
0010
0001
0011
0000
0100
1000
,
1100
0000
0010
0100
0100
0010
0100
0000
,
0011
0001
1001
0000
2000
0000
3100
0010
,
0001
0000
0001
0100
1000
0100
0001
0000
,
1000
0010
0001
0000
1000
0100
0001
0000
,
1000
0000
0100
0000
0010
0000
0001
0000
1000
0001
1000
0000
0001
0000
0000
0000
,
0100
0000
0010
0100
0010
0000
0000
0000
0110
0000
0000
0000
0100
0000
0001
0000
,
0010
0000
0001
0010
0001
0000
1000
0100
1000
0000
0001
0000
0100
0000
0000
0000
,
0010
0000
1000
0000
0100
0010
0001
0000
0100
0000
0010
0000
1000
0000
0001
0010
,
0001
0000
1000
0000
0100
0000
0010
0100
0010
0000
0100
0000
0001
0000
0100
0000
,
1000
0001
0010
0001
0100
0000
0000
0000
0001
1000
0001
1000
0001
0000
0000
0000
,
0100
0000
0010
0000
0100
0000
0010
0000
0010
0000
1000
0000
0001
0000
1000
0001
,
1000
0000
0001
0000
0100
0000
0010
0000
0100
0000
0001
0000
0100
0001
0010
0000
,
0001
0000
1000
0000
0010
1000
0001
0000
1000
0000
0010
0000
1000
0100
0010
0001
,
0100
0000
0010
0000
0100
0000
0000
0000
0011
0000
0001
0000
0010
0100
1000
0100
,
0010
0000
0001
0000
0100
0010
1000
0001
0100
0000
0010
0000
1000
0001
0100
0001
,
0100
0010
1000
0001
0101
0000
0010
0100
,
0010
0100
0001
0010
0100
0010
0001
1000
0001
0000
1000
0000
0001
0000
0100
0000
,
0010
0100
0010
0100
0020
0000
0000
0000
0000
0000
0000
0000
0000
0000
0000
0000
,
0030
0000
0000
0000
;

//---------------dance-single - ----------------
#NOTEDATA:;
#CHARTNAME:;
#STEPSTYPE:dance-single;
#DESCRIPTION:;
#CHARTSTYLE:;
#DIFFICULTY:Hard;
#METER:12;
#RADARVALUES:0.582481,0.561923,0.239845,0.231279,0.000000,476.000000,448.000000,28.000000,27.000000,0.000000,0.000000,0.000000,0.000000,0.000000,0.582481,0.561923,0.239845,0.231279,0.000000,476.000000,448.000000,28.000000,27.000000,0.000000,0.000000,0.000000,0.000000,0.000000;
#CREDIT:;
#NOTES:
0000
0000
0000
0000
,
0000
0000
0000
0000
,
0000
0000
0000
0000
1000
0000
0001
0100
,
0000
0010
0000
0100
0000
0001
0000
1000
,
0000
0001
0100
0000
0001
1000
0100
0000
,
1000
0100
0010
0000
0100
0010
0001
0000
,
0001
1000
0010
0000
0200
0000
0010
0000
,
0310
0100
0010
0100
0010
0000
1000
0000
,
0001
1000
0001
0100
0002
0000
1003
0000
,
0100
0010
0100
0000
1000
0001
0100
0000
,
0001
1001
0000
0000
1000
0000
0001
0100
,
0010
1000
0010
0200
0000
0000
0301
0010
,
0001
1000
0001
0000
1000
0100
1000
0001
,
0010
0001
0100
0020
0000
0000
1030
0000
,
0001
0100
0001
0000
1001
0000
0100
0010
,
0100
0001
0100
0020
0000
0000
1030
0100
,
0010
0001
1000
0000
0001
0100
0001
1000
,
0001
0100
0010
0100
0020
0000
1030
0000
,
2000
0000
0000
0000
3001
1000
0001
0000
,
0100
0001
1000
0020
0000
0030
1000
1000
,
1000
0001
0001
0000
1000
0100
0010
0001
,
1000
0100
0010
0002
0000
0000
1003
0000
,
1001
0001
1000
0110
,
0010
0100
0001
0200
0000
0000
0310
0100
,
0010
1000
0100
0010
0001
0000
1100
0000
,
1010
0000
0010
0100
0001
0100
0010
0000
,
1000
0100
0010
0000
0011
0000
1000
0100
,
0010
0100
1000
0000
0001
0010
0100
0010
,
0001
0000
1000
0000
0001
0100
1000
0100
,
0001
0000
0010
0000
0100
1000
0010
0100
,
0001
0000
1000
0000
0001
0100
0001
0010
,
1000
0010
0001
0000
0010
0100
1000
0100
,
0010
0001
0010
0000
0100
1000
0010
0001
,
1000
0100
0010
0000
1000
0100
0010
0001
,
1000
0001
0100
0000
0010
0000
0100
0001
,
0100
0010
0100
0000
0010
1000
0001
0100
,
0010
0100
0100
0000
0010
0010
1000
0001
,
1000
0010
0100
0000
0100
0010
0100
0010
,
0100
0010
1000
0000
0001
0010
0001
0000
,
0101
0000
0110
0000
0001
0010
0001
0010
,
0001
0010
0001
0000
1000
0100
1000
0000
,
0001
0100
0010
0000
0110
0000
0100
0000
,
0001
0100
0100
0010
0200
0000
0001
0000
,
0310
0000
1000
0100
0001
0100
1000
0000
,
0001
0100
0010
0000
0100
0001
1000
0001
,
1000
0000
0001
0000
0010
0100
1000
0100
,
0010
0000
0002
0000
0013
0001
0010
0100
,
0010
0100
1000
0000
0100
0010
0100
0010
,
0001
0010
0001
0000
0100
0010
0100
0010
,
0100
0010
0100
0000
0010
0100
0010
0100
,
0020
0030
1010
1000
,
1000
0100
0010
0001
1001
0000
1100
0000
,
0001
0010
0001
0010
0100
0000
1000
0100
,
0010
0000
0100
0010
0001
0000
1001
0000
,
0200
0000
0310
1000
,
1000
0010
1000
0010
2000
0000
3001
0010
,
0001
0100
0001
1000
1001
0000
0100
0010
,
0100
0000
0010
0100
0020
0000
0000
0000
,
0130
0000
0001
1000
,
0001
0100
0010
1000
0002
0000
0100
0000
,
0013
0000
0010
0001
2000
0000
0100
0000
,
3010
0100
0001
0000
0010
0100
0001
0000
,
0100
1000
0001
0000
0010
0001
0100
0000
,
0010
1000
0001
0000
0201
0000
0000
0000
,
0301
0000
1000
0010
0100
0010
0100
0000
,
0010
0100
0010
0000
0202
0000
0303
0000
,
1000
0000
0001
0100
0010
0100
0001
0000
,
1000
0000
0100
0010
0001
0000
0010
0000
,
0110
0000
1000
0000
0001
0100
0001
0000
,
1000
0100
1000
0000
0011
0000
1000
0000
,
0101
0001
0011
0100
,
0110
1000
1200
0300
,
0120
0030
0012
0003
,
1000
0001
1000
0000
0001
0001
0100
0000
,
0100
0010
0100
0010
1000
0001
0100
0000
,
0010
0000
0100
0000
0110
0100
0100
0000
,
0010
0100
0010
0000
1000
0001
0100
0000
,
0001
0001
0100
0000
0110
0010
0010
0000
,
1000
0001
1000
0000
0001
0100
0001
0000
,
0100
0010
1000
0000
2002
0000
3003
0000
,
0010
0100
0010
0100
0010
0000
1000
0100
,
0010
0002
0000
0000
,
0003
0000
0000
0000
;
