#VERSION:0.83;
#TITLE:Used To Be;
#SUBTITLE:;
#ARTIST:Ilya;
#TITLETRANSLIT:;
#SUBTITLETRANSLIT:;
#ARTISTTRANSLIT:;
#GENRE:;
#ORIGIN:;
#CREDIT:;
#BANNER:;
#BACKGROUND:;
#PREVIEWVID:;
#JACKET:;
#CDIMAGE:;
#DISCIMAGE:;
#LYRICSPATH:;
#CDTITLE:;
#MUSIC:Ilya -- Used To Be-RnB.ogg;
#OFFSET:-0.393000;
#SAMPLESTART:41.993000;
#SAMPLELENGTH:17.799999;
#SELECTABLE:YES;
#BPMS:0.000=108.000;
#STOPS:;
#DELAYS:;
#WARPS:;
#TIMESIGNATURES:0.000=4=4;
#TICKCOUNTS:0.000=4;
#COMBOS:0.000=1;
#SPEEDS:0.000=1.000=0.000=0;
#SCROLLS:0.000=1.000;
#FAKES:;
#LABELS:0.000=Song Start;
#BGCHANGES:;
#KEYSOUNDS:;
#ATTACKS:
;

//---------------dance-single - ----------------
#NOTEDATA:;
#CHARTNAME:;
#STEPSTYPE:dance-single;
#DESCRIPTION:;
#CHARTSTYLE:;
#DIFFICULTY:Beginner;
#METER:2;
#RADARVALUES:0.072045,0.105066,0.022924,0.015282,0.000000,66.000000,63.000000,3.000000,2.000000,0.000000,0.000000,0.000000,0.000000,0.000000,0.072045,0.105066,0.022924,0.015282,0.000000,66.000000,63.000000,3.000000,2.000000,0.000000,0.000000,0.000000,0.000000,0.000000;
#CREDIT:;
#NOTES:
0000
0000
0000
0000
,
0000
0000
0000
0000
,
0100
0000
0000
0000
,
0010
0000
0000
0000
,
1000
0000
0000
0000
,
0001
0000
0000
0000
,
0100
0000
0000
0000
,
0010
0000
0000
0000
,
1000
0000
1000
0000
,
0001
0000
0000
0000
,
1000
0000
0001
0000
,
0001
0000
0000
0000
,
0100
0000
0000
0000
,
0001
0000
0000
0000
,
1000
0000
0001
0000
,
1000
0000
0000
0000
,
0010
0000
0100
0000
,
0010
0000
0000
0000
,
1001
0000
0000
0000
,
0001
0000
0000
0000
,
1000
0000
0100
0000
,
1000
0000
0000
0000
,
0001
0000
1000
0000
,
0001
0000
0000
0000
,
1000
0000
0100
0000
,
1000
0000
0000
0000
,
0001
0000
1000
0000
,
0001
0000
0000
0000
,
0100
0000
0000
0000
,
0010
0000
0000
0000
,
0100
0000
0000
0000
,
0001
0000
0000
0000
,
1000
0000
0000
0000
,
0001
0000
0000
0000
,
0100
0000
0000
0000
,
0000
0000
0000
0000
,
0020
0000
0000
0030
,
0000
0000
0000
0000
,
1000
0000
1000
0000
,
1000
0000
0000
0000
,
0002
0000
0000
0003
,
0000
0000
0000
0000
,
0001
0000
0001
0000
,
0001
0000
0000
0000
,
1001
0000
0000
0000
,
1000
0000
0000
0000
,
0001
0000
0100
0000
,
0001
0000
0000
0000
,
1000
0000
0010
0000
,
1000
0000
0000
0000
,
0010
0000
0100
0000
,
0010
0000
0000
0000
,
0110
0000
0000
0000
,
0000
0000
0000
0000
,
1000
0000
0000
0000
,
0001
0000
0000
0000
;

//---------------dance-single - ----------------
#NOTEDATA:;
#CHARTNAME:;
#STEPSTYPE:dance-single;
#DESCRIPTION:;
#CHARTSTYLE:;
#DIFFICULTY:Easy;
#METER:4;
#RADARVALUES:0.155007,0.231145,0.053488,0.114618,0.000000,142.000000,135.000000,7.000000,15.000000,0.000000,0.000000,0.000000,0.000000,0.000000,0.155007,0.231145,0.053488,0.114618,0.000000,142.000000,135.000000,7.000000,15.000000,0.000000,0.000000,0.000000,0.000000,0.000000;
#CREDIT:;
#NOTES:
0000
0000
0000
0000
,
0000
0000
0000
0000
,
0101
0001
0100
0010
,
1000
0001
0100
0100
,
0101
0001
0000
0001
,
1000
0100
0000
0100
,
0010
0001
0000
0001
,
1000
0001
0000
0100
,
0020
0030
0100
0010
,
2000
3000
0001
0100
,
0101
0000
0001
0000
,
1000
0000
0001
0000
,
2000
0010
3010
0000
,
0001
0100
0001
1000
,
0001
0000
1000
0000
,
0002
0003
0000
0000
,
1000
0001
1000
0000
,
0100
1000
0001
1000
,
0001
0000
0000
0000
,
0110
0000
0010
1000
,
0020
0030
1000
0100
,
2000
3000
0001
0010
,
0002
1003
0001
1000
,
0020
1030
0000
0001
,
0002
0003
1000
0001
,
0200
0300
0100
0010
,
2000
3001
0100
0020
,
2030
0000
3000
0001
,
1000
0000
0010
0100
,
0010
0000
0000
0000
,
1000
0000
0000
0001
,
1000
0000
0000
0001
,
0100
0000
0010
0000
,
1000
0100
1000
0000
,
0001
0000
0000
1000
,
0001
0000
0100
0000
,
0010
0100
0100
0000
,
0010
0010
1000
0000
,
0001
0000
0000
0000
,
1000
0000
0000
0000
,
0002
0000
1003
0000
,
1000
0001
1000
0000
,
0010
0000
0000
0000
,
0100
0000
0001
0000
,
1001
0000
1000
0001
,
1000
0000
0001
0000
,
0010
0010
0010
0000
,
0100
0000
0000
0000
,
1001
0000
0001
1000
,
0001
0000
0100
0000
,
0001
0001
0001
0000
,
2000
3000
0010
0000
,
0100
0000
0001
0000
,
1001
0000
1000
0000
,
0001
0000
0100
0000
,
0010
0000
0000
0000
;

//---------------dance-single - ----------------
#NOTEDATA:;
#CHARTNAME:;
#STEPSTYPE:dance-single;
#DESCRIPTION:;
#CHARTSTYLE:;
#DIFFICULTY:Medium;
#METER:8;
#RADARVALUES:0.292548,0.294185,0.053488,0.183388,0.000000,268.000000,261.000000,7.000000,24.000000,0.000000,0.000000,0.000000,0.000000,0.000000,0.292548,0.294185,0.053488,0.183388,0.000000,268.000000,261.000000,7.000000,24.000000,0.000000,0.000000,0.000000,0.000000,0.000000;
#CREDIT:;
#NOTES:
0000
0000
0000
0000
,
0000
0000
0000
0000
,
0101
0000
0001
1000
0100
0000
0010
0001
,
0100
0000
0001
1000
0010
0000
0010
1000
,
0001
0000
0100
0020
0000
0030
0100
0010
,
0000
0000
1000
0100
0000
0000
0010
0001
,
0010
0000
0001
2000
0000
3000
0001
0100
,
0000
0100
0001
0100
0000
0000
0010
1000
,
0001
0000
0100
0000
0010
0000
1000
0001
,
1000
0000
0001
0000
0100
0000
0010
0100
,
0010
0000
1000
0000
0001
0100
0001
0000
,
2000
0000
0010
0000
3001
0000
0100
0100
,
0002
0000
1000
0000
0013
0000
1000
0001
,
2000
0010
3100
1000
,
1001
0000
0001
0000
1000
0010
1000
0010
,
1000
0000
0001
0000
0100
0000
0001
1000
,
0002
0000
0100
0000
0013
0000
0001
1000
,
0020
1000
0130
0001
,
1001
0000
1000
0000
0010
0100
0010
0100
,
0010
0000
1000
0000
0010
1000
0010
0100
,
0002
0000
0003
1000
0001
1000
0001
0100
,
0020
0000
0030
0100
0001
1000
1000
0001
,
2000
0000
3001
0000
0100
0010
1000
0000
,
0001
0100
0001
0000
1000
0100
0010
0100
,
2000
0000
3000
0001
1000
0010
0100
0010
,
0200
0000
0300
0001
1000
0010
0100
0010
,
2000
0000
3001
0000
0100
0000
0001
1000
,
0002
0000
0003
1000
0000
1000
0001
0000
,
1000
0000
0010
0100
0010
0000
0000
0000
,
0100
0010
1000
0001
,
0100
0000
0010
0100
0000
0010
0000
1000
,
0001
0000
0100
0000
0001
0000
1000
0001
,
1000
0000
0001
0100
0000
0100
0000
0100
,
0001
0000
1000
0010
0000
0010
0000
0010
,
1000
0000
0001
0000
1000
0000
0010
0100
,
0010
0000
1000
0001
1000
0000
0001
0100
,
0001
1000
0000
1000
,
0001
0100
0000
0010
,
0100
0000
0010
0100
0010
0000
0000
0000
,
0010
0000
1000
0001
1000
0000
0001
0000
,
0002
0000
1003
0100
,
0020
0000
0031
0100
,
0110
0000
0000
0010
,
1000
0000
0001
0000
0100
0010
0100
0010
,
2000
0000
3001
0000
0100
0010
1000
1000
,
0002
0000
0103
0000
0010
0100
0001
1000
,
0002
1003
2000
3001
,
0020
0000
0130
0000
1000
0100
1000
0100
,
2000
0000
3001
0000
0010
0001
0010
0001
,
0020
0000
0031
0000
1000
0001
1000
0000
,
0001
1000
0001
0000
0100
0010
0100
0000
,
0002
0000
0003
1000
0000
1000
0001
0000
,
1001
0010
0100
1000
,
0001
0100
0010
1000
,
1100
0100
0010
0001
,
0101
0000
0000
0000
;

//---------------dance-single - ----------------
#NOTEDATA:;
#CHARTNAME:;
#STEPSTYPE:dance-single;
#DESCRIPTION:;
#CHARTSTYLE:;
#DIFFICULTY:Hard;
#METER:12;
#RADARVALUES:0.474844,0.504317,0.206312,0.213953,0.164285,435.000000,408.000000,27.000000,28.000000,0.000000,0.000000,0.000000,0.000000,0.000000,0.474844,0.504317,0.206312,0.213953,0.164285,435.000000,408.000000,27.000000,28.000000,0.000000,0.000000,0.000000,0.000000,0.000000;
#CREDIT:;
#NOTES:
// measure 0
0000
0000
0000
0000
,  // measure 1
0000
0000
0000
0000
,  // measure 2
0110
0000
0000
0000
1000
0000
0001
0100
0001
0000
1000
0100
1000
0000
0001
0000
,  // measure 3
1001
0000
0000
0000
1000
0000
0001
0100
0001
0000
1000
0010
1000
0000
0001
0000
,  // measure 4
0200
0000
0310
1000
0001
0001
1000
0010
,  // measure 5
0110
0000
0001
1000
0010
0100
0101
0001
,  // measure 6
2001
0000
3100
0010
0000
0010
0001
1001
,  // measure 7
1001
0000
0010
0000
0100
0000
0020
0000
0000
0000
1030
0000
0001
0100
0001
0100
,  // measure 8
0010
0000
0000
1000
0000
0000
0001
0000
0100
0000
0010
0000
1000
0100
1000
0100
,  // measure 9
1000
0000
0000
0001
0000
0000
0100
0000
0000
0000
0010
0000
0100
0010
0100
0010
,  // measure 10
0100
0000
0000
0010
0000
0000
1000
0001
1000
0000
0001
0100
0001
0000
1000
0000
,  // measure 11
0020
0000
0030
0000
0100
0000
0010
0100
0010
0000
0100
0001
0100
0000
0000
0000
,  // measure 12
0002
0000
1003
0100
0010
0100
1000
0100
,  // measure 13
0001
0100
0010
0001
1000
1000
0002
0003
,  // measure 14
0101
0000
0000
0000
0100
0000
0001
0100
0001
0000
1000
0001
1000
0000
0000
0000
,  // measure 15
0110
0000
0000
0000
0010
0000
1000
0100
0010
0000
0001
0000
0100
0000
0001
0000
,  // measure 16
2000
3010
0100
0010
0001
1000
0001
1000
,  // measure 17
1001
0001
0100
0010
1000
0001
0020
0030
,  // measure 18
0110
0000
0000
0000
1000
0000
0000
0000
0001
0000
0100
0000
0010
0100
0000
0010
,  // measure 19
0000
0000
1000
0100
0010
0000
0001
0010
0000
0000
0001
0000
0010
0000
0100
0000
,  // measure 20
2000
0100
3100
0010
0001
0100
0001
0010
,  // measure 21
0002
0010
0100
0003
0001
1000
0001
0100
,  // measure 22
0110
0010
0100
0001
1000
1000
0001
0100
,  // measure 23
0010
0100
0020
1000
1030
0001
0100
0010
,  // measure 24
0200
0001
0301
1000
0100
0010
0001
0010
,  // measure 25
0200
0010
0310
0000
0001
1000
0001
0100
,  // measure 26
1010
0000
0010
0100
0001
0000
2000
0100
,  // measure 27
3100
0000
0100
0020
0000
0000
0031
0100
,  // measure 28
0010
0000
0000
1000
0010
0000
0000
0000
0100
0000
0001
0000
0000
0000
0001
0000
,  // measure 29
1000
0100
0100
1000
0001
0000
0100
0000
,  // measure 30
0101
0000
0000
0000
0001
0000
1000
0001
0000
0001
0100
0000
0010
0000
0100
0000
,  // measure 31
0101
0000
0200
0000
0310
0000
0100
0001
,  // measure 32
1001
1000
0010
0100
0001
0000
0100
0010
,  // measure 33
0110
0010
1000
1000
0001
0100
0001
0100
,  // measure 34
0001
0000
0000
0000
1000
0000
0010
1000
0000
0001
1000
0000
0010
0000
0100
0000
,  // measure 35
0101
0000
0000
0000
0001
1000
0001
0000
0000
0000
1000
0000
0100
0000
0010
0000
,  // measure 36
0011
0001
1000
0010
0001
0010
1000
0100
,  // measure 37
0010
0010
0001
0100
0010
1000
0002
0000
,  // measure 38
0103
0000
0000
0000
0010
0000
0100
0001
1000
0000
0001
0100
0001
0000
1000
0000
,  // measure 39
0010
0000
0100
0001
1000
0000
0100
0010
0100
0000
0010
0000
0001
0000
1000
0000
,  // measure 40
0002
0100
0100
0010
0013
0001
1000
0001
,  // measure 41
0200
0010
0010
1000
1300
0001
0100
0001
,  // measure 42
0010
0000
1000
0000
0010
0000
0001
0000
1000
0000
0100
0000
0010
0001
0000
0002
,  // measure 43
0000
0000
1003
0100
1000
0000
0010
0000
0100
0000
0001
0000
0100
0000
0010
0000
,  // measure 44
2020
3030
0100
0001
0001
0010
0100
1000
,  // measure 45
0020
0100
0130
0001
1000
0100
0010
0001
,  // measure 46
1001
1000
0010
0010
0100
0001
1000
1001
,  // measure 47
1001
0001
0200
0000
0310
0100
0001
0100
,  // measure 48
0020
1000
1030
0001
0100
0001
0100
0010
,  // measure 49
2000
0001
3001
0000
0100
0010
0001
0010
,  // measure 50
1000
1000
0001
0001
0100
0010
0200
0010
,  // measure 51
0310
0000
0100
0020
0000
0000
0130
0010
,  // measure 52
1001
0000
0000
0000
0001
0000
1000
0100
1000
0000
0100
1000
0100
0000
1000
0000
,  // measure 53
1001
0000
0010
0000
0001
0000
0100
0001
0010
0000
0001
0100
0010
0000
1000
0000
,  // measure 54
1010
0000
0010
0000
0100
0000
0001
0100
0010
0000
1000
0010
1000
0000
0001
0000
,  // measure 55
0101
0000
0000
0000
;
