#TITLE:Unmei no Paradox;
#SUBTITLE:;
#ARTIST:CapsColte;
#TITLETRANSLIT:;
#SUBTITLETRANSLIT:;
#ARTISTTRANSLIT:;
#GENRE:;
#CREDIT:from pop n music 22 Lapistoria;
#BANNER:LT_Unmei_no_paradox.png;
#BACKGROUND:;
#LYRICSPATH:;
#CDTITLE:;
#MUSIC:Unmei_no_Paradox.mp3;
#OFFSET:-0.398000;
#SAMPLESTART:44.568001;
#SAMPLELENGTH:20.000000;
#SELECTABLE:YES;
#BPMS:0.000000=190.000000
;
#STOPS:
;
#BGCHANGES:;
#KEYSOUNDS:;
#ATTACKS:;

//---------------dance-single - ----------------
#NOTES:
     dance-single:
     :
     Beginner:
     4:
     0.177245,0.305860,0.070674,0.070674,0.000000,158.000000,149.000000,9.000000,9.000000,0.000000,0.000000,0.177245,0.305860,0.070674,0.070674,0.000000,158.000000,149.000000,9.000000,9.000000,0.000000,0.000000:
0000
0000
0000
0000
,
0000
0000
0000
0000
,
0000
0000
0000
0000
,
0000
0000
0000
0000
,
0000
0000
0000
0000
,
0000
0000
0000
1000
0000
0000
0001
0000
,
0000
0100
0000
0010
,
0000
1000
0000
0001
,
0000
0100
0000
0010
,
0000
0100
0000
0000
,
0000
0000
0110
0000
,
0100
0000
0010
1000
,
0001
1000
0001
0000
,
1000
0000
0010
0000
,
0100
0000
0001
0000
,
1000
0000
0010
0000
,
1000
0000
0001
0000
,
0100
0000
0010
0000
,
1000
0000
2002
0000
,
3003
0000
0001
0000
,
1000
0000
0010
0000
,
1000
0000
0100
0000
,
0010
0000
0001
0000
,
1000
0000
0100
0000
,
0010
0000
0001
0000
,
0100
0000
0010
0000
,
1000
0000
0100
0000
,
0000
0000
1100
0000
,
0000
0000
0011
0000
,
0000
0000
1000
0000
,
1000
0000
0001
0000
,
0001
0000
1000
0000
,
1000
0000
0001
0000
,
0001
0000
0200
0000
,
0300
0000
0000
0000
,
0000
0000
0000
0100
0000
0000
0000
0000
,
0000
0010
0000
1000
,
0000
0001
0000
1000
,
0000
0100
0000
0010
,
0000
0001
0000
1000
,
0000
0001
0000
1000
,
0000
0001
0000
0010
,
0000
0100
0000
1000
,
0000
0000
0000
0001
0000
0000
0000
0000
,
0000
0000
1000
0000
,
0010
0000
1000
0000
,
0001
0000
0100
0000
,
0010
0000
1000
0000
,
0001
0000
1000
0000
,
0001
0000
0200
0000
,
0300
0000
0020
0000
,
0030
0000
0000
0000
,
0000
0000
0000
0000
,
0000
0000
0000
0000
,
1000
0000
0000
0000
,
0000
0001
0000
0000
,
1000
0000
0000
0010
,
0000
0000
0110
0000
,
0000
1001
0000
0000
,
1100
0000
0000
0011
,
0000
0000
0000
0001
,
0000
1000
0000
0010
,
0000
1000
0000
0100
,
0000
1000
0000
0001
,
0000
0010
0000
0001
,
0000
0100
0000
0001
,
0000
0100
0000
0010
,
0000
0100
0000
0001
,
0000
1000
0000
0001
,
0000
1000
0000
0100
,
0000
1000
0000
0100
,
0000
1000
0000
0100
,
0000
0010
0000
0001
,
0000
0100
0000
0010
,
0000
1000
0000
0001
,
0000
0100
0000
0000
,
0000
0000
0020
0000
,
0030
0000
1000
0000
,
0000
0000
1000
0000
,
0000
0000
0001
0000
,
0000
0000
1000
0000
,
0000
0000
1001
0000
,
0000
0000
0000
0000
,
0000
0000
0100
0000
,
0010
0000
0100
0000
,
0100
0000
0001
0000
,
1000
0000
1000
0000
,
0001
0000
0100
0000
,
0100
0000
0010
0000
,
0010
0000
1000
0000
,
0001
0000
0000
0000
,
0001
0000
1000
0000
,
0010
0000
1000
0000
,
0001
0000
0200
0000
,
0300
0000
0002
0000
,
1003
0000
2000
0000
,
0000
0000
0000
0000
,
0000
0000
0000
3000
0000
0000
0000
0000
;

//---------------dance-single - ----------------
#NOTES:
     dance-single:
     :
     Easy:
     8:
     0.314105,0.383797,0.141347,0.212021,0.000000,280.000000,262.000000,18.000000,27.000000,0.000000,0.000000,0.314105,0.383797,0.141347,0.212021,0.000000,280.000000,262.000000,18.000000,27.000000,0.000000,0.000000:
// measure 0
0000
0000
0000
0000
,  // measure 1
0000
0000
0000
0000
,  // measure 2
0000
0000
0000
0000
,  // measure 3
0000
0000
0000
0000
,  // measure 4
0000
0000
0000
0000
,  // measure 5
0000
0000
0000
1000
0000
0000
0001
0000
,  // measure 6
1000
0000
0100
0010
0000
0000
0010
0000
,  // measure 7
0001
0000
1000
0100
0000
0000
0100
0000
,  // measure 8
1000
0000
0010
0100
0000
0000
0000
0110
,  // measure 9
0000
0110
0000
0000
,  // measure 10
1000
0000
0000
0020
0000
0000
0030
0000
,  // measure 11
0100
0000
0001
0020
0000
0000
0030
0000
,  // measure 12
0001
0000
1000
0200
0000
0300
1000
0200
,  // measure 13
0000
0300
1000
0000
0010
0000
0100
0000
,  // measure 14
0001
0000
0000
2002
0000
0000
3003
0000
,  // measure 15
1000
0000
0210
0000
,  // measure 16
0310
0000
0000
0002
0000
0000
1003
0000
,  // measure 17
0000
0100
0010
0000
,  // measure 18
1000
0001
2001
0000
,  // measure 19
3100
0000
0010
0001
,  // measure 20
1000
0000
0000
0010
0000
0000
0000
1000
,  // measure 21
0000
1000
0000
0002
0000
0000
0003
0000
,  // measure 22
0010
0000
0000
2002
0000
0000
3003
0000
,  // measure 23
1000
0010
0100
0001
,  // measure 24
0010
0000
0000
0200
0000
0000
0300
0000
,  // measure 25
1000
0000
0010
1000
,  // measure 26
0001
0000
1000
0000
,  // measure 27
0002
0000
1003
0000
,  // measure 28
2100
0000
3010
0000
,  // measure 29
0201
0000
0310
0000
,  // measure 30
1002
0000
0103
0000
,  // measure 31
0001
1000
0100
0000
,  // measure 32
0100
1000
0001
0000
,  // measure 33
0100
0001
0010
0000
,  // measure 34
0010
0001
0100
0000
,  // measure 35
0100
0000
0000
0100
0000
0000
0010
0000
,  // measure 36
1000
0000
0000
0010
0000
0000
1000
0000
,  // measure 37
0001
0000
0000
0100
0000
0000
1000
0000
,  // measure 38
0100
0000
0000
0001
0000
0000
0010
0000
,  // measure 39
0100
0000
0000
1000
0000
0000
1000
0000
,  // measure 40
0001
0000
0000
1000
0000
0000
1000
0000
,  // measure 41
0001
0000
0000
1000
0000
0000
0010
0000
,  // measure 42
0100
0010
1000
0001
,  // measure 43
1000
1000
0001
0100
,  // measure 44
0010
0000
0000
1000
0000
0000
0001
0000
,  // measure 45
0100
0000
0000
0001
0000
0000
1000
0000
,  // measure 46
0100
0010
0001
0100
,  // measure 47
0010
0000
0000
1010
0000
0000
0000
0000
,  // measure 48
1000
0000
0000
1001
0000
0000
0001
0000
,  // measure 49
0100
0001
2000
0000
,  // measure 50
3020
0000
0230
0000
,  // measure 51
0301
0000
0100
0000
,  // measure 52
0010
0010
0000
1000
,  // measure 53
1000
0000
0000
1001
,  // measure 54
0000
0010
0100
0000
,  // measure 55
0001
0001
0000
1000
,  // measure 56
1000
0000
0010
0100
,  // measure 57
0000
0010
0100
0000
,  // measure 58
0000
0000
1000
0001
0000
0000
0000
0000
,  // measure 59
1000
0100
0000
0000
0000
0000
0011
0000
,  // measure 60
0001
1000
0100
0010
,  // measure 61
0000
0001
0100
0010
,  // measure 62
1000
0100
0010
0001
,  // measure 63
0000
0000
0000
1001
0000
0000
0001
0000
,  // measure 64
0000
0000
0100
0010
0000
0000
0100
0000
,  // measure 65
0000
0010
0100
0000
0000
0000
0001
0000
,  // measure 66
1000
0010
0100
0010
,  // measure 67
0100
0100
0001
1000
,  // measure 68
0010
0000
0000
1010
0000
0000
1000
0000
,  // measure 69
0000
1000
0001
1000
,  // measure 70
0001
0100
0010
0100
,  // measure 71
0000
0000
0000
0110
0000
0000
0100
0000
,  // measure 72
0000
0000
0010
1000
0000
0000
0010
0000
,  // measure 73
0000
0000
1000
0001
0000
0000
1000
0000
,  // measure 74
0000
0000
0001
0100
0000
0000
0001
0000
,  // measure 75
0100
0010
2000
0000
,  // measure 76
3001
0001
0200
0010
,  // measure 77
0310
1000
0001
0000
,  // measure 78
0100
0000
1000
0000
,  // measure 79
0100
0000
0001
0000
,  // measure 80
1000
0000
1010
0000
,  // measure 81
0001
0000
1000
0100
,  // measure 82
0010
0000
0100
0010
,  // measure 83
0001
0000
1000
0100
,  // measure 84
0010
0000
0010
0001
,  // measure 85
1000
0000
0000
1001
,  // measure 86
0000
1000
0100
0010
,  // measure 87
0001
0000
0000
1000
0000
0000
0001
0000
,  // measure 88
0010
0100
1000
0001
,  // measure 89
1000
0000
0000
1000
0000
0000
0001
0000
,  // measure 90
0100
0000
0000
0001
0000
0000
0100
0000
,  // measure 91
0001
1000
0100
0010
,  // measure 92
0001
1000
0100
0010
,  // measure 93
0001
1000
0200
0000
,  // measure 94
0320
0000
0032
0000
,  // measure 95
2003
0000
3010
0200
,  // measure 96
0000
0000
0000
0000
,  // measure 97
0000
0000
0000
0300
;

//---------------dance-single - ----------------
#NOTES:
     dance-single:
     :
     Challenge:
     17:
     0.926609,1.266530,0.785262,0.400484,0.553610,826.000000,726.000000,100.000000,51.000000,0.000000,0.000000,0.926609,1.266530,0.785262,0.400484,0.553610,826.000000,726.000000,100.000000,51.000000,0.000000,0.000000:
0000
0000
0000
0000
,
0000
0000
0000
0000
,
0000
0000
0000
0000
,
0000
0000
0000
0000
,
0000
0000
0000
0000
,
0000
0000
0000
1001
0000
1000
0001
0000
,
1000
0100
0010
0011
0000
0001
0010
0000
,
0100
0000
0000
1000
0000
0000
0100
0000
0000
0010
0000
0000
0001
0000
1000
0000
0001
0000
0100
0000
0010
0000
1000
0000
,
0001
0000
0010
0000
0100
0000
0010
0000
0000
0001
0000
0000
0000
0000
0000
1010
0000
0000
0000
0000
0000
0110
0000
0000
,
0110
0000
0100
0010
0100
0010
0100
0000
0001
0000
1000
0100
1000
0000
0001
1000
,
0001
1000
0000
0001
0000
0100
0010
1000
,
0100
0010
0001
0010
1001
0001
0001
0011
,
0001
0100
0100
1100
0000
0000
1000
0010
,
0100
0000
0001
0000
1000
0000
0100
0000
0110
0000
0001
0000
0100
0000
0001
0010
,
0001
0011
0000
2001
0000
0000
3010
0000
,
1001
0001
0101
0001
1010
0010
0010
1000
,
0001
0001
0010
0100
1000
0100
0010
0001
,
0101
0010
0100
0001
0110
0100
1000
0100
,
0100
0000
0010
0001
0010
0001
0010
0001
0100
0000
0000
0000
0010
0000
1000
0000
,
0100
0010
0001
1000
0010
0100
0001
1000
,
0100
0010
0001
0011
0000
1000
0100
1100
,
0000
0000
1000
0000
0100
0000
0011
0000
0001
0000
0100
0000
0010
1000
0010
1000
,
0010
1000
0000
2100
0000
3100
0010
0001
,
1001
0001
0001
0001
0101
0001
0001
0100
,
0110
0001
0010
1100
0000
1000
1001
0000
,
0100
0000
0001
0000
0100
0010
0100
0010
1000
0000
0001
1000
0001
1000
0001
0000
,
1000
0000
0001
0100
0010
1000
0001
1000
0001
0000
0000
1100
0000
0000
0001
0010
,
0200
0000
0000
0000
0000
0000
0300
0000
1100
0000
0000
0110
0000
0000
0001
1000
,
0200
0000
0000
0000
0000
0000
0300
0000
0011
0000
0000
0110
0000
0000
0001
0100
,
0020
0000
0000
0000
0000
0000
0130
0000
0010
1000
0010
1000
0010
1000
0010
1000
,
0010
0000
0100
0000
0001
0100
0001
0000
0100
0000
0000
0010
0000
0000
1000
0100
,
0020
0000
0000
0000
0000
0000
0031
0000
0110
0000
0000
1010
0000
0000
1000
0100
,
0010
0000
0001
0000
1000
0000
0100
0010
0002
0000
0000
0100
0003
0000
0010
0100
,
0010
0000
1000
0001
1000
0000
0002
0000
0003
0000
0110
0000
0110
0000
0000
0000
,
1000
0000
0100
0000
0010
0100
1000
0100
0010
0001
1000
0100
1000
0100
1000
0100
,
0010
0001
0100
0020
0000
1030
0110
0000
,
1001
0001
0010
0200
0000
0300
1010
0000
,
0001
0100
0010
0200
0000
0300
0011
0000
,
0100
0000
0001
0000
0010
0001
0020
0000
0000
0000
0031
0000
1000
0000
0100
0010
,
0001
0010
0001
0000
0000
0000
1010
0000
0000
0000
0010
0000
1001
0000
0001
0000
,
0010
0100
0100
1000
0100
0010
0100
0001
,
0100
0010
0001
0100
1000
0100
0001
0010
,
0100
0000
1001
0000
0000
0000
0110
0000
0000
0000
1000
0000
0001
0100
0001
0100
,
0010
1000
0100
0010
0001
1000
0100
0000
0000
0000
0010
0000
0011
0000
0000
0000
,
0010
0001
1000
1100
0000
0100
0101
0001
,
1000
0001
1000
1100
0000
0100
0110
0000
,
0010
0001
0010
0002
0000
1003
0010
0100
,
0010
0100
0010
0000
0000
0000
0110
0000
0000
0000
0100
0000
1001
0000
0010
0000
,
0001
0010
0100
1001
0100
0010
1000
0100
,
0100
0000
0010
0000
0001
0000
1000
0100
1000
0100
1000
0100
1000
0100
0010
0001
,
0010
0001
0010
0000
0001
0000
1000
0100
0010
0001
1000
0100
0010
0001
1000
0100
,
1000
0100
0010
0001
0010
0001
1000
0000
1001
0000
0000
0000
0001
0000
0010
0100
,
1000
0000
0100
1000
0002
0000
0003
0000
0100
0000
0010
0100
0020
0000
0030
0000
,
2020
0000
3030
0000
0001
0000
1000
0100
0010
0000
0100
0010
0002
0000
0003
0000
,
1000
0100
0010
0100
2000
0000
3000
0000
1001
0000
0000
0000
0100
0000
0001
0010
,
0100
0000
0010
0100
2000
0000
3000
0000
0001
0010
0100
0010
0002
0000
0003
0000
,
2002
0000
3003
0000
0100
0000
0010
0100
0010
0000
0100
0010
0200
0000
0300
0000
,
0001
0010
0100
1000
0002
0000
0003
0000
1010
0000
1010
0000
0000
0000
0220
0000
,
0330
0000
0000
0000
1100
0000
1001
0000
0000
0000
0022
0000
0033
0000
1000
0100
,
1000
0200
0300
2001
0000
3001
0100
0001
,
1000
0100
0100
1100
0000
0100
0110
0010
,
0011
0001
0001
0001
0101
0010
1000
0010
,
1010
0100
0100
0101
0000
0001
0010
0100
,
1001
1001
0000
2100
0000
3100
0010
0000
,
0001
0100
0010
2000
0000
3010
0010
0000
,
1000
0000
0001
0000
0100
0000
0001
0100
0001
0100
0010
0000
1000
0100
1000
0100
,
0010
0001
0010
1001
0000
0010
0110
0000
,
0001
0000
1000
0100
1000
0010
1000
0001
1000
0000
0000
0000
0010
0000
0100
0000
,
0001
1100
1000
1010
0000
0010
1001
0000
,
0100
0010
1000
1000
1001
0100
1000
0100
,
0001
0000
0010
0000
0100
0000
1001
0000
0000
0000
1000
0000
1100
0000
0001
0010
,
0001
0010
0001
0000
0000
0000
2000
0000
3000
0000
0010
0000
0110
0000
0000
0000
,
0001
1000
0100
0011
0000
0001
0011
1000
,
0100
0000
0010
0000
0011
0000
0001
0000
0010
0000
0001
0000
1000
0100
1000
0000
,
0010
0100
0010
0000
0100
0001
0100
0000
0000
0000
0001
0000
0101
0000
0001
0010
,
0100
1000
0001
0000
1000
0100
0010
0001
1000
0000
0000
1001
0000
0000
0001
0100
,
0002
0000
0000
0000
0003
0000
0000
0000
1010
0000
0000
1001
0000
0000
0100
0010
,
0200
0300
0001
0100
,
0100
0000
0010
0000
1000
0000
0010
0000
0100
0010
1000
0000
0001
0000
0010
0000
,
0001
0000
1000
0000
0100
0000
0010
0000
0001
0010
0001
0000
1000
0000
0100
0000
,
0010
0000
0100
0000
0010
0000
0001
0000
0010
0001
0010
0000
0001
0000
0010
0000
,
0100
1000
0000
1000
0200
0300
0010
0000
,
0001
0000
0011
0000
0000
0000
0202
0000
0000
0000
0303
0000
0100
0000
0010
0100
,
0001
0100
0001
2020
3030
1000
0010
2000
,
3001
0000
0010
0000
0001
0000
0100
0000
0010
0100
0010
0000
1000
0100
1000
0000
,
0001
0010
0001
0010
0001
0010
0001
0000
0000
0000
1000
0001
0200
0000
0300
0000
,
0020
1030
0100
0022
0033
0001
0010
0100
,
0010
0001
1000
1100
0000
0100
1100
1000
,
0110
0000
0010
0000
0001
0000
0101
0000
0000
0000
0100
0000
0010
0000
1000
0100
,
1000
0010
1000
0000
0000
0000
2010
0000
0000
0000
3100
0000
0001
0000
0100
0000
,
0010
0001
1000
0110
0000
0010
0100
0001
,
0010
0000
0001
0000
1000
0000
0100
0000
1000
0100
0010
0100
1000
0001
0100
0001
,
0100
0010
1000
0100
0010
0001
0010
0001
0010
0100
1000
0010
0100
0010
1000
0100
,
0010
0001
0100
0010
0100
0001
0100
0010
0100
0000
0000
0101
0000
0000
1000
0010
,
0200
0000
0000
0000
0320
0000
0030
0000
1001
0000
0000
1100
0000
0000
1000
0001
,
0010
0000
0010
0001
0100
0000
0100
0010
1000
0000
0100
0000
0220
0000
0000
0000
,
0000
0000
0000
0000
,
0000
0300
0000
0000
0000
0000
0030
0000
;

//---------------dance-single - ----------------
#NOTES:
     dance-single:
     :
     Hard:
     14:
     0.673082,0.844353,0.486863,0.337663,0.145274,600.000000,538.000000,62.000000,43.000000,0.000000,0.000000,0.673082,0.844353,0.486863,0.337663,0.145274,600.000000,538.000000,62.000000,43.000000,0.000000,0.000000:
0000
0000
0000
0000
,
0000
0000
0000
0000
,
0000
0000
0000
0000
,
0000
0000
0000
0000
,
0000
0000
0000
0000
,
0000
0000
0000
1000
0000
0001
0001
0000
,
1000
0100
0010
0001
0000
1000
0010
0000
,
0010
0100
0001
0101
0000
0010
1000
0000
,
1000
0100
0010
0100
0000
0010
0000
0001
,
1000
1001
0010
0100
,
0010
1000
0000
0002
0000
0103
0010
0100
,
0010
0000
1000
0020
0000
0130
0001
0100
,
0001
0000
1000
0200
0000
0300
0010
0002
,
0000
1003
0000
1000
0000
0010
1000
0010
,
0100
0002
0003
0202
0000
0303
0000
0000
,
1000
0100
0010
0100
2000
0000
3000
0001
,
0010
0100
0010
0002
0000
0103
0010
0000
,
1001
0000
0110
0000
0001
0100
0001
1000
,
0100
1000
0001
0100
0201
0000
0000
0300
,
0010
1000
0100
0010
0001
0000
0001
0100
,
1000
0100
0001
2000
0000
3000
0010
1010
,
0000
0101
0000
0002
0000
0103
0010
1000
,
0001
1001
0000
2100
0000
3100
0010
0000
,
0010
0001
0010
0000
0010
0100
0010
0001
,
0010
0000
0001
1000
1000
0100
0020
0000
,
0001
0000
0100
0030
0010
0001
1000
0000
,
0001
0000
0100
0000
0010
0100
0010
0000
0100
0000
0000
0010
0000
0000
1000
0001
,
2000
0000
0000
0000
0000
0000
3000
0000
0001
0000
0000
1000
0000
0000
0100
1000
,
0200
0000
0000
0000
0000
0000
0300
0000
0020
0000
0000
0000
0030
0000
0001
0010
,
0002
0000
0000
0103
0010
0100
0010
1000
,
0001
0000
1000
0000
0001
0000
0000
0000
0100
0000
0000
0010
0000
0000
1000
0100
,
2000
0000
0000
0000
0000
0000
3000
0000
0001
0000
0000
0100
0000
0000
0001
0100
,
0002
0000
0000
0003
1000
0100
0010
0100
,
1000
0100
0100
0010
0010
0001
0010
0001
,
0010
0000
0100
0000
1000
0000
0000
0000
0100
1000
0100
1000
0100
0000
0000
0000
,
1000
0100
0010
0011
0000
1000
0100
0001
,
0010
0000
1000
1100
0000
0001
0010
0001
,
0001
0100
0010
0110
0000
1000
0100
0010
,
0100
0000
0010
0011
0000
0001
0100
0000
,
0110
0110
0000
1001
0000
1000
0100
0000
,
0010
0001
1000
1100
0000
0010
0010
0100
,
0001
0010
0100
1001
0000
0000
0100
0110
,
0000
0010
0010
1001
0000
1001
0100
0000
,
0010
1001
0000
1001
0000
0100
0010
0000
,
0100
0001
0010
0110
0000
0100
1000
0001
,
0010
1000
0010
0011
0000
1000
1100
0000
,
0010
0100
0010
0001
0000
0001
0101
0000
,
0010
0110
0000
2000
3000
0010
0100
0001
,
1000
0001
0100
0101
0000
0001
0100
0000
,
0110
0000
0000
0000
1100
0000
0000
0000
1000
0100
1000
0100
1000
0000
0000
0000
,
0001
0010
0001
0010
0001
0000
0000
0000
0100
0010
0100
0010
0100
0000
0000
0000
,
0010
0100
0010
0100
0010
0000
0000
0000
0100
0000
0000
0000
0010
0000
0100
0010
,
0100
0000
0010
0100
0010
0000
0000
0000
0000
0000
0000
0000
0110
0000
0000
0000
,
1001
0000
0000
0000
0001
0000
1000
0001
1000
0000
0001
1000
0001
0000
0000
0000
,
0000
0000
0000
0000
1010
0000
0000
0000
1001
0000
0000
0000
1000
0000
0001
1000
,
0001
0000
1000
0001
1000
0000
0000
0000
0000
0000
0000
0000
0101
0000
0000
0000
,
1001
0000
0000
0000
1000
0000
0001
0100
0001
0000
0100
0001
0100
0000
0000
0000
,
0000
0000
0011
0000
1001
1001
0000
0101
,
0000
0000
1010
1010
0000
1010
0000
0000
,
1000
0010
0000
0020
0030
0100
0001
0010
,
0001
1000
0100
0020
0030
0001
0010
0100
,
0010
0001
1000
0100
0010
0100
0010
0100
,
0000
0010
0001
0020
0030
0010
0100
0000
,
1000
1010
0000
1001
0000
0001
0101
0000
,
0010
0100
0010
0200
0300
0010
0100
0000
,
0001
0010
0100
2000
3000
0001
0101
0000
,
1000
0010
0100
0002
0003
1000
1001
0000
,
0100
0010
0100
0000
0002
0003
1000
0100
,
0010
0001
1000
1020
0000
0000
1030
0100
,
0001
0100
1000
0010
0001
0000
0010
1000
,
0001
0100
0010
0210
0000
0000
0310
0000
,
1000
1000
0000
0002
0003
0100
0110
0000
,
0010
0100
0010
2000
0000
0001
0001
0000
,
3001
0010
0100
1000
0000
1000
0110
0000
,
0001
0010
0100
0010
0000
0001
2000
0000
,
3002
0000
0000
0000
0203
0000
0000
0000
0310
0000
0000
0010
0000
0000
0100
0010
,
0200
0000
0000
0000
0000
0000
0300
0000
0001
0000
0000
0001
0000
0000
1000
0001
,
2000
0000
0000
3000
0010
0000
0100
0000
,
0001
0100
0000
0100
0001
0000
1000
0000
,
1000
0010
0000
0010
1000
0000
0001
0000
,
0100
0000
0001
0010
0000
0010
0100
0000
,
1000
0100
0000
0100
0110
0000
0010
0000
,
0001
0010
0000
0210
0000
0300
1000
0000
,
0001
0100
0010
0100
0000
0010
0100
0001
,
0000
1000
0100
0010
0000
0001
0001
0000
,
1000
0100
1000
0010
0000
0000
0110
0000
,
0100
0010
0100
0001
0100
0010
0100
1000
,
0100
0001
1000
0020
0030
0100
0010
0000
,
0100
0010
1000
0100
0010
0001
0100
0010
,
0010
0100
0000
0220
0330
0010
0100
0000
,
0001
0010
0100
1000
0000
0001
0010
0100
,
1000
0001
0010
0100
1000
0001
0010
0100
,
1000
0100
1000
0100
1000
0010
0100
0001
,
0100
0000
0010
0100
0010
0000
0000
0000
0101
0000
0000
0101
0000
0000
0001
0100
,
0002
0000
0000
0000
0000
0000
0003
0000
0110
0000
0000
0110
0000
0000
0100
0001
,
0100
0000
0001
0000
1000
0100
0020
0000
,
0000
0000
0000
0000
,
0000
0000
0000
0030
;

//---------------dance-single - ----------------
#NOTES:
     dance-single:
     :
     Medium:
     12:
     0.531735,0.575695,0.227726,0.274842,0.027484,474.000000,445.000000,29.000000,35.000000,0.000000,0.000000,0.531735,0.575695,0.227726,0.274842,0.027484,474.000000,445.000000,29.000000,35.000000,0.000000,0.000000:
0000
0000
0000
0000
,
0000
0000
0000
0000
,
0000
0000
0000
0000
,
0000
0000
0000
0000
,
0000
0000
0000
0000
,
0000
0000
0000
1000
0000
0000
0001
0000
,
1000
0100
0010
0001
0000
0001
0010
0000
,
0100
1000
0100
0010
0000
0010
0001
0000
,
0100
0010
1000
0001
0000
1000
0000
0001
,
1000
1010
0000
0000
,
1000
1000
0000
0020
0000
0000
0130
0000
,
0001
0100
0001
0010
0001
0000
1000
0100
,
0010
0000
0100
0020
0000
0030
0001
1000
,
0000
0100
1000
0010
0100
0000
0010
0100
,
0010
0100
0000
0020
0000
0000
0130
0000
,
0001
0010
0100
1000
0000
0100
0010
0100
,
0010
0001
1000
0001
0000
0001
0100
0000
,
0010
1000
0100
0010
0000
0001
0100
0000
,
0010
0000
1010
0000
0200
0000
0010
0300
,
0010
0100
0010
0100
0001
0000
0001
1000
,
0100
0000
0010
0002
0000
0003
1000
0100
,
1000
0000
0100
0001
0100
0000
0010
0001
,
0100
0001
0000
2000
0000
0000
3001
0000
,
0100
0010
1000
0001
0000
1000
0100
0010
,
0001
0000
1000
0100
0000
0010
0001
0000
,
1000
0100
1000
0010
0000
0010
0100
0001
,
0010
0000
0001
0000
0010
0000
0000
0000
0001
0000
0000
1000
0000
0000
0001
0000
,
2000
0000
0000
0000
3000
0000
0000
0000
1000
0000
0000
1100
0000
0000
0100
0000
,
2000
0000
3000
0000
0020
0000
0031
0100
,
0000
0010
0000
1000
0000
0010
1000
0010
,
2000
0000
0000
0000
3002
0000
0000
0000
0103
0000
0000
0100
0000
0000
0010
0000
,
0020
0000
0000
0000
0030
0000
0000
0000
1000
0000
0000
1001
0000
0000
0001
0000
,
0200
0000
0000
0000
0300
0000
0000
0000
0001
0000
0000
0010
0000
0000
0001
0000
,
0020
0030
0001
1000
,
0010
0000
0000
0000
0100
0000
0010
0000
0200
0000
0000
0000
0000
0000
0000
0300
,
0010
0100
0010
1000
0000
0000
0010
0000
,
1000
0010
0000
1010
0000
0000
1000
0000
,
0001
0010
0100
0010
0000
0000
0001
0000
,
1000
0010
0100
0010
0000
0100
0010
0000
,
0100
0100
0000
0020
0000
0030
1000
0000
,
0001
1000
0001
1000
0000
0000
1000
0000
,
0001
0010
0000
0110
0000
0000
1000
0100
,
0000
0010
0000
0001
0000
1000
0001
0000
,
0100
0001
0100
0010
0000
0000
1000
0000
,
0010
0100
0010
1000
0000
1000
0001
0000
,
0010
0001
0000
0011
0000
0000
1000
0000
,
0110
0000
0010
0100
0000
0000
0101
0000
,
0001
0001
0000
1001
0000
0000
1000
0000
,
1000
0100
0010
0001
0000
0000
0001
0010
,
0100
0000
1100
0000
0100
0000
0010
0002
,
0000
0000
1003
0100
1000
0000
0010
0100
,
0001
1000
1010
0100
,
0010
0100
0010
0000
0100
0010
1000
0000
,
1001
0000
0010
0001
0100
0001
0100
0000
,
0010
0100
0010
0000
0101
0000
0001
0000
,
1000
0010
0100
0000
0010
1000
0001
0000
,
1010
0000
0001
0010
0100
1000
0100
0000
,
0100
0010
0001
0000
0011
0000
0000
0011
,
0000
0000
1000
0100
0000
1100
0000
0000
,
1000
0100
0000
2000
0000
3000
0001
0010
,
0000
0100
0000
1000
0000
1000
0100
0000
,
0010
0000
0001
0000
0011
0000
0010
0100
,
0000
1000
0000
0100
0000
0010
0001
0000
,
0010
0100
0000
0010
0000
0001
0100
0000
,
0010
0100
0010
0010
0000
1000
0010
0000
,
0100
0010
0100
0100
0000
0001
0100
0000
,
0010
0100
0010
0010
0000
0100
0010
1000
,
0001
0000
0201
0000
0301
0000
1000
0010
,
0000
1000
0000
0010
0000
1000
0100
0010
,
0001
0000
1000
0001
0100
0000
0010
1000
,
0000
0001
0100
0010
0000
0100
0010
0000
,
0010
0100
0000
0110
0000
0001
1000
0000
,
0001
0010
0001
0010
0000
0001
1000
0100
,
1000
0000
1000
0010
0000
0100
0001
0010
,
0001
0000
0010
0100
1000
0100
0010
0000
,
0001
0000
0020
0000
0230
0000
0000
0300
,
2000
0000
0000
3000
0020
0000
0000
0000
,
0130
0010
1000
0001
0000
0000
1000
0000
,
0100
0010
0000
0002
0000
0003
1000
0000
,
0010
0100
0000
0020
0000
0030
0100
0000
,
0001
0000
1000
0200
0000
0300
0000
0000
,
0001
0010
0000
0100
1000
0000
0100
0000
,
0010
0001
0000
0012
0000
0003
0100
0000
,
0100
0010
0000
0020
0000
0000
0000
0100
,
0030
0100
0000
0020
0000
0000
0030
0000
,
1000
0100
0010
0001
0000
0000
1001
0000
,
0100
1000
0000
0210
0000
0300
0001
0000
,
1000
0001
1000
0001
0000
0000
1000
0000
,
0010
0100
0010
0010
0000
1000
0001
0000
,
1000
1000
0000
1100
0000
0000
0010
0000
,
0100
0001
0100
0001
0000
0000
0101
0000
,
0001
0000
1000
0100
0010
0000
0011
0000
,
0110
0000
1000
0100
1000
0000
0001
0000
,
0101
0000
0000
0000
1000
0000
0010
0000
0200
0000
0000
0310
0000
0000
0010
0000
,
0020
0000
0000
0000
0000
0000
0030
0000
0200
0000
0000
0310
0000
0000
0100
0000
,
0200
0000
0000
0300
0010
1000
0020
0000
,
0000
0000
0000
0000
,
0000
0000
0000
0030
;
