#TITLE:Umi no uta;
#SUBTITLE:;
#ARTIST:Azumi Mekaru;
#TITLETRANSLIT:;
#SUBTITLETRANSLIT:;
#ARTISTTRANSLIT:;
#GENRE:;
#CREDIT:from pop n music 10;
#BANNER:Azumi Mekaru - Umi no uta.png;
#BACKGROUND:;
#LYRICSPATH:;
#CDTITLE:Popn_music_10_logo_small.png;
#MUSIC:Azumi Mekaru - Umi no uta.ogg;
#OFFSET:-0.637000;
#SAMPLESTART:18.652002;
#SAMPLELENGTH:16.000000;
#SELECTABLE:YES;
#BPMS:0.000000=110.000000
;
#STOPS:
;
#BGCHANGES:;
#KEYSOUNDS:;
#ATTACKS:;

//---------------dance-single - ----------------
#NOTES:
     dance-single:
     :
     Beginner:
     1:
     0.066641,0.085383,0.000000,0.016660,0.000000,56.000000,56.000000,0.000000,2.000000,0.000000,0.000000,0.066641,0.085383,0.000000,0.016660,0.000000,56.000000,56.000000,0.000000,2.000000,0.000000,0.000000:
0000
0000
0000
0000
,
0000
0000
0000
0000
,
0000
0000
0000
0000
,
0000
0000
0000
0000
,
0000
1000
0000
0000
,
0000
0001
0000
0000
,
0000
1000
0000
0000
,
0000
0100
0000
0000
,
0000
0010
0000
0000
,
0000
0001
0000
0000
,
0000
0010
0000
0000
,
0000
0100
0000
0000
,
0000
0001
0000
0000
,
0000
1000
0000
0000
,
0000
0001
0000
0001
,
0000
0001
0000
0000
,
0000
1000
0000
1000
,
0000
1000
0000
0000
,
0000
0010
0000
0010
,
0000
0010
0000
0000
,
0000
2000
0000
3000
,
0000
0001
0000
0001
,
0000
0001
0000
0000
,
0000
0001
0000
0000
,
0000
1000
0000
0100
,
0000
1000
0000
0000
,
0000
0001
0000
0010
,
0000
0001
0000
0000
,
0000
0001
0000
0000
,
0000
1000
0000
0000
,
0000
1000
0000
0000
,
0000
0001
0000
0000
,
0000
0200
0000
0300
,
0000
0001
0000
0000
,
0000
1000
0000
0000
,
0000
0001
0000
0000
,
0000
1000
0000
0000
,
0000
0001
0000
0000
,
0000
1000
0000
0000
,
0000
0001
0000
0000
,
0000
0001
0000
0001
,
0000
0001
0000
0000
,
0000
1000
0000
1000
,
0000
1000
0000
0000
,
0000
0001
0000
0000
,
0000
1000
0000
0000
,
0000
0001
0000
0000
,
0000
1000
0000
0000
,
0000
0001
0000
0000
,
0000
1000
0000
0000
,
0000
0001
0000
0000
,
0000
1000
0000
0000
;

//---------------dance-single - ----------------
#NOTES:
     dance-single:
     :
     Easy:
     3:
     0.159461,0.192112,0.049980,0.058310,0.000000,134.000000,128.000000,6.000000,7.000000,0.000000,0.000000,0.159461,0.192112,0.049980,0.058310,0.000000,134.000000,128.000000,6.000000,7.000000,0.000000,0.000000:
0000
0000
0000
0000
,
0000
0000
0000
0000
,
0000
0100
0000
0000
,
0000
0100
0000
0010
,
0100
0000
2000
0000
0000
3000
0001
0000
,
0100
0001
0010
0001
,
1000
1000
0001
0000
,
0100
0100
0100
0000
,
0010
0010
0010
0100
,
0000
0001
1000
0100
,
0000
0010
0001
1000
,
0000
0100
0010
0001
,
0000
0010
0001
1000
,
0000
0100
0010
0001
,
0000
0010
0100
1000
,
0000
0010
0100
0001
,
0000
1001
0000
1000
,
0000
1000
0000
0001
,
0000
0110
0000
0010
,
0000
0000
0200
0000
0000
0300
0000
0000
,
0000
0001
0001
0001
,
0000
1000
0001
1000
,
0000
0001
0010
0001
,
0000
0001
0010
0100
,
1000
0001
0000
0100
,
0000
0001
0000
0010
,
0000
0001
0000
1000
,
0000
0100
0001
0100
,
0000
1000
0000
0001
,
0000
1000
0100
0010
,
0001
1000
0000
1000
,
0100
0000
0020
0000
0000
0030
0000
0000
,
0000
0200
0000
0301
,
0000
1000
1000
1000
,
1000
1000
0000
0001
,
0001
0001
1000
0001
,
0000
2000
0000
3001
,
0100
0001
0000
0100
,
0001
0100
0000
0010
,
1000
0010
0000
0100
,
0000
0101
0000
0100
,
0000
0101
0000
0100
,
0000
0001
1000
1000
,
0001
1000
0000
0001
,
0001
1001
0000
1000
,
0000
1100
0000
0100
,
0000
0001
0000
0100
,
0010
0100
0000
0010
,
0000
0200
0000
0300
,
0000
0002
0000
0003
,
0000
1000
0000
0001
,
0000
1000
0000
0000
;

//---------------dance-single - ----------------
#NOTES:
     dance-single:
     :
     Medium:
     9:
     0.357003,0.362879,0.133281,0.083301,0.087466,300.000000,284.000000,16.000000,10.000000,0.000000,0.000000,0.357003,0.362879,0.133281,0.083301,0.087466,300.000000,284.000000,16.000000,10.000000,0.000000,0.000000:
0000
0000
0000
0000
,
0000
0000
0000
0000
,
0000
0000
0100
0000
0100
0100
0000
0010
,
0100
0020
0000
0030
0000
0100
0100
0000
,
0010
1000
0100
0001
,
0100
0000
0000
0000
1000
0000
0000
1000
0000
0000
0010
0000
0010
0000
0000
0000
,
0100
0000
0000
0000
0001
0000
0000
0001
0000
0000
1000
0000
1000
0000
0000
0000
,
0010
0000
0000
0000
0100
0000
0000
0001
0000
0000
0001
0000
0001
0000
0000
0000
,
1000
1001
0010
1000
,
0100
0000
0010
0000
0001
0000
0000
1000
0000
0000
0001
0000
0100
0000
0000
0010
,
0000
0000
0000
0000
1000
0000
0000
0100
0000
0000
0010
0000
0010
0000
0000
0000
,
0001
0000
0100
0000
0010
0000
0000
0010
0000
0000
1000
0000
0001
0000
0000
0000
,
0100
0000
0010
0000
0100
0000
0000
0010
0000
0000
0100
0000
0110
0000
0000
0000
,
0001
0000
1000
0000
0001
0000
0000
1000
0000
0000
0001
0000
1001
0000
0000
0000
,
1000
0000
0020
0000
0130
0001
0100
0000
,
0010
1000
0020
0000
0100
0000
1030
0001
,
1000
0001
1001
0000
0001
0000
0001
0100
,
0001
0100
0020
0000
0130
0000
0001
0010
,
0001
0010
1000
0000
0010
0000
0001
0010
,
0100
0000
1000
0100
0020
0001
0031
0000
,
0001
0000
0000
0000
1001
0000
0000
0001
0000
0000
1000
0000
1000
0000
0000
0000
,
0001
0000
0100
0000
0010
0000
0000
0100
0000
0000
0100
0000
0100
0000
0000
0000
,
0001
0000
0010
0001
1000
0000
0100
1000
,
0001
2000
3100
0100
,
0001
0000
1000
0100
1000
0100
1000
0000
,
0001
0010
0001
0000
0010
0001
0100
0000
,
0010
0000
1000
0100
0001
0100
0010
0000
,
0001
0100
0001
0100
0100
0000
0010
0000
,
0110
0200
0301
0100
,
0001
1000
0001
0000
1000
0000
1001
0000
,
0001
1000
1001
0000
0001
0100
0101
0000
,
0010
0001
0200
0000
0000
0000
0301
0100
,
0001
0000
0101
0000
1100
0000
0010
0001
,
0001
0000
0100
0000
0010
0000
0000
0010
0000
0000
0100
0000
0010
0000
0000
0100
,
0000
0010
0100
0000
0100
0001
0100
0001
,
1000
0001
0010
0100
1000
0001
0010
0001
,
0010
0001
1000
0000
1100
0000
0010
0001
,
0100
0000
0001
0001
0010
0010
0100
1000
,
0100
0000
1000
1000
0100
0100
0010
0001
,
0010
0001
0101
0010
,
0100
0000
1001
0000
0001
0100
0001
0100
,
0010
1000
0100
0010
0010
0001
0010
0100
,
1000
0001
0001
1000
0100
0010
0001
1000
,
1000
0001
1000
0010
0001
0010
1000
0000
,
0100
0100
2000
0000
0000
0020
3000
0030
,
0010
0000
0100
0000
0001
0000
0000
0001
0000
0000
0100
0000
1001
0000
0000
1000
,
0000
0010
1001
0000
1000
0010
0010
0100
,
0001
0100
0010
0000
1000
0010
0100
0001
,
0010
0000
0100
0000
1000
0000
0000
0100
0000
0000
0010
0000
0001
0000
0000
0010
,
0000
0000
0100
0000
1000
0000
0000
0100
0000
0000
0010
0000
0001
0000
0000
0010
,
0000
0000
0100
0000
1000
0000
0000
0100
0000
0000
0010
0000
0001
0000
0000
0001
,
0000
1000
0010
0000
0000
0000
0000
0000
;

//---------------dance-single - ----------------
#NOTES:
     dance-single:
     :
     Hard:
     11:
     0.428404,0.469608,0.166601,0.208252,0.179097,360.000000,340.000000,20.000000,25.000000,0.000000,0.000000,0.428404,0.469608,0.166601,0.208252,0.179097,360.000000,340.000000,20.000000,25.000000,0.000000,0.000000:
// measure 0
0000
0000
0000
0000
,  // measure 1
0000
0000
0000
0000
,  // measure 2
0000
0000
0100
0000
0100
0002
0000
0013
,  // measure 3
0100
0000
0020
0000
0001
0000
0030
0001
0000
0000
0100
0000
0100
0010
0100
0000
,  // measure 4
0010
0100
0010
0000
1000
0000
0000
1000
0000
0000
0100
0000
0001
0000
0000
0000
,  // measure 5
0100
0000
1000
0000
0001
0000
0000
0100
0000
0000
0010
0000
0100
0000
0001
0000
,  // measure 6
0100
0000
0020
0000
1030
1000
0001
0000
,  // measure 7
0001
0000
0001
0000
0100
0000
0001
0000
0100
0000
0000
0000
0001
0100
0001
0100
,  // measure 8
0002
0003
1001
0000
1010
0000
1000
0000
,  // measure 9
0100
0000
0010
0000
0001
0000
0100
0000
0010
0000
0100
0000
0000
0001
0010
0000
,  // measure 10
0000
0100
2000
0000
3010
0100
0000
0100
,  // measure 11
0002
0000
0010
0000
0013
0000
0000
0100
0000
0000
1000
0000
0100
0010
0100
0000
,  // measure 12
0001
0000
0100
0000
0010
0000
0000
0001
0000
0000
0100
0000
0110
0000
0000
0000
,  // measure 13
0100
0000
0001
0000
0101
0000
0000
1000
0000
0000
0001
0000
1000
0000
0100
0000
,  // measure 14
1000
0000
0002
0000
0103
0010
0100
0000
,  // measure 15
0010
1000
0020
0000
0130
0001
1000
0100
,  // measure 16
1000
0000
0001
0000
0101
0000
0100
0000
0001
0000
0100
0001
0000
0000
0100
0000
,  // measure 17
0001
0000
0100
0000
0110
0000
0000
0200
0000
0000
0001
0000
0301
0000
0010
0000
,  // measure 18
0001
0000
0010
0000
0110
0000
1000
0000
0010
0000
0100
0001
0000
0000
0010
0000
,  // measure 19
0001
1000
0100
0010
0022
0000
0033
0000
,  // measure 20
0001
0000
2002
0000
3000
0000
1003
1000
,  // measure 21
0001
0000
0100
0000
0020
0000
0000
0030
0200
0000
0000
0300
0001
0000
1000
0000
,  // measure 22
0100
1000
0010
0001
1000
0100
0010
1000
,  // measure 23
0100
0010
1000
0001
0100
1000
0100
0001
,  // measure 24
0100
0000
1000
0000
0001
0000
0100
0000
0101
0000
0100
0001
0000
0000
0100
0000
,  // measure 25
0101
0000
0010
0000
0001
0000
1000
0020
0000
0000
0130
0010
0000
0010
0100
0000
,  // measure 26
0010
0100
0001
0000
0001
0000
0010
0000
1000
0000
0010
0001
0000
0000
0100
0000
,  // measure 27
0001
0000
0100
0000
0010
0000
1000
0000
0020
0000
0130
0010
0000
0100
0010
0000
,  // measure 28
1000
0000
0100
0000
0020
0000
0000
0000
0031
0000
0010
0100
0000
0100
1000
0000
,  // measure 29
0100
0010
0020
0000
0031
0100
0010
0000
,  // measure 30
1000
0001
1001
1000
0002
0000
0103
0010
,  // measure 31
0100
0001
0200
0000
0000
0000
0301
0100
,  // measure 32
0010
1000
1100
0010
0100
0001
0010
0100
,  // measure 33
0001
0000
0100
0000
1010
0000
0000
0000
0100
0000
0010
0000
0100
0000
0010
0100
,  // measure 34
0000
0000
0010
0000
0100
0010
0000
0000
0101
0000
0001
0000
0100
0000
0010
0000
,  // measure 35
1000
0100
1000
0000
0010
0000
0100
0000
0001
0010
0001
0000
0010
0000
0001
0000
,  // measure 36
0100
0110
0101
0000
1000
0001
0010
0000
,  // measure 37
0100
0010
1000
0000
0001
0100
0010
0000
,  // measure 38
0001
0000
1000
0000
0100
0010
0000
0010
,  // measure 39
0100
0000
1000
0000
0001
0000
0010
0100
,  // measure 40
1000
0100
0020
0030
0001
0100
0000
0100
,  // measure 41
0010
0000
1000
0000
0001
0000
0000
0001
0010
0000
0000
0000
0010
0000
0100
0000
,  // measure 42
0000
1000
0001
0000
0100
0110
0000
0100
,  // measure 43
0001
0000
1000
0000
0010
0000
1000
0010
1000
0000
0001
0010
0001
0000
1000
0100
,  // measure 44
1000
0000
0002
0000
0103
0010
0000
0100
,  // measure 45
0010
0000
0000
0000
0100
0000
0000
0100
0001
0000
0100
0000
0010
0000
1000
0000
,  // measure 46
0001
0000
0100
0010
0100
0000
0001
0000
0010
0000
1000
0000
0010
0000
0001
0000
,  // measure 47
0100
0000
0001
0000
0010
0000
0000
0000
0001
0000
1000
0000
0001
0010
0001
0000
,  // measure 48
0010
0100
0010
0000
0100
0000
0000
1000
0000
0000
0010
0000
0200
0000
0000
0010
,  // measure 49
0300
0000
0001
0000
1001
0000
0000
0100
0000
0000
0010
0000
0100
0000
0000
0010
,  // measure 50
0000
0000
0100
0000
0101
0000
0000
1000
0000
0000
0001
0000
2000
0000
0000
0001
,  // measure 51
3000
1000
0100
0000
0000
0000
0000
0000
;
