#TITLE:UPBEAT;
#SUBTITLE:;
#ARTIST:Kiddy & Sunshine Lovers;
#TITLETRANSLIT:;
#SUBTITLETRANSLIT:;
#ARTISTTRANSLIT:;
#GENRE:;
#CREDIT:;
#BANNER:20140804180001!19_BEATNIK.png;
#BACKGROUND:;
#LYRICSPATH:;
#CDTITLE:;
#MUSIC:UPBEAT.ogg;
#OFFSET:-0.360000;
#SAMPLESTART:59.375999;
#SAMPLELENGTH:17.000000;
#SELECTABLE:YES;
#BPMS:0.000000=125.999992
,188.000000=187.000000
,220.000000=107.500000
,231.500000=97.000000
,232.000000=96.000000
;
#STOPS:
;
#BGCHANGES:;
#KEYSOUNDS:;
#ATTACKS:;

//---------------dance-single - ----------------
#NOTES:
     dance-single:
     :
     Beginner:
     2:
     0.098180,0.125405,0.000000,0.015799,0.000000,87.000000,87.000000,0.000000,2.000000,0.000000,0.000000,0.098180,0.125405,0.000000,0.015799,0.000000,87.000000,87.000000,0.000000,2.000000,0.000000,0.000000:
0000
0000
0000
0000
,
0000
0000
0000
0000
,
0000
0000
0000
0000
,
0000
0000
0000
0000
,
0000
0000
0000
0000
,
0000
0000
0000
0000
,
0000
0000
0000
0000
,
1000
0000
0000
0001
,
0001
0000
0000
0000
,
1000
0000
1000
0000
,
1000
0000
0000
0000
,
0001
0000
0001
0000
,
0001
0000
0000
0000
,
0100
0000
0100
0000
,
0100
0000
0000
0000
,
0010
0000
0010
0000
,
0010
0000
0000
0000
,
0100
0000
0001
0000
,
0100
0000
0000
0000
,
0001
0000
1000
0000
,
0001
0000
0000
0000
,
0001
0000
0100
0000
,
0001
0000
0000
0000
,
0000
0100
0000
0000
,
0000
0100
0000
0000
,
0000
0010
0000
0000
,
0000
0010
0000
0000
,
1000
0000
0001
0000
,
1000
0000
0000
0000
,
0001
0000
0000
0000
,
0001
0000
0001
0000
,
0001
0000
0000
0000
,
1000
0000
1000
0000
,
0100
0000
0000
0000
,
0100
0000
0100
0000
,
1000
0000
0000
0000
,
0001
0000
0001
0000
,
0010
0000
0000
0000
,
0010
0000
0010
0000
,
0001
0000
0000
0000
,
2000
3000
0000
0000
,
0002
0003
0000
0000
,
1000
0000
1000
0000
,
1000
0000
0001
0000
,
0001
0000
0001
0000
,
1000
0000
0000
0000
,
0001
0000
0000
0000
,
0100
0000
0100
0000
,
0100
0000
0100
0000
,
0010
0000
0010
0000
,
0010
0000
0000
0000
,
1000
0000
1000
0000
,
1000
0000
1000
0000
,
0001
0000
0001
0000
,
0001
0000
0000
0000
,
1000
0000
0000
0100
,
0000
0000
0100
0000
,
0000
0010
0000
0000
,
0100
0000
0100
0000
,
0001
0000
0001
0000
,
0001
0000
1000
0000
,
0100
0000
0010
0000
,
0001
0000
1000
0000
,
0100
0000
0010
0000
;

//---------------dance-single - ----------------
#NOTES:
     dance-single:
     :
     Easy:
     4:
     0.185074,0.323485,0.110593,0.039498,0.000000,164.000000,150.000000,14.000000,5.000000,0.000000,0.000000,0.185074,0.323485,0.110593,0.039498,0.000000,164.000000,150.000000,14.000000,5.000000,0.000000,0.000000:
0000
0000
0000
0000
,
0000
0000
0000
0000
,
0000
0000
0000
0000
,
0000
0000
0000
0000
,
0000
0000
0000
0000
,
0000
0000
0000
0000
,
0000
0000
0000
0000
,
1000
1000
0001
0001
,
0100
0000
0110
0000
,
1000
1000
0001
0001
,
0001
0000
1100
0000
,
0001
0001
0001
1000
,
1000
0000
0011
0000
,
1000
0001
1000
0001
,
1000
0000
0001
0000
,
0010
0010
0010
0010
,
0010
0000
0000
0000
,
0100
0100
0100
0100
,
0100
0000
0000
0000
,
1000
1000
1000
1000
,
1000
0000
0000
0000
,
0001
0100
0001
0100
,
0001
0000
1000
0000
,
0100
0100
0200
0000
,
1300
0000
0000
0000
,
0010
0010
0020
0000
,
0031
0000
0000
0000
,
1000
0001
0100
0001
,
1000
0000
1001
0000
,
0001
1000
0010
1000
,
0001
0000
1000
0000
,
0010
0000
0100
0000
,
0010
0000
1000
0000
,
0001
0000
1000
0000
,
0110
0000
0002
0000
,
1003
0000
1000
0000
,
0001
0000
0100
0000
,
0010
0000
0100
0000
,
0101
0000
1010
0000
,
1001
0000
1000
0000
,
0001
0100
0001
0100
,
0001
0000
1000
0100
,
1000
0100
1000
0000
,
0002
0000
0103
0000
,
0200
0000
0301
0000
,
1000
0100
0010
0100
,
1000
0000
0001
0100
,
0001
0000
0000
0000
,
0101
0000
0000
0000
,
0110
0000
0000
0000
,
0100
0100
0100
0000
,
0001
0001
0001
0000
,
1000
0100
1000
0000
,
1000
1000
1000
0000
,
0001
0010
0001
0000
,
1000
0110
0001
0100
,
1001
0010
0110
1000
,
0100
1001
0010
0000
,
0100
0100
0100
0000
,
0001
0010
0100
1000
,
1000
0000
0100
0010
,
0100
0000
0010
0001
,
0010
0000
0100
1000
,
0100
0000
0000
0000
;

//---------------dance-single - ----------------
#NOTES:
     dance-single:
     :
     Medium:
     10:
     0.358864,0.426796,0.229086,0.063196,0.031598,318.000000,289.000000,29.000000,8.000000,0.000000,0.000000,0.358864,0.426796,0.229086,0.063196,0.031598,318.000000,289.000000,29.000000,8.000000,0.000000,0.000000:
0000
0000
0000
0000
,
0000
0000
0000
0000
,
0000
0000
0000
0000
,
0000
0000
0000
0000
,
0000
0000
0000
0000
,
0000
0000
0000
0000
,
0000
0000
0000
0000
,
1000
0000
1000
0000
0001
0000
0001
0100
,
0010
0010
0110
1000
,
0100
0000
1000
0100
0010
0000
0001
0000
,
0011
0000
1000
0100
0010
0000
0001
0000
,
0011
0000
0001
0100
0001
0000
1000
0100
,
1000
0000
0001
0100
0001
0000
1000
0010
,
1000
0001
1001
0100
,
0110
0000
0001
0100
0010
0000
0000
0000
,
1000
0000
0010
0000
0100
0010
0000
0110
,
0000
0010
0100
0000
0001
0010
0100
1000
,
0000
0001
0100
0000
0010
0100
0001
0100
,
0000
0010
0100
0000
1000
0100
0000
0000
,
0011
0000
1100
0000
0001
0100
0000
0101
,
0000
0000
1000
0010
0100
0001
0000
1000
,
0001
0000
0110
0000
0001
0100
0001
0101
,
0000
0000
1000
0000
0100
0100
0000
0000
,
0100
0000
0010
0000
0001
1000
0001
0200
,
0000
0300
0001
1000
0010
0001
0010
0100
,
0000
0000
0100
0010
0200
0301
0100
0002
,
0003
0000
1000
0010
0100
0001
0100
0001
,
0100
0010
1000
0000
0001
0100
0000
0101
,
0000
0000
1000
0000
0010
1001
0000
0000
,
0100
0000
0010
0100
0010
1000
0001
0100
,
0010
0010
1000
1000
0001
0010
0100
1000
,
0001
0000
1000
0010
0100
0000
0001
0000
,
0011
0000
1000
0100
0010
0000
0011
0000
,
1000
0100
0000
0100
0000
0000
1000
0000
,
1100
0000
0001
0010
0100
0000
0000
0000
,
1001
0000
0110
0000
0001
0100
0101
0000
,
0001
0000
1000
0010
0110
0000
0010
0000
,
0100
0010
0100
0000
0010
0100
0001
0000
,
1010
0101
1010
0110
,
0011
0000
1000
0100
0010
0000
0001
0000
,
0001
0010
0100
0000
1000
0000
0100
0010
,
0100
0010
0001
1000
0001
0000
0100
0010
,
0100
0000
0001
0010
1000
0010
0001
0000
,
2000
0000
3100
0100
,
0200
0000
0310
0010
,
0002
0000
0103
0100
,
0020
0000
0000
0130
0010
0000
0000
0000
,
1000
0100
0000
0010
0000
0000
0000
0000
,
0101
0000
0000
0010
0000
0000
0000
0000
,
0100
0010
0000
0100
0000
0000
0000
0000
,
0110
0000
0000
0010
0100
0000
0000
0000
,
0001
0010
0000
0010
0000
0000
0000
0000
,
0100
1000
0000
1000
0000
0000
0000
0000
,
0100
0010
0000
0100
0000
0001
0010
0000
,
0001
1000
0000
1000
0001
0000
0000
0000
,
1000
0000
0000
0010
0100
0000
0010
0100
0000
0000
0000
0000
0100
0000
0010
0000
,
0110
0000
0000
0000
0100
0000
0000
0000
0001
0000
0000
1000
0100
0000
1000
0100
,
0000
0000
0010
0100
0101
0000
0010
0010
,
0010
1000
0100
0010
0100
0010
0100
0010
,
0001
1000
0001
0100
0001
1000
0001
0100
,
0001
0000
1000
0100
0100
0010
0010
0001
,
0100
0000
0010
0000
1000
0000
0100
0000
0010
0000
0100
0000
1000
0100
0000
0000
,
0010
0000
0010
0000
0001
0010
0000
0000
0100
0000
1000
0000
0001
0100
0000
0000
,
0010
0000
0100
0000
0010
0200
0000
0000
0000
0300
0000
0000
0000
0000
0000
0000
;

//---------------dance-single - ----------------
#NOTES:
     dance-single:
     :
     Hard:
     14:
     0.586821,0.651463,0.181689,0.078995,0.398926,520.000000,497.000000,23.000000,10.000000,0.000000,0.000000,0.586821,0.651463,0.181689,0.078995,0.398926,520.000000,497.000000,23.000000,10.000000,0.000000,0.000000:
// measure 0
0000
0000
0000
0000
,  // measure 1
0000
0000
0000
0000
,  // measure 2
0000
0000
0000
0000
,  // measure 3
0000
0000
0000
0000
,  // measure 4
0000
0000
0000
0000
,  // measure 5
0000
0000
0000
0000
,  // measure 6
0000
0000
0000
0000
,  // measure 7
1000
0000
0000
0000
1100
0000
0000
0000
0101
0000
0000
0000
0001
0100
0001
0100
,  // measure 8
0010
0000
0000
0000
1000
0000
0000
0000
0100
0010
0100
0000
0010
0100
0010
0000
,  // measure 9
0001
0000
1000
0000
0100
0000
0010
0000
0001
0000
1000
0000
0001
0100
0010
0100
,  // measure 10
0001
0000
0000
0000
1000
0100
1000
0000
0020
0000
0030
0000
0100
0000
0000
0000
,  // measure 11
0010
0000
0000
0000
0100
0000
0001
0000
0001
0000
1000
0000
0100
1000
0100
1000
,  // measure 12
0010
0000
0000
0000
0100
0000
0001
0000
0100
0001
0100
0000
0100
0010
0100
0000
,  // measure 13
0001
0000
1000
0100
0010
0000
0100
0010
0001
0000
1000
0000
0100
0010
0100
0010
,  // measure 14
0001
0000
0000
0000
0001
0000
0100
0000
0010
0100
0010
0100
0001
0100
0010
0000
,  // measure 15
1000
0000
0000
0010
0100
0000
0000
0000
0010
0000
1000
0000
0010
0000
0001
0000
,  // measure 16
0000
0010
1100
0000
0001
0011
0000
1100
,  // measure 17
0100
0000
0001
0000
0100
0000
0010
0100
0001
0000
0100
0010
0001
0000
0100
0000
,  // measure 18
0010
0000
1000
0000
2200
0000
3300
0000
0010
0000
0011
0000
0001
0010
0100
0000
,  // measure 19
0010
0000
1000
0010
0100
0001
0100
0101
,  // measure 20
0010
1000
0100
0010
0001
2000
3000
0001
,  // measure 21
0100
0010
0110
1000
0001
0100
0010
0101
,  // measure 22
0110
0000
0101
0000
1000
0000
0100
0000
1000
0100
0010
0000
0011
0000
1001
0000
,  // measure 23
0110
0000
0010
0100
0001
1000
0001
0200
,  // measure 24
0010
0310
0100
0010
0010
1000
0010
0100
,  // measure 25
0110
0010
0100
1000
0100
0010
0100
0020
,  // measure 26
0031
1000
0100
1000
0100
0010
0100
1000
,  // measure 27
0100
0000
0011
0000
0001
0100
0100
0100
,  // measure 28
0000
0000
0010
0000
1000
0000
0000
0000
0010
0000
0100
0000
0001
0100
0010
0000
,  // measure 29
0100
0010
0100
0000
0001
0000
1000
0000
0100
0000
0010
0000
0001
0000
0011
0000
,  // measure 30
0100
0000
0010
0000
1000
0000
0001
0000
0100
0000
0010
0000
0100
0010
0100
0000
,  // measure 31
0001
0000
0000
0000
1000
0010
0000
0100
0001
0000
1000
0000
0001
0100
0010
0100
,  // measure 32
0001
0000
0000
0000
1100
0000
0000
0000
0010
0001
0010
0000
0001
0010
0001
0000
,  // measure 33
1000
0000
0100
0000
1000
0000
0100
0000
0010
0001
0010
0000
0001
1000
0001
0000
,  // measure 34
0100
0010
1000
0000
0001
1000
0001
0000
0100
0000
0010
0000
0100
0000
0000
0000
,  // measure 35
1001
0000
1000
0000
0100
0000
0010
0000
0001
0000
0100
0001
0100
0001
0100
0000
,  // measure 36
0001
0000
0100
0000
1000
0000
0100
0000
0001
0000
1000
0010
0100
0010
0100
0000
,  // measure 37
0001
0010
0001
0000
0100
0010
0100
0000
0010
0000
0100
0000
0001
1000
0001
0000
,  // measure 38
1000
0100
0010
0000
0001
1000
0001
0000
1000
0000
0010
0000
0100
0010
0100
0000
,  // measure 39
0001
0000
1000
0000
1000
0100
0010
0000
0010
0000
0001
0010
0100
0000
0010
0000
,  // measure 40
0001
0000
0010
0000
0100
0000
0000
0000
1000
0000
0010
0000
0100
0001
0100
0000
,  // measure 41
0010
0000
0110
0000
1001
0000
1000
0000
0001
0100
0001
0000
1000
0010
1000
0000
,  // measure 42
0001
0100
0010
0000
1000
0100
1000
0100
1000
0000
0010
0100
0010
1000
0010
0000
,  // measure 43
2000
0000
0100
0000
3100
0000
0100
0010
,  // measure 44
0020
0000
0001
0000
0031
0000
0010
0001
,  // measure 45
1000
0000
0100
0000
0010
0000
0100
0000
0010
0000
0001
0000
0100
0010
0100
0000
,  // measure 46
0010
0100
0010
0000
0100
0010
0100
0010
0100
0000
0000
0000
0010
0100
0010
0000
,  // measure 47
1000
0100
0000
1000
0000
0010
0100
0010
,  // measure 48
0110
0000
0000
0000
0010
0100
0010
0000
0100
0000
0000
0000
0010
0000
0000
0000
,  // measure 49
0100
0010
0100
0010
0000
0000
1000
0010
,  // measure 50
0100
0000
0001
1000
0001
0000
0010
0000
0100
0000
0010
0000
0001
0000
0000
0000
,  // measure 51
0001
0000
0010
0000
0100
0000
1000
0100
0010
0000
0100
0000
0010
0000
0001
0000
,  // measure 52
0010
0000
0100
0000
1000
0000
0100
0010
0001
0000
0010
0000
0100
0000
1000
0000
,  // measure 53
0100
0000
0010
0000
0001
0000
0010
0100
1000
0000
0100
0000
0010
0000
0001
0000
,  // measure 54
1000
0000
0100
0000
1000
0000
0001
1000
0001
0000
0000
0000
0000
0000
0000
0000
,  // measure 55
2000
0000
3000
0010
0100
0000
0010
0100
0000
0001
1000
0000
0100
0010
0100
0000
,  // measure 56
1000
0001
0100
0020
0000
0000
0130
0000
0001
0000
0000
1000
0100
0000
0010
0001
,  // measure 57
0000
1000
0010
0000
0100
0010
0100
0000
0000
0001
0100
0010
0100
0010
0100
0000
,  // measure 58
0010
0000
1000
0000
0100
0000
0010
0001
1000
0000
0010
0100
0001
0000
0010
0000
,  // measure 59
0001
1000
0100
1000
0001
0000
0100
0000
0010
0100
0010
1000
0010
0000
0100
0000
,  // measure 60
0001
1000
0100
1000
0010
0000
0100
0000
0010
0100
0001
1000
0010
0000
0100
0000
,  // measure 61
0001
0010
1000
0000
1000
0000
0010
0000
0001
0000
0100
0000
0010
0100
0000
0100
,  // measure 62
0010
0000
0100
0000
0010
1000
0000
0001
0100
0000
0001
0000
0100
0010
0100
0000
,  // measure 63
0010
0100
0010
0000
0100
0000
0000
0000
0010
0000
0100
0000
0010
0100
0010
0000
0000
0000
0000
0000
0000
0000
0000
0000
0000
0000
0000
0000
0000
0000
0000
0000
;
