#TITLE:Twin Trip;
#SUBTITLE:;
#ARTIST:Mika☆Rika;
#TITLETRANSLIT:;
#SUBTITLETRANSLIT:;
#ARTISTTRANSLIT:;
#GENRE:;
#CREDIT:from pop n music 18;
#BANNER:20140310002735!18_GIRLS_COUNTRY.png;
#BACKGROUND:;
#LYRICSPATH:;
#CDTITLE:;
#MUSIC:Twin_Trip.ogg;
#OFFSET:-0.024000;
#SAMPLESTART:47.198002;
#SAMPLELENGTH:12.000000;
#SELECTABLE:YES;
#BPMS:0.000000=145.000000
;
#STOPS:
;
#BGCHANGES:;
#KEYSOUNDS:;
#ATTACKS:;

//---------------dance-single - ----------------
#NOTES:
     dance-single:
     :
     Beginner:
     5:
     0.193864,0.265422,0.062087,0.062087,0.000000,153.000000,146.000000,7.000000,7.000000,0.000000,0.000000,0.193864,0.265422,0.062087,0.062087,0.000000,153.000000,146.000000,7.000000,7.000000,0.000000,0.000000:
0000
0000
0000
0000
,
0000
0000
0000
0000
,
0000
0000
0000
0000
,
0000
0000
0000
0000
,
0000
0000
0100
0000
,
0010
0000
1000
0000
,
0001
0000
0100
0000
,
0010
0000
1000
0000
,
0100
0000
0010
0000
,
0001
0000
1000
0000
,
0100
0000
0010
0000
,
0001
0000
1000
0000
,
0001
0000
1000
0000
,
0010
0000
0100
0000
,
0001
0000
1000
0000
,
0010
0000
1000
0000
,
0100
0000
0010
0000
,
0001
0000
1000
0000
,
0010
0000
0100
0000
,
0001
0000
1000
0000
,
0100
0000
0010
0000
,
0001
0000
0001
0000
,
1000
0000
1000
0000
,
0001
0000
0001
0000
,
0100
0000
0010
0000
,
1000
0000
0001
0000
,
1000
0000
0010
0000
,
0100
0000
0001
0001
,
0001
1000
1000
0000
,
0001
0000
1001
0000
,
1000
0000
1100
0000
,
1000
0000
1001
0000
,
0100
0000
0001
0001
,
0001
0001
0001
1000
,
1000
1000
0001
0001
,
0001
0001
1000
0001
,
1000
0001
0002
0000
,
0003
0000
0200
0000
,
0310
0000
1000
0000
,
0001
0000
0100
0000
,
0010
0000
1000
0001
,
1000
0001
0100
0001
,
1000
0100
1000
0001
,
0100
0001
1000
1000
,
1000
0000
0001
0000
,
0100
0000
0010
0000
,
1000
0000
0001
0000
,
1000
0000
0010
0000
,
0001
0000
0010
0000
,
1000
0000
0100
0000
,
0010
0000
0100
0000
,
0010
0000
0001
0000
,
1000
0000
1001
0000
,
0100
0000
0110
0000
,
1000
0000
1001
0000
,
0001
0000
0101
0000
,
0100
0000
0001
0001
,
0001
0001
0001
1000
,
1000
1000
1000
0010
,
0010
0010
0010
0100
,
0001
0000
0100
0000
,
0010
0000
2000
0000
,
3000
0001
0002
0000
,
0003
1000
2000
0000
,
3000
0010
0020
0000
,
0030
0100
0200
0000
,
0000
0000
0300
0000
;

//---------------dance-single - ----------------
#NOTES:
     dance-single:
     :
     Easy:
     7:
     0.326907,0.412879,0.283826,0.115304,0.000000,258.000000,226.000000,32.000000,13.000000,0.000000,0.000000,0.326907,0.412879,0.283826,0.115304,0.000000,258.000000,226.000000,32.000000,13.000000,0.000000,0.000000:
0000
0000
0000
0000
,
0000
0000
0000
0000
,
0000
0000
0100
0001
,
1000
0010
1000
0100
,
1000
0010
0100
0001
,
0010
0100
1000
0100
,
0010
0000
0001
0100
,
0010
1000
0100
0100
,
1000
0000
0002
0000
,
0203
0000
0310
0000
,
1000
0001
1000
0000
,
0001
1000
0001
0000
,
1000
0000
1001
0001
,
0001
1000
0001
1000
,
0010
0000
1010
1010
,
1000
1000
0001
0001
,
1100
0000
1000
1010
,
0000
0101
0000
0110
,
0000
0010
1000
0100
,
1000
0001
1000
0010
,
1000
0100
1000
0001
,
0001
0010
0001
0001
,
0100
0010
0100
0001
,
0001
0100
0010
1000
,
0001
0000
1001
1000
,
1001
0001
0100
0010
,
0100
0010
1000
0100
,
1000
0010
0001
0010
,
1000
0100
1100
1000
,
1010
0100
0110
0100
,
0101
0001
1001
1000
,
1100
0000
1000
0000
0001
0100
0001
0100
,
0001
0100
0110
0010
,
1010
0010
1010
0010
,
1001
1000
1001
0001
,
0101
0000
0001
0000
1000
0010
1000
0010
,
1000
0001
2000
3000
,
0200
0300
0020
0030
,
0002
0003
1000
0010
,
0100
0001
1000
0001
,
1001
0000
0200
0000
,
0310
0010
2000
0000
,
3001
0001
0020
0000
,
0130
0100
2000
0000
,
3010
0100
0001
0100
,
0001
0010
0001
0100
,
0001
0000
1000
0010
,
0100
0010
1000
0100
,
0010
0000
0001
0010
,
0100
0010
0100
0010
,
0100
0000
1000
0100
,
0010
0100
0010
0100
,
0010
0000
0011
0001
,
1001
1000
1001
0001
,
1001
1000
1010
1000
,
1100
0100
0110
0010
,
0001
1000
0100
0010
,
0011
0001
1000
0100
,
1100
1000
0010
0100
,
0101
0001
1000
0010
,
0100
0001
1000
0010
,
0100
0001
2000
0000
,
0010
0000
3010
0100
,
0001
0100
0002
0000
,
1000
0000
1003
0010
,
0100
0001
2000
0000
,
0000
0000
3000
0000
;

//---------------dance-single - ----------------
#NOTES:
     dance-single:
     :
     Medium:
     10:
     0.434609,0.501353,0.266087,0.053217,0.000000,343.000000,313.000000,30.000000,6.000000,0.000000,0.000000,0.434609,0.501353,0.266087,0.053217,0.000000,343.000000,313.000000,30.000000,6.000000,0.000000,0.000000:
0000
0000
0000
0000
,
0000
0000
0000
0000
,
0000
0000
0000
0000
0100
0000
0001
1000
,
0010
0000
0010
1000
0100
0000
0100
1000
,
0001
0011
0100
0010
,
1000
1100
1000
0100
,
0010
0000
0001
1000
0100
0000
0100
0000
,
0010
1001
0100
0010
,
1000
0001
1000
0010
,
0100
0010
0100
0000
0010
0000
1001
0000
,
1000
0001
1000
0001
1000
0000
0001
0000
,
0100
1000
0001
0010
,
1000
0000
0001
1000
0001
0000
0001
0000
,
1000
1010
0001
0101
,
0010
0000
0001
1000
0100
0000
0010
0000
,
0001
0010
1000
0010
,
1100
0101
1010
0100
,
0001
0100
0001
0100
0001
0000
0100
0001
,
0010
0001
0100
0010
0100
0000
0010
0000
,
1000
1001
0001
0100
,
0010
0100
0010
0100
0010
0000
1000
0000
,
0001
0000
0100
0000
0010
0100
0010
0100
,
1000
0000
0000
0001
0100
0000
0010
0000
,
1000
0000
0100
0000
0010
0001
0010
0001
,
1000
0000
0000
0010
0100
0000
0010
0000
,
1000
0000
0001
0000
0100
0001
0100
0001
,
0010
0000
0000
0001
1000
0010
1000
0000
,
0010
1000
0010
0100
0010
1000
0100
1000
,
0100
0010
0001
0001
1000
0000
1100
0000
,
0110
0001
1000
0100
,
0110
0001
1000
0100
,
0110
0000
0001
0000
0100
0010
0100
0010
,
1000
0010
0100
0001
1000
0000
1001
0000
,
0110
1000
0001
0100
,
0101
0001
1000
0100
,
1010
0000
0100
0000
0001
0010
0100
1000
,
0001
1000
0001
0100
,
0010
0100
0010
1000
0002
0000
0000
1003
,
0200
0000
0320
0000
,
0031
1000
2002
0000
,
3003
0000
0000
0000
0010
0100
0010
0000
,
1010
0000
1000
0000
0100
1000
0100
0000
,
0011
0000
0001
0000
0100
0010
1000
0000
,
1001
0001
0100
0010
,
1000
0001
1000
1000
,
0100
0000
0100
0000
0010
0001
0010
0001
,
0010
0000
0000
0001
1000
0000
1000
0000
,
0010
0000
0010
0000
0100
0001
0100
0010
,
0100
0000
0101
0001
,
1000
0000
0100
0000
0010
0100
0010
0001
,
0100
0000
0000
0010
0100
0001
0100
0000
,
0010
1000
0010
1000
0001
0100
0010
1000
,
0001
0100
0100
0000
0110
0000
0010
0000
,
1001
1000
0001
0100
,
0101
0010
0110
1000
,
1001
0000
0001
0000
1000
0010
1000
0010
,
0100
0001
1000
0010
0100
0000
0010
0000
,
0100
0000
0010
0010
1000
0000
1000
0000
,
0001
0000
1000
1000
0001
0000
0100
0000
,
0110
0000
1000
0000
0001
0010
0001
0010
,
0001
0100
0000
0000
0100
0001
0100
0010
,
0100
0100
1010
1000
,
0001
0100
0001
0000
0100
0000
0010
1000
,
0010
0100
0001
0100
1000
0000
0100
0000
,
0001
0010
1000
0100
,
0010
0001
2000
0000
,
0000
0000
3000
0000
;

//---------------dance-single - ----------------
#NOTES:
     dance-single:
     :
     Hard:
     13:
     0.628473,0.737283,0.390261,0.212870,0.190696,496.000000,452.000000,44.000000,24.000000,0.000000,0.000000,0.628473,0.737283,0.390261,0.212870,0.190696,496.000000,452.000000,44.000000,24.000000,0.000000,0.000000:
// measure 0
0000
0000
0000
0000
,  // measure 1
0000
0000
0000
0000
,  // measure 2
0000
0000
0000
0000
0000
0000
0000
0000
0100
0000
0000
0000
0001
0000
1000
0010
,  // measure 3
1000
0000
0001
0000
0100
0000
0010
0000
0110
0000
0000
0000
0100
0000
0001
0100
,  // measure 4
0001
0000
0101
0000
0000
0000
0001
0100
0010
0000
0000
0000
0010
0000
1000
0000
,  // measure 5
0100
0000
0100
0010
0001
0000
0100
0010
,  // measure 6
0100
0000
0001
1000
1100
0000
0100
0010
,  // measure 7
0011
0000
1000
0001
0100
0000
0010
1000
,  // measure 8
1010
0000
0001
0000
1000
0000
0010
1000
,  // measure 9
0010
0100
0001
0010
0100
0000
1000
0001
,  // measure 10
1000
0000
0001
0000
0100
0000
0001
0000
1000
0000
0000
0000
0001
0000
1000
0100
,  // measure 11
1000
0000
0001
0000
1000
0000
0001
0100
0001
0000
0100
0000
0010
0100
0010
0100
,  // measure 12
0010
0100
0001
0001
1000
0000
0101
0000
,  // measure 13
1000
0010
1010
0000
0001
0010
0101
0000
,  // measure 14
0100
0000
0001
0010
0100
0000
1000
0000
0100
0000
0010
0000
0001
0000
0000
0000
,  // measure 15
1000
0010
1001
0000
1000
0010
1001
0000
,  // measure 16
0100
0000
0010
0100
0010
0000
0100
0000
0110
0000
0000
0000
0001
0000
1000
0001
,  // measure 17
1000
0100
0010
0100
0001
0100
1000
0001
,  // measure 18
0010
0000
0001
0000
0100
0000
0010
0000
0100
0000
0000
0000
0010
0000
1000
0100
,  // measure 19
1000
0001
0100
0000
0001
0100
0110
0000
,  // measure 20
0010
0100
0001
0100
0010
0000
1000
0000
,  // measure 21
1001
0000
0100
0000
0010
0100
0010
0100
,  // measure 22
0001
0000
1000
0001
0100
0000
0001
0001
,  // measure 23
1000
0000
0100
0000
0010
0001
1000
0001
,  // measure 24
1000
0010
0100
0010
0110
0000
0010
1000
,  // measure 25
1000
0000
0001
0100
0100
0001
0010
0100
,  // measure 26
0010
0000
1000
0001
0100
0010
1000
0001
,  // measure 27
0010
1000
0010
0001
1000
0100
0010
0100
,  // measure 28
0010
0000
0001
0000
1000
0000
0001
1000
0001
0000
0000
0000
2002
0000
3003
0000
,  // measure 29
0110
0000
0202
0303
1000
0010
0100
0001
,  // measure 30
0110
0000
0002
0003
2000
3000
0202
0303
,  // measure 31
0110
0000
1000
0010
0100
0001
0100
0010
,  // measure 32
1000
0000
0001
0000
1000
0000
0001
1000
0010
0000
0000
0000
2200
0000
3300
0000
,  // measure 33
0100
0010
0001
0000
0101
0000
0220
0330
,  // measure 34
1000
0010
0100
0000
1100
0000
0022
0033
,  // measure 35
1000
0001
0100
0000
0001
0010
0100
1000
,  // measure 36
0100
1000
0100
1000
0100
0000
0000
0000
2000
0000
0000
0000
0001
0000
0000
0000
,  // measure 37
3010
0000
0100
0000
0001
0000
1000
0001
2000
0000
0000
0000
3010
0000
0100
0010
,  // measure 38
0200
0000
0010
0000
0310
0000
0010
0000
1000
0000
0001
0100
0001
0000
1000
0000
,  // measure 39
1001
0000
0100
0000
0010
0000
1000
0000
0002
0000
0000
0000
0103
0000
0010
0100
,  // measure 40
0010
0100
0010
0100
0010
0000
0000
0000
1001
0000
0100
0000
0010
0000
0001
0000
,  // measure 41
1001
1000
1100
0000
0110
1000
0001
0100
,  // measure 42
0110
0010
1010
0000
0101
0001
1000
0100
,  // measure 43
0011
0000
0001
0000
0011
0000
0000
0000
0100
0010
0100
0010
0100
0010
0100
0010
,  // measure 44
0100
0010
0100
0010
0100
0000
0000
0000
0001
0000
0000
0000
1000
0000
0010
0000
,  // measure 45
0100
0000
0001
0000
0100
0000
0010
0000
1000
0000
1000
0000
0010
0000
0100
0010
,  // measure 46
0100
0000
0010
1000
1010
0000
1000
1000
,  // measure 47
0100
0010
0001
0000
0100
0010
0100
0001
,  // measure 48
1000
0000
1000
0001
0110
0000
0101
0000
,  // measure 49
1000
0010
0100
0000
0001
0100
0010
1000
,  // measure 50
0100
0000
0010
0001
0100
0010
0100
0000
,  // measure 51
0010
0000
1000
0000
0001
0100
0001
0100
0001
0000
0100
0000
0010
0000
1000
0000
,  // measure 52
1000
0000
0001
0000
1000
0010
1000
0010
1000
0000
0000
0000
0010
0000
0000
0000
,  // measure 53
1001
0001
1000
0100
0011
0000
0010
0000
,  // measure 54
0101
0001
0010
0100
1100
0000
1000
0000
,  // measure 55
1100
0100
0010
0001
1000
0100
1000
0001
,  // measure 56
0010
0000
0001
0000
1000
0000
0010
1000
0010
0000
0000
0000
0110
0000
0000
0000
,  // measure 57
0200
0000
0300
0000
0010
0000
0100
0010
0100
0000
0000
0000
0001
0000
0000
0000
,  // measure 58
2000
0000
3000
0000
0001
0000
1000
0100
1000
0000
0000
0000
0100
0000
0000
0000
,  // measure 59
0020
0030
0001
0010
0100
1000
0100
1000
,  // measure 60
0010
0000
0100
0000
0001
0000
1000
0100
1000
0000
0001
0000
0100
0000
0001
0000
,  // measure 61
1000
0000
0100
0010
0001
0000
0000
0000
2000
0000
0000
0000
0100
0000
0000
0000
,  // measure 62
3001
0000
0100
0000
0001
0000
0010
0001
0010
0000
0000
0000
0001
0000
1000
0000
,  // measure 63
0100
0000
0010
0000
0001
0000
1000
0100
2000
0000
0000
0000
0010
0000
0000
0000
,  // measure 64
3010
0000
0100
0001
0100
0000
0001
0100
0010
0000
1000
0000
1000
0000
0001
0000
,  // measure 65
0100
0001
0100
0000
0001
0000
1000
0010
2000
0000
0000
0000
0000
0000
0000
0000
,  // measure 66
0000
0000
3000
0000
;
