#VERSION:0.83;
#TITLE:Tsurezure My world;
#SUBTITLE:;
#ARTIST:MY STRANGE LIFE;
#TITLETRANSLIT:;
#SUBTITLETRANSLIT:;
#ARTISTTRANSLIT:;
#GENRE:;
#ORIGIN:;
#CREDIT:from pop n music 22 Lapistoria;
#BANNER:20140730132046!LT_Tsurezure_My_world.png;
#BACKGROUND:;
#PREVIEWVID:;
#JACKET:;
#CDIMAGE:;
#DISCIMAGE:;
#LYRICSPATH:;
#CDTITLE:;
#MUSIC:Tsurezure_My_world.ogg;
#OFFSET:-0.414000;
#SAMPLESTART:38.404999;
#SAMPLELENGTH:15.100000;
#SELECTABLE:YES;
#BPMS:0.000=190.000;
#STOPS:;
#DELAYS:;
#WARPS:;
#TIMESIGNATURES:0.000=4=4;
#TICKCOUNTS:0.000=4;
#COMBOS:0.000=1;
#SPEEDS:0.000=1.000=0.000=0;
#SCROLLS:0.000=1.000;
#FAKES:;
#LABELS:0.000=Song Start;
#BGCHANGES:;
#KEYSOUNDS:;
#ATTACKS:
;

//---------------dance-single - ----------------
#NOTEDATA:;
#CHARTNAME:;
#STEPSTYPE:dance-single;
#DESCRIPTION:;
#CHARTSTYLE:;
#DIFFICULTY:Beginner;
#METER:4;
#RADARVALUES:0.155111,0.219808,0.081637,0.073474,0.000000,133.000000,123.000000,10.000000,9.000000,0.000000,0.000000,0.000000,0.000000,0.000000,0.155111,0.219808,0.081637,0.073474,0.000000,133.000000,123.000000,10.000000,9.000000,0.000000,0.000000,0.000000,0.000000,0.000000;
#CREDIT:;
#NOTES:
0000
0000
0000
0000
,
0000
0000
0000
0000
0000
0000
0000
0100
,
0000
0000
0000
0000
0000
0000
0000
0100
,
0000
0000
0000
0000
0000
0000
0000
0001
,
0000
0000
0000
0000
0000
0000
0000
1000
,
0000
0000
0000
0000
0000
0000
0000
1001
,
0000
0000
0000
0000
,
0000
0000
0100
0000
,
0100
0000
0000
0000
,
0010
0000
0010
0000
,
0010
0000
0000
0000
0000
0000
0000
1001
,
0000
0000
0000
0000
0000
0000
0000
0100
,
0000
0000
0000
0000
0000
0000
0000
0010
,
0000
0000
0000
0000
0000
0000
0000
1001
,
0000
0000
0000
0000
,
1000
0000
0010
0000
,
1000
0000
0000
0000
,
0001
0000
0100
0000
,
0001
0000
0000
0000
0000
0000
0000
0101
,
0000
0000
0000
0000
0000
0000
0000
0010
,
0000
0000
0000
0000
0000
0000
0000
0100
,
0000
0000
0000
0000
0000
0000
0000
1000
,
0000
0000
0000
0000
,
0001
0000
0000
0000
,
0100
0000
0000
0000
,
0010
0000
0100
0000
,
0001
0000
0000
0000
,
1000
0000
0000
0000
,
0010
0000
0000
0000
,
1000
0000
0000
0000
,
0001
0000
0000
0000
0000
0000
0000
2002
,
0000
0000
3003
0000
,
1000
0000
0001
0000
,
1000
0000
0001
0000
,
0100
0000
0000
0000
0000
0000
0000
0110
,
0000
0000
0010
0000
,
1000
0000
0001
0000
,
0100
0000
0100
0000
,
0000
0000
0010
0000
,
0000
0100
0000
0001
,
0000
1000
0000
0010
,
0000
0000
0100
0000
0000
0000
0000
0100
,
0000
0000
0000
0000
0000
0000
0000
0101
,
0000
0000
0001
0000
,
1000
0000
0000
0000
,
1000
0000
0100
0000
,
0020
0000
0030
0000
,
0001
0000
0001
0000
,
0000
0000
0000
0000
,
1000
0000
1000
0000
,
0000
0000
0000
0000
,
1000
0000
0001
0000
,
0100
0000
0010
0000
,
0100
0000
0001
0000
,
0010
0000
0001
0000
,
1000
0000
0010
0000
,
0100
0000
0001
0000
,
1000
0000
1000
0000
,
0002
0000
0003
0000
,
0100
0000
0100
0000
,
0010
0000
0010
0000
,
0100
0000
0100
0000
,
0002
0000
0003
0000
,
0100
0000
0010
0000
,
1000
0000
1000
0000
,
0020
0000
0030
0000
,
0100
0000
0000
0000
,
0202
0000
0000
0000
,
0303
0000
0000
0000
0000
0000
0000
0001
,
0000
0000
0000
0000
,
1000
0000
1001
0000
,
0001
0000
1000
0000
,
0001
0000
0000
0000
0000
0000
0000
0100
,
0000
0000
0000
0000
,
0100
0000
0010
0000
,
0100
0000
0001
0000
,
1000
0000
0000
0000
0000
0000
0000
0001
,
0000
0000
1000
0000
,
0100
0000
1000
0000
,
0001
0000
0010
0000
,
0001
0000
0000
0000
0000
0000
0000
0100
,
0000
0000
0001
0000
,
1000
0000
0001
0000
,
0100
0000
0010
0000
,
0020
0000
0000
0030
,
0100
0000
0000
0000
0000
0000
0000
0001
,
0000
0000
0000
0000
,
1000
0000
0000
0000
0000
0000
0000
0001
,
0000
0000
0000
0000
,
0101
0000
0000
0100
;

//---------------dance-single - ----------------
#NOTEDATA:;
#CHARTNAME:;
#STEPSTYPE:dance-single;
#DESCRIPTION:;
#CHARTSTYLE:;
#DIFFICULTY:Easy;
#METER:7;
#RADARVALUES:0.291562,0.479568,0.220421,0.138783,0.000000,250.000000,223.000000,27.000000,17.000000,0.000000,0.000000,0.000000,0.000000,0.000000,0.291562,0.479568,0.220421,0.138783,0.000000,250.000000,223.000000,27.000000,17.000000,0.000000,0.000000,0.000000,0.000000,0.000000;
#CREDIT:;
#NOTES:
0000
0000
0000
0000
,
0000
0000
0000
0000
0000
0000
0000
0100
,
0000
0000
0100
0000
0000
0000
0000
0100
,
0000
0000
0100
0000
0000
0000
0000
0002
,
0000
0000
0000
0000
0003
0000
0000
2000
,
0000
0000
0000
0000
3000
0000
0000
0001
,
0000
0000
0000
0101
0000
0000
0000
0000
,
0002
0000
0100
0103
,
0100
0010
0010
1000
,
0001
0100
0100
0010
,
0010
0000
0000
0000
1000
0000
0000
1001
,
0000
0000
0000
0000
0001
0000
0000
0100
,
0000
0000
0000
0000
0010
0000
0000
0200
,
0000
0000
0300
0000
0000
0000
0000
1001
,
0000
0000
0000
1001
0000
0000
0000
1000
,
0000
0000
0001
0100
,
0100
0010
1000
1000
,
0001
0000
0100
0010
,
1000
0000
0000
0000
0001
0000
0000
0101
,
0000
0000
0000
0000
0001
0000
0000
2000
,
0000
0000
3000
0000
0001
0000
0000
0200
,
0000
0000
0300
0000
0000
0000
0000
0110
,
0000
0110
0000
0110
0000
0000
0000
0000
,
0001
0000
0100
0010
,
1000
0000
0010
0010
,
0010
0000
0100
0010
,
1000
0000
0010
0010
,
0010
0000
0100
0010
,
1000
0000
0001
0001
,
2000
0000
0000
0000
3000
0000
0000
0001
,
0000
0000
0001
0000
0000
0000
0000
2001
,
0000
0001
3000
0001
,
1000
0100
0010
0001
,
1001
0000
0001
0100
,
0010
0000
0000
0000
0000
0000
0000
0110
,
0000
0000
0001
0000
,
1000
0000
1000
0000
0001
0000
0000
0001
,
0000
0000
0100
0010
,
0100
0000
0000
0000
0010
0000
0000
0100
,
0000
0000
0101
0101
,
0101
0000
1010
1010
,
1010
0000
0000
0000
0001
0000
0000
0100
,
0000
0000
0000
0000
0100
0000
0000
0001
,
0000
0000
0000
0000
0001
0000
0000
1000
,
0000
0000
1000
0000
,
0100
0000
0010
0000
,
0001
1000
0001
0000
,
1000
0000
0001
0000
0001
0000
0000
0002
,
0000
0000
0003
0000
,
1000
0000
1000
0000
1000
0000
0000
2000
,
0000
0000
3000
0000
,
0001
0010
0100
1000
,
0100
0000
1000
0000
,
0001
0010
0100
1000
,
0100
0000
0010
0000
,
0001
0001
0010
0010
,
0100
0000
1000
0000
,
1000
0010
1000
0001
,
0100
0000
0010
0000
,
1001
0000
0100
0010
,
0100
0010
0100
0000
,
0101
0000
0010
0100
,
0010
1000
0010
0000
,
0101
0000
0001
0010
,
0100
1000
0001
0000
,
2020
0000
0000
3030
0000
0000
2020
0000
,
0000
3030
0000
0000
1000
0000
0000
0000
,
0002
0000
0000
0000
,
0103
0000
0000
0000
0000
0000
0000
2000
,
0000
0000
3000
0000
,
0001
0100
0001
0010
,
0001
0000
1000
0010
,
0100
0000
0010
0100
,
0010
0000
1000
0100
,
0010
0100
0010
0001
,
1000
0000
0000
0000
0001
0000
0000
1000
,
0000
0000
0000
0000
0000
0000
0000
0001
,
0000
0000
1000
0010
,
0100
0001
0100
0010
,
1001
0000
1000
0010
,
0100
0000
0010
0100
,
0010
0000
1000
0001
,
0100
0000
0001
1000
,
0100
0010
0001
0100
,
0101
0000
0001
1000
,
1010
0000
0000
0000
0000
0000
0000
0110
,
0000
0000
0000
0110
0000
0000
0000
0000
,
0200
0000
0000
0000
0300
0000
0000
0001
,
0000
0000
0000
1000
0000
0000
0000
0000
,
0001
0100
0010
0100
,
0001
0000
0000
0100
0000
0000
0000
0000
;

//---------------dance-single - ----------------
#NOTEDATA:;
#CHARTNAME:;
#STEPSTYPE:dance-single;
#DESCRIPTION:;
#CHARTSTYLE:;
#DIFFICULTY:Medium;
#METER:11;
#RADARVALUES:0.412852,0.561767,0.408187,0.236748,0.000000,354.000000,304.000000,50.000000,29.000000,0.000000,0.000000,0.000000,0.000000,0.000000,0.412852,0.561767,0.408187,0.236748,0.000000,354.000000,304.000000,50.000000,29.000000,0.000000,0.000000,0.000000,0.000000,0.000000;
#CREDIT:;
#NOTES:
0000
0000
0000
0000
,
0000
0000
0000
0000
0000
0000
0000
0100
,
0000
0000
0100
0000
0010
0000
0100
0110
,
0000
0000
0100
0000
0001
0000
1000
1002
,
0000
0000
0000
0000
1003
0000
0000
0202
,
0000
0000
0303
0000
0001
0000
0001
0200
,
0000
0000
0000
0302
0000
0000
0003
0000
,
1000
0000
0000
0000
0100
0000
0010
0001
,
0000
0000
1000
0000
0010
0000
0100
0010
,
0000
0100
0000
0010
0000
0100
0000
0010
,
0100
0000
0000
0000
1000
0001
0000
1001
,
0000
0000
0001
0000
0100
0000
0000
0010
,
0000
0000
0010
0000
1000
0000
0001
2000
,
0000
0000
3000
0000
0000
0000
0001
1001
,
0000
0110
0000
1001
0000
0101
0000
2002
,
0000
0000
3003
0000
0001
0000
0100
0010
,
0000
0100
0010
0000
1000
0000
0001
0100
,
0000
0010
0000
1000
0000
0100
0000
0010
,
0001
0000
0000
0000
0100
0010
0000
0110
,
0000
0000
0010
0000
1000
0010
0000
1010
,
0000
0000
0100
0000
0001
0000
0010
0200
,
0000
0000
0300
0000
0000
0000
1000
0100
,
0000
0110
0000
0110
0000
0000
0001
0000
,
2000
0000
3000
0000
0000
0010
0100
0010
,
0000
0000
0100
0000
0000
0010
0100
0001
,
0000
0100
0000
0010
0000
1000
0000
1010
,
0000
0000
0100
0110
,
0010
0000
0100
0001
0000
0100
0010
0100
,
0000
0000
0000
0001
1000
0001
1000
0002
,
0000
0000
0000
0000
1003
0000
0000
0101
,
0000
0000
0100
0000
0010
0000
0000
2001
,
0000
0001
3001
0001
,
1000
1000
0010
0100
,
1001
0000
0001
0000
0001
0000
0010
0002
,
0000
0000
0003
0000
1000
0010
0000
0220
,
0000
0000
0330
0000
0001
0000
1000
0001
,
0000
0000
1000
0000
0100
0000
0100
0110
,
0000
0000
0000
0000
0101
0000
0000
0101
,
0000
0000
0000
0000
1010
0000
0000
0101
,
0000
0000
0110
0101
,
0101
0110
1010
1010
,
0100
0000
0010
0000
0100
0000
0010
0110
,
0000
0000
0000
0000
0100
0000
0000
0101
,
0000
0000
0000
0000
0001
0000
0000
1010
,
0000
0000
1000
0010
,
0100
0010
0100
0000
0010
0000
1000
0000
,
0002
0003
0200
0310
,
1000
0000
1000
0000
0001
0001
0000
2000
,
0000
0000
0000
3001
0000
0000
0000
0000
,
1000
0000
0100
0000
1000
0100
0000
2000
,
0000
0000
0000
3001
0000
0000
0000
0000
,
0001
0000
1000
0010
0000
1000
0010
1000
,
0000
0001
0100
0001
0000
0100
0010
0100
,
0000
0001
1000
0001
0000
1000
0001
1000
,
0000
0000
0010
0000
,
1000
0000
0001
0100
0000
0010
0000
0110
,
0000
1000
0000
1010
0000
0100
0000
0101
,
0000
0001
0000
0010
0000
0100
0000
1000
,
0100
0000
0001
0000
,
1001
0000
0001
0100
0000
0010
0100
0010
,
0000
0100
0000
0100
0000
0001
0100
0001
,
0000
1000
0000
0100
0000
0010
0001
0010
,
0000
0000
0100
0001
,
0101
0000
0000
0001
0000
1000
0000
0010
,
0000
0110
0000
1010
0000
0100
0000
0000
,
0002
0000
0000
0103
0000
0000
2000
0000
,
0000
3010
0000
0000
0100
0000
0000
0000
,
0001
0000
0100
0001
0000
0100
0000
0001
,
0000
0000
0000
0000
0010
0000
0000
2000
,
0000
0000
3001
0010
,
0011
0001
1000
0001
,
1000
0000
0010
0000
1000
0000
0010
0100
,
0000
0000
0000
0000
0010
0100
0000
0110
,
0000
0000
0000
0000
1000
0000
0001
0100
,
0000
0000
0000
0000
0001
0000
1000
0020
,
0000
0000
0030
0000
0100
0000
0000
0100
,
0000
0000
0000
0000
0100
0000
0100
0010
,
0000
0010
1000
0001
,
0101
0001
0100
0010
,
1001
0000
0010
0000
1000
0000
0010
1000
,
0000
0000
0000
0000
0010
0000
0000
0100
,
0000
0000
0001
0000
1000
0000
0001
1000
,
0001
0000
1000
0000
0001
0000
1000
0001
,
1000
0001
0010
0100
,
2002
0003
3100
0010
,
0101
0000
0000
0000
0000
0001
0000
0201
,
0000
0000
0300
0001
0000
0000
0000
0000
,
2000
0000
0000
0000
3000
0001
0000
1001
,
0000
0000
0000
0101
0000
0000
0000
0000
,
0001
0000
0000
0100
0000
0000
0001
0000
,
0000
0000
0000
0220
0000
0000
0000
0000
,
0000
0000
0000
0330
;

//---------------dance-single - ----------------
#NOTEDATA:;
#CHARTNAME:;
#STEPSTYPE:dance-single;
#DESCRIPTION:;
#CHARTSTYLE:;
#DIFFICULTY:Hard;
#METER:13;
#RADARVALUES:0.565630,0.636669,0.351040,0.334713,0.024491,485.000000,442.000000,43.000000,41.000000,0.000000,0.000000,0.000000,0.000000,0.000000,0.565630,0.636669,0.351040,0.334713,0.024491,485.000000,442.000000,43.000000,41.000000,0.000000,0.000000,0.000000,0.000000,0.000000;
#CREDIT:;
#NOTES:
// measure 0
0000
0000
0000
0000
,  // measure 1
0000
0000
0000
0000
0000
0000
0000
0100
,  // measure 2
0000
0000
0100
0000
0010
0100
0010
0110
,  // measure 3
0000
0000
0100
0000
0001
1000
0010
2010
,  // measure 4
0000
0000
3010
0000
1000
0100
0010
0012
,  // measure 5
0000
0000
1003
0001
1000
0001
0100
0200
,  // measure 6
0000
0000
0301
2000
0000
0000
3001
0000
,  // measure 7
2000
0000
3010
0000
0100
0000
0010
0100
,  // measure 8
0000
0010
1000
0000
0010
0100
0010
0100
,  // measure 9
0000
0010
0000
0110
0000
0010
0100
0010
,  // measure 10
0100
0000
0000
0000
1000
0001
0000
1001
,  // measure 11
0000
0000
0001
0000
0100
0010
0001
0020
,  // measure 12
0000
0030
1000
0001
1000
0000
0001
0200
,  // measure 13
0000
0000
0310
0100
0010
0000
1000
1001
,  // measure 14
0000
0010
0100
1001
0000
0100
0001
0202
,  // measure 15
0000
0000
0303
0000
0001
0000
0100
0100
,  // measure 16
0000
0010
0100
0000
0010
1000
0001
0100
,  // measure 17
0000
0010
0000
1010
0000
0100
0001
0010
,  // measure 18
0001
0000
1000
0000
0001
0101
0000
0210
,  // measure 19
0000
0300
0010
0000
1000
0010
0100
0001
,  // measure 20
0000
0000
0100
0000
0001
0000
0100
0020
,  // measure 21
0000
0000
1030
0000
0001
0000
1000
1100
,  // measure 22
0000
0100
0010
0001
0000
0001
1000
0100
,  // measure 23
2000
0000
3010
0000
0000
0100
0010
0100
,  // measure 24
0000
0100
0010
0100
0000
0010
0100
0001
,  // measure 25
0000
0100
0010
0010
0000
1000
0001
0100
,  // measure 26
0000
0010
0100
0010
0100
0010
0101
0000
,  // measure 27
0001
0000
0100
0001
0000
0100
0010
2000
,  // measure 28
0000
3000
0000
0001
0010
0100
0010
0002
,  // measure 29
0000
0000
1000
0000
1003
0010
0100
0110
,  // measure 30
0000
0010
0100
0000
0001
1000
0001
2000
,  // measure 31
0000
0001
3010
0001
,  // measure 32
1000
0010
1000
0000
0010
0100
0010
0100
,  // measure 33
1001
0000
0001
0100
0001
0000
0010
0022
,  // measure 34
0000
0000
0033
0000
1000
0010
0000
2000
,  // measure 35
0000
0000
3001
0000
0001
0000
1000
0010
,  // measure 36
0100
0000
1000
0000
0100
0000
0001
0200
,  // measure 37
0000
0000
0301
0000
0100
0001
0100
0001
,  // measure 38
0000
1000
0001
0000
1000
1000
0001
0001
,  // measure 39
0000
0000
1000
0000
0010
0100
1001
0000
,  // measure 40
0101
0000
1010
0000
1000
0100
0110
0000
,  // measure 41
0010
0000
0001
0000
0100
0010
0100
0110
,  // measure 42
0000
0000
0010
0000
0100
0001
1000
1010
,  // measure 43
0000
0000
0010
0000
0100
0001
0100
0002
,  // measure 44
0000
0003
1000
0000
1000
0000
0010
0000
,  // measure 45
0010
0100
0100
0000
0010
0000
1010
0000
,  // measure 46
0020
0030
2000
3001
,  // measure 47
1000
0001
1000
0001
1000
0000
0000
0000
0000
0000
0001
0000
0000
0000
0200
0000
,  // measure 48
0000
0000
0300
0002
0000
0000
0003
0000
,  // measure 49
1000
0100
1000
0100
1000
0000
0000
0000
0000
0000
0100
0000
0000
0000
2000
0000
,  // measure 50
0000
0000
3000
0002
0000
0000
0003
0000
,  // measure 51
0100
0000
0100
0010
0000
0010
1000
0001
,  // measure 52
0000
0001
0100
0001
0000
0001
1000
0100
,  // measure 53
0000
1000
0100
1000
0000
0100
0010
0001
,  // measure 54
0000
0000
0100
0010
0000
0010
0000
0000
,  // measure 55
1000
0000
0001
0100
0000
0001
0000
0100
,  // measure 56
0010
1000
0000
1100
0000
0100
0010
0011
,  // measure 57
0000
0001
0010
0110
0000
1000
0100
0010
,  // measure 58
0001
0000
0000
0000
0100
0000
0000
0001
,  // measure 59
1000
0000
0001
0101
0000
0010
0100
1010
,  // measure 60
0000
0100
0000
0110
0000
0001
0010
0110
,  // measure 61
0000
1000
0100
0110
0000
0001
0010
0110
,  // measure 62
0000
0000
1000
0000
0100
0010
0001
0000
,  // measure 63
0100
0010
0100
0001
0000
1000
0010
0010
,  // measure 64
0000
0100
0010
1000
0000
0010
0100
0001
,  // measure 65
0200
0000
0000
0310
0000
0010
2000
0000
,  // measure 66
3010
0020
0000
0030
0100
0000
0100
0001
,  // measure 67
0100
0001
0100
0010
0000
0100
0000
0002
,  // measure 68
0000
1003
1000
0000
0010
0100
0010
2000
,  // measure 69
0000
0100
3100
0010
,  // measure 70
1001
0000
0010
0000
1100
0000
0001
0100
,  // measure 71
1000
0000
0010
1000
0001
0000
0010
0100
,  // measure 72
0000
0100
1000
0000
0010
0100
0000
0110
,  // measure 73
0000
0000
0010
0000
1000
0000
0001
0100
,  // measure 74
0001
0000
1000
0000
0001
0000
1000
0002
,  // measure 75
0000
0000
0103
0010
0100
0000
0010
1010
,  // measure 76
0000
0000
0100
0000
0010
0100
0001
2000
,  // measure 77
0000
3000
1010
0000
0100
0001
0100
0000
,  // measure 78
0011
0000
0001
1000
0100
0000
0011
0000
,  // measure 79
1000
0001
0010
0000
1100
0000
0010
1000
,  // measure 80
0000
0010
1000
0001
0010
0100
0000
0110
,  // measure 81
0000
0000
0001
0000
1000
0001
1000
0002
,  // measure 82
0000
0003
1000
0000
0001
0000
0100
0001
,  // measure 83
0100
0000
0001
1000
0010
0000
0100
0000
,  // measure 84
0020
0000
0000
0000
0130
0010
0100
0000
,  // measure 85
0202
0000
0000
0303
0000
0001
0000
2000
,  // measure 86
0000
3001
0100
0002
0000
0103
0010
0000
,  // measure 87
1000
0100
1000
0100
1000
0000
0000
0000
0000
0000
0010
0000
0000
0000
1010
0000
,  // measure 88
0000
0100
0001
0200
0000
0301
0100
0000
,  // measure 89
0001
0010
0000
0001
0100
0000
0100
0010
,  // measure 90
0000
1000
0010
0200
0000
0000
0000
0000
,  // measure 91
0000
0000
0000
0300
;
