#VERSION:0.83;
#TITLE:Tsuki ni itta milk;
#SUBTITLE:;
#ARTIST:Satomura Hinata;
#TITLETRANSLIT:;
#SUBTITLETRANSLIT:;
#ARTISTTRANSLIT:;
#GENRE:;
#ORIGIN:;
#CREDIT:from pop n music 8 / 6 CS;
#BANNER:CS6_KIDS.png;
#BACKGROUND:;
#PREVIEWVID:;
#JACKET:;
#CDIMAGE:;
#DISCIMAGE:;
#LYRICSPATH:;
#CDTITLE:;
#MUSIC:Satomura Hinata - Tsuki ni itta milk.ogg;
#OFFSET:-0.060000;
#SAMPLESTART:17.381001;
#SAMPLELENGTH:16.000000;
#SELECTABLE:YES;
#BPMS:0.000=134.979;
#STOPS:;
#DELAYS:;
#WARPS:;
#TIMESIGNATURES:0.000=4=4;
#TICKCOUNTS:0.000=4;
#COMBOS:0.000=1;
#SPEEDS:0.000=1.000=0.000=0;
#SCROLLS:0.000=1.000;
#FAKES:;
#LABELS:0.000=Song Start;
#BGCHANGES:;
#KEYSOUNDS:;
#ATTACKS:
;

//---------------dance-single - ----------------
#NOTEDATA:;
#CHARTNAME:;
#STEPSTYPE:dance-single;
#DESCRIPTION:;
#CHARTSTYLE:;
#DIFFICULTY:Beginner;
#METER:2;
#RADARVALUES:0.106647,0.152837,0.030265,0.110971,0.000000,74.000000,71.000000,3.000000,11.000000,0.000000,0.000000,0.000000,0.000000,0.000000,0.106647,0.152837,0.030265,0.110971,0.000000,74.000000,71.000000,3.000000,11.000000,0.000000,0.000000,0.000000,0.000000,0.000000;
#CREDIT:;
#NOTES:
0000
0000
0000
0000
,
0000
0001
0000
0000
0000
0000
0000
0000
,
0000
0001
0000
0000
0000
0000
0000
0000
,
1000
0000
0000
0000
,
0001
0000
0000
0000
,
0100
0000
0000
0000
,
0010
0000
0000
0000
,
0100
0000
0100
0000
,
0100
0000
0000
0000
,
0001
0000
0000
0000
,
0000
1000
0000
0000
0000
0000
0000
0000
,
0000
0001
0000
0000
0000
0000
0000
0000
,
0100
0000
0010
0000
,
0100
0000
0020
0000
,
1030
0000
0001
0000
,
1000
0000
0001
0000
,
0100
0000
0000
0000
,
0010
0000
0010
0000
,
0200
0000
0000
0000
0000
0300
0000
0000
,
0002
0000
0003
0000
,
1100
0000
1000
0000
,
0100
0000
0010
0000
,
0001
0000
0000
0000
,
2000
0000
3000
0000
,
0001
0000
0001
0000
,
0100
0000
0000
0000
,
0110
0000
0000
0000
,
0100
0000
0010
0000
,
0100
0000
0000
0000
,
0010
0000
0100
0000
,
0010
0000
0100
0000
,
0001
0000
0000
0000
,
2000
0000
3000
0000
,
0002
0000
0003
0000
,
0100
0000
0010
0000
,
0100
0000
0000
0000
,
0001
0000
0001
0000
,
1000
0000
0000
0000
,
1000
0000
0100
0000
,
0010
0000
0001
0000
,
1000
0000
0100
0000
,
0010
0000
0000
0000
,
0002
0000
0003
0000
,
1000
0000
0001
0000
,
1000
0000
0000
0000
,
0001
0000
1000
0000
,
0001
0000
1000
0000
,
0002
0000
0003
0000
,
2002
0000
3003
0000
,
1000
0000
0001
0000
,
2000
0000
3000
0000
;

//---------------dance-single - ----------------
#NOTEDATA:;
#CHARTNAME:;
#STEPSTYPE:dance-single;
#DESCRIPTION:;
#CHARTSTYLE:;
#DIFFICULTY:Easy;
#METER:4;
#RADARVALUES:0.197442,0.212863,0.060530,0.110971,0.000000,137.000000,131.000000,6.000000,11.000000,0.000000,0.000000,0.000000,0.000000,0.000000,0.197442,0.212863,0.060530,0.110971,0.000000,137.000000,131.000000,6.000000,11.000000,0.000000,0.000000,0.000000,0.000000,0.000000;
#CREDIT:;
#NOTES:
0000
0000
0000
0000
0000
0000
0000
0001
,
0000
0001
0000
0000
0000
1000
0000
1000
,
0000
0001
0000
0001
0000
0100
0000
0000
,
0010
0000
0100
0000
,
0002
0000
0000
0003
0100
0000
0010
0000
,
0100
0000
0001
1000
,
0010
0000
0100
0000
,
0010
0010
1000
0000
,
0001
0100
0100
0000
,
0010
0100
0000
0100
,
0010
0100
0000
0001
,
0001
1000
0001
0000
,
0100
0000
0010
0000
,
0100
0000
0001
1000
,
1000
0100
0010
0000
,
0001
0010
0010
0000
,
0100
1000
0100
0000
,
0010
0000
0010
0010
,
0010
0000
0001
1000
,
0001
0000
0100
0001
,
0100
0000
1000
0000
,
0001
0000
0100
0000
,
0002
0000
1003
0000
,
2000
0000
3001
0000
,
0100
0010
0010
0000
,
0100
0001
0001
0000
,
1001
0000
1000
0000
,
0110
0000
0010
0000
,
0100
0010
0100
0000
,
0110
0000
1001
0000
,
0010
0000
0100
0010
,
0010
0000
1000
0100
,
1000
0001
0010
0000
,
0001
0100
0001
0100
,
0002
0003
0100
0000
,
0100
0001
0000
0100
,
0001
0100
0000
0001
,
1000
0001
1000
0000
,
0001
0000
0110
0000
,
0100
0001
0001
0000
,
1000
0010
0010
0000
,
0100
0000
0001
0000
,
0002
0000
1003
0000
,
1000
0100
0010
0000
,
1000
0000
0001
0000
,
1000
0010
1000
0010
,
1000
0000
0002
0003
,
2000
0000
3000
0000
,
2002
0000
3003
0000
,
0001
0100
0002
0003
,
2000
0000
0000
0000
,
0000
0000
0000
0000
,
0000
0000
0000
3000
;

//---------------dance-single - ----------------
#NOTEDATA:;
#CHARTNAME:;
#STEPSTYPE:dance-single;
#DESCRIPTION:;
#CHARTSTYLE:;
#DIFFICULTY:Medium;
#METER:9;
#RADARVALUES:0.426590,0.453405,0.161412,0.121059,0.005044,296.000000,280.000000,16.000000,12.000000,0.000000,0.000000,0.000000,0.000000,0.000000,0.426590,0.453405,0.161412,0.121059,0.005044,296.000000,280.000000,16.000000,12.000000,0.000000,0.000000,0.000000,0.000000,0.000000;
#CREDIT:;
#NOTES:
0000
0000
0000
0000
0000
0000
1000
0001
,
0100
0001
0100
0000
0001
0000
1000
0100
,
0010
0001
0000
1000
0010
0000
0010
0100
,
0010
0110
0101
1000
,
0002
0000
0000
0003
0100
0000
0010
0100
,
0010
0100
0000
0000
0001
0000
1000
0001
,
1000
0001
0000
0000
0110
0000
0010
0100
,
0010
0100
0000
0010
1000
0010
1000
0001
,
0100
0001
0100
0010
,
0200
0300
0010
0000
0000
0000
0100
0010
,
0100
0001
0000
0000
1000
0000
0001
0100
,
0001
0000
1000
0100
1000
0000
0000
0000
,
0110
0100
1001
0010
,
0200
0000
0301
0000
1000
0001
1000
0000
,
0001
0100
0001
0100
0010
0000
1000
0100
,
0010
0001
0010
0001
0010
0000
0001
1000
,
0001
0100
0010
0100
0001
0000
1000
0010
,
0010
0000
0100
0010
,
0100
0010
1000
0001
0100
0010
1000
0001
,
0000
0001
0000
1000
0002
0000
1003
0000
,
0010
0100
0010
0100
0000
0001
0001
0000
,
1000
0001
1000
0001
0000
0100
0100
0100
,
0000
0001
1000
0001
0000
1000
0100
1000
,
0100
0000
0010
0001
0010
0001
0000
0100
,
0001
0000
0100
0010
0100
0000
0001
0000
,
0100
0001
0100
0001
0001
0000
1000
0000
,
1001
0010
1010
0100
,
0010
0100
0010
0100
0000
0000
0110
0000
,
0100
0010
0100
0010
0000
0000
1001
0000
,
0100
0010
0100
0010
0100
0001
0010
1000
,
0010
0001
0100
1000
0100
0010
0001
0010
,
0100
0001
0000
0001
1000
0000
0100
0010
,
0010
0000
0001
0010
0100
0000
1000
0000
,
0001
0010
0100
1000
0100
0001
0100
0000
,
0100
0010
0001
1000
0200
0000
0310
0000
,
0001
1000
0000
0001
0000
0100
1000
0100
,
0001
0010
0100
1000
0001
0000
0001
0001
,
1000
1000
0000
0001
0100
0010
0010
1000
,
0002
0103
0000
0100
0010
0000
0010
0100
,
0010
0000
0110
0000
1001
0000
1000
0100
,
0010
0000
0100
0010
0001
0000
1001
0000
,
0100
0110
0002
1003
,
0001
0011
1001
1000
,
0100
0010
0100
0010
0001
0000
0010
0100
,
0010
0100
1000
0001
0100
0000
0010
1000
,
0002
0003
0001
0010
0100
1000
0000
0010
,
0100
0000
0000
0000
0001
0010
0100
1000
,
0010
0100
0001
0010
0100
1000
0000
0000
,
1000
0100
0010
0002
0000
0003
1000
0000
,
1001
0000
0100
0010
0010
0020
0030
0010
,
1000
0000
2000
0000
,
3000
0000
0000
0002
0000
0000
0000
0000
0000
0000
0000
0000
0000
0000
0000
0000
,
0000
0000
0000
0000
0000
0000
0000
0003
;

//---------------dance-single - ----------------
#NOTEDATA:;
#CHARTNAME:;
#STEPSTYPE:dance-single;
#DESCRIPTION:;
#CHARTSTYLE:;
#DIFFICULTY:Hard;
#METER:13;
#RADARVALUES:0.583679,0.586759,0.211854,0.252207,0.221942,405.000000,384.000000,21.000000,25.000000,0.000000,0.000000,0.000000,0.000000,0.000000,0.583679,0.586759,0.211854,0.252207,0.221942,405.000000,384.000000,21.000000,25.000000,0.000000,0.000000,0.000000,0.000000,0.000000;
#CREDIT:;
#NOTES:
// measure 0
0000
0000
0000
0000
0000
0000
1000
0001
,  // measure 1
0100
0000
0001
0000
0100
0000
0001
1000
0001
0000
1000
0001
0100
0000
0010
0000
,  // measure 2
0100
0000
0001
0010
0001
0000
1000
0000
0010
0000
0100
0010
0001
0000
0010
0000
,  // measure 3
0100
0001
1000
0001
0100
0001
1001
0000
,  // measure 4
0002
0000
0103
0000
0100
0010
1000
0100
,  // measure 5
0010
0001
0010
0000
0001
1000
0001
1000
0001
0000
0000
0000
1000
0000
0001
0000
,  // measure 6
0100
0001
1000
0010
0220
0330
0010
0100
,  // measure 7
0010
1000
0000
0001
0001
1000
1000
0001
,  // measure 8
0100
0020
0130
0002
0103
0020
1030
0002
,  // measure 9
1003
0000
0110
0000
0000
0000
0010
0001
,  // measure 10
1000
0000
0001
0000
1000
0000
0010
0100
0010
0000
0100
0000
0001
0000
0100
0000
,  // measure 11
0001
0000
1000
0100
0010
0000
0001
0000
1000
0000
0010
0100
0010
0000
0100
0000
,  // measure 12
0010
0010
0200
0310
0020
0130
0002
0003
,  // measure 13
0100
0000
0001
0100
0001
0000
1000
0001
1000
0000
0001
0010
0100
0000
0010
0000
,  // measure 14
0001
0100
0001
0100
0020
0030
1000
0100
,  // measure 15
1000
0000
0100
0000
0010
0000
0100
0000
1000
0000
0000
0000
0001
0000
1000
0001
,  // measure 16
1000
0001
0010
0100
0010
0002
0003
0010
,  // measure 17
0001
0000
0100
0010
,  // measure 18
1000
0000
0001
1000
0001
0000
0100
0000
0010
0000
0001
0000
1000
0000
0100
0000
,  // measure 19
0001
0000
1000
0100
1000
0100
1000
0000
0002
0000
0000
0000
2003
3000
0000
0000
,  // measure 20
0010
0000
0100
0010
0100
0000
0010
0000
0100
0000
0001
0000
1000
0001
0100
0000
,  // measure 21
0001
0000
0100
0010
0100
0000
0001
0000
0100
0000
0001
1000
0001
0000
0200
0000
,  // measure 22
0000
0000
0001
0000
0301
0000
0001
0000
1000
0000
0001
1000
0001
0000
0000
0000
,  // measure 23
0101
0000
0100
0001
0010
0001
0000
0100
,  // measure 24
0001
0100
0001
0100
0001
0000
0100
0000
0010
0000
1000
0000
1001
0000
0010
0100
,  // measure 25
0010
0000
0100
0000
0001
0000
0001
0000
1000
0000
0010
1000
0001
0000
0100
0000
,  // measure 26
0200
0000
0000
0000
0310
0000
0100
0001
0100
0000
0010
0000
0100
0000
0100
0000
,  // measure 27
0010
1000
0010
0100
0000
0000
0110
0000
,  // measure 28
0110
0010
0100
0010
0000
0000
1001
0000
,  // measure 29
1001
0001
0010
0001
0010
0001
0010
0011
,  // measure 30
1000
0001
0100
0010
0100
0010
0001
1000
,  // measure 31
0100
0010
0000
0001
0010
1000
0100
0010
,  // measure 32
0110
0000
0000
0000
0001
0000
0010
0000
0001
0000
1000
0001
1000
0000
0001
0000
,  // measure 33
0100
0010
0100
0010
0110
0001
1000
0010
,  // measure 34
0110
0100
0001
1000
0100
0010
0001
0000
,  // measure 35
0001
0000
1000
0000
0000
1000
0001
0000
0100
0000
0010
0000
1000
0000
0010
0000
,  // measure 36
0010
0000
0010
0000
0000
0000
1000
0001
1000
0000
0000
0000
0001
0000
0001
0000
,  // measure 37
1000
1000
0000
0101
0101
0001
0100
0001
,  // measure 38
0100
0020
0130
0200
0310
0000
0010
1000
,  // measure 39
0010
0000
0100
0001
0100
0000
0001
0100
0001
0000
0000
0000
1000
0000
0010
0000
,  // measure 40
0100
0000
0001
0000
0100
0000
0010
0100
0001
0000
0000
1000
0001
0000
0000
0000
,  // measure 41
0100
0000
0010
0000
0100
0010
0100
0000
0002
0000
0003
0000
2000
0000
3000
0000
,  // measure 42
0001
0000
0101
0000
0101
0000
0000
0000
1001
0000
0001
1000
0001
0000
0000
0000
,  // measure 43
0100
0000
0010
0000
0100
0000
0001
0000
1000
0000
0010
0100
0010
0000
0100
0000
,  // measure 44
0010
0000
0010
0000
1000
0000
0001
1000
0001
0000
0001
1000
0001
0000
1000
0000
,  // measure 45
0200
0300
0010
0001
1000
1001
0000
0010
,  // measure 46
0100
0000
1000
0100
0011
0010
0100
1000
,  // measure 47
0001
0100
0001
0000
0100
0000
0010
0200
0000
0000
0300
0000
0010
0000
0100
0000
,  // measure 48
0001
0000
0100
0001
0100
0000
0001
0020
0000
0000
0030
0000
0100
0000
0010
0000
,  // measure 49
1001
0000
0100
0010
0100
0001
0000
0010
,  // measure 50
1000
0000
2000
0000
,  // measure 51
3000
0000
0000
0002
0000
0000
0000
0000
0000
0000
0000
0000
0000
0000
0000
0000
,  // measure 52
0000
0000
0000
0000
0000
0000
0000
0003
;
