#VERSION:0.83;
#TITLE:Tozanshatachi;
#SUBTITLE:;
#ARTIST:hinode155;
#TITLETRANSLIT:;
#SUBTITLETRANSLIT:;
#ARTISTTRANSLIT:;
#GENRE:TOZAN;
#ORIGIN:;
#CREDIT:from pop n music 11;
#BANNER:hinode155 -Tozanshatachi.png;
#BACKGROUND:;
#PREVIEWVID:;
#JACKET:;
#CDIMAGE:;
#DISCIMAGE:;
#LYRICSPATH:;
#CDTITLE:;
#MUSIC:hinode155 -Tozanshatachi.ogg;
#OFFSET:-0.266000;
#SAMPLESTART:34.208000;
#SAMPLELENGTH:12.000000;
#SELECTABLE:YES;
#BPMS:0.000=175.000;
#STOPS:;
#DELAYS:;
#WARPS:;
#TIMESIGNATURES:0.000=4=4;
#TICKCOUNTS:0.000=4;
#COMBOS:0.000=1;
#SPEEDS:0.000=1.000=0.000=0;
#SCROLLS:0.000=1.000;
#FAKES:;
#LABELS:0.000=Song Start;
#BGCHANGES:;
#KEYSOUNDS:;
#ATTACKS:
;

//---------------dance-single - ----------------
#NOTEDATA:;
#CHARTNAME:;
#STEPSTYPE:dance-single;
#DESCRIPTION:;
#CHARTSTYLE:;
#DIFFICULTY:Beginner;
#METER:4;
#RADARVALUES:0.181968,0.270128,0.054904,0.021962,0.000000,116.000000,111.000000,5.000000,2.000000,0.000000,0.000000,0.000000,0.000000,0.000000,0.181968,0.270128,0.054904,0.021962,0.000000,116.000000,111.000000,5.000000,2.000000,0.000000,0.000000,0.000000,0.000000,0.000000;
#CREDIT:;
#NOTES:
0000
0000
0000
0000
,
0000
0000
0000
0000
,
0000
0000
0000
0000
,
0000
0000
0000
0000
,
0000
0000
0000
0000
,
1000
0000
0001
0000
,
0100
0000
0010
0000
,
0110
0000
0100
0000
,
0110
0000
0001
0000
,
1000
0000
0100
0000
,
0010
0000
0001
0000
,
1000
0000
0001
0000
,
0010
0000
0100
0000
,
1000
0000
0000
0000
,
1000
0000
0000
0000
,
0001
0000
0000
0000
,
0001
0000
0000
0000
,
1000
0100
1000
0000
,
0001
0010
0001
0000
,
1000
0100
1000
0000
,
0001
0010
0001
0000
,
1000
0000
1000
0000
,
0001
0000
0001
0000
,
1001
0000
1000
0000
,
0001
0000
1000
0000
,
0010
0000
0100
0000
,
0001
0000
0000
0000
,
0100
0000
0010
0000
,
0100
0000
0000
0000
,
0001
0000
0001
0000
,
1000
0000
0000
0000
,
1000
0000
1000
0000
,
0001
0000
0000
0000
,
0001
0010
0001
0000
,
1000
0100
1000
0000
,
1000
0000
1001
0000
,
1000
0000
1000
0000
,
0001
0000
0010
0000
,
0001
0000
0010
0000
,
0001
0000
0010
0000
,
0001
0000
0000
0000
,
1000
0000
0100
0000
,
1000
0000
0100
0000
,
1000
0000
0000
0000
,
0001
0000
0000
0000
,
0100
0000
0100
0000
,
0100
0000
0000
0000
,
0010
0100
0010
0000
,
0100
0010
0100
0000
,
0010
0000
0010
0000
,
0100
0000
0100
0000
,
0010
0000
0100
0000
,
0001
0000
0001
0000
,
1000
0000
0000
0000
,
0001
0000
0000
0000
,
1000
0100
1000
0000
,
0100
0000
1000
0000
,
0100
1000
0100
0000
,
1000
0000
0100
0000
,
1000
0100
1000
0000
,
0001
0010
0001
0000
,
2002
0000
3003
0000
;

//---------------dance-single - ----------------
#NOTEDATA:;
#CHARTNAME:;
#STEPSTYPE:dance-single;
#DESCRIPTION:;
#CHARTSTYLE:;
#DIFFICULTY:Easy;
#METER:7;
#RADARVALUES:0.316875,0.413427,0.241578,0.076866,0.000000,202.000000,180.000000,22.000000,7.000000,0.000000,0.000000,0.000000,0.000000,0.000000,0.316875,0.413427,0.241578,0.076866,0.000000,202.000000,180.000000,22.000000,7.000000,0.000000,0.000000,0.000000,0.000000,0.000000;
#CREDIT:;
#NOTES:
0000
0000
0000
0000
,
0000
0000
0000
0000
,
0000
0000
0000
0000
,
0000
0000
0000
0000
,
0110
0000
0000
0000
,
1000
0001
0001
0100
,
0100
0000
0010
0100
,
0100
0000
0100
0001
,
0010
0000
1001
0000
,
1000
0100
0100
0010
,
0010
0000
0001
1000
,
1000
0001
0001
0100
,
0010
0000
0110
0000
,
1000
1000
1000
0000
,
1000
1000
1000
0001
,
0001
0001
0001
0000
,
0001
0010
0100
0000
,
1000
0010
1000
0100
,
0010
0001
0010
0000
,
0010
0001
0010
0001
,
1000
0100
1000
0000
,
2000
0000
3001
0001
,
0002
0000
1003
0000
,
1001
0000
0110
0000
,
0100
0100
0001
0001
,
0010
0000
0100
1000
,
0002
0000
1003
0100
,
0100
0010
0010
0001
,
0100
0010
0100
0000
,
0001
1000
0001
0000
,
1000
0001
1000
1001
,
1000
0100
1000
0000
,
0001
0010
0001
1001
,
0001
0100
0001
0000
,
1000
0010
0100
0110
,
0100
0001
1001
1000
,
2200
3300
1000
0000
,
0100
0000
0010
0000
,
0011
0000
0010
0000
,
0010
0110
0100
0011
,
0001
1100
0100
0000
,
1000
1100
0100
0110
,
0001
0100
0020
0030
,
1000
0000
1000
0000
,
0001
0001
0010
0001
,
0001
0000
0100
0000
,
0010
0100
0010
0000
,
0100
0100
0010
0110
,
0100
0010
1000
1001
,
0001
1000
0010
0100
,
0010
0100
0010
0110
,
0010
0000
0100
0001
,
1000
0001
0002
0003
,
1000
0000
1000
0100
,
0010
0000
0010
0001
,
1000
0000
1000
0100
,
0100
0000
1000
0010
,
0010
0000
0110
0000
,
1000
0001
0100
0000
,
0001
0100
0101
0000
,
0001
0010
0011
0000
,
0001
0000
0000
0000
,
0000
0000
0000
0001
;

//---------------dance-single - ----------------
#NOTEDATA:;
#CHARTNAME:;
#STEPSTYPE:dance-single;
#DESCRIPTION:;
#CHARTSTYLE:;
#DIFFICULTY:Medium;
#METER:10;
#RADARVALUES:0.470606,0.482332,0.263539,0.120789,0.000000,300.000000,276.000000,24.000000,11.000000,0.000000,0.000000,0.000000,0.000000,0.000000,0.470606,0.482332,0.263539,0.120789,0.000000,300.000000,276.000000,24.000000,11.000000,0.000000,0.000000,0.000000,0.000000,0.000000;
#CREDIT:;
#NOTES:
0000
0000
0000
0000
,
0000
0000
0000
0000
,
0000
0000
0000
0000
,
0110
0110
1001
1001
,
2000
0000
3001
0000
,
1000
0000
0001
0000
0000
0100
0000
0001
,
0100
0001
0000
0010
0000
0100
0000
1000
,
0100
1000
0000
0100
0000
0010
0000
0001
,
0010
0100
0000
1000
0001
0000
1000
0000
,
1000
0100
0010
0000
0100
0010
0001
0000
,
0010
0001
0100
0000
0010
0001
1000
0000
,
0010
0001
0100
0000
0001
0010
0100
0000
,
0010
0000
0101
0000
,
1000
0001
0000
1000
0000
0001
0000
0100
,
0000
0010
0000
1000
0000
0001
0010
0001
,
0000
1000
0000
0101
0000
1000
0000
0101
,
0000
0000
0110
0010
,
1000
0100
0010
0000
1000
0010
0100
0000
,
1000
0100
0001
0000
0010
0000
0011
0000
,
0001
0000
1000
0000
0010
0001
0100
0000
,
0010
0100
0100
0000
0001
0000
1001
0000
,
2000
0100
3001
0001
,
0002
0100
1003
1000
,
2000
3010
0200
0301
,
0200
0300
0001
0001
,
0011
0000
0001
0010
0100
0000
1000
0010
,
0100
0000
0010
0000
1000
0000
0100
0001
,
0100
0000
0010
0001
0010
0000
0001
0010
,
0100
1000
0100
0001
,
0110
0000
1000
0001
0100
0000
0000
0010
,
1000
0000
0001
1000
0010
0000
0110
0000
,
1000
0100
0010
0001
0010
0000
0001
0000
,
0001
0000
0001
0010
0100
0000
0011
0000
,
0001
0010
0100
0000
0001
0100
0010
0000
,
0001
0010
1000
0000
0001
0000
0011
0000
,
0101
0000
0100
0010
0100
0000
0010
0001
,
2000
3000
0001
0000
,
0100
0000
0000
0010
0010
0000
0100
0010
,
0100
0000
0010
0100
0010
0000
0000
0100
,
0100
0000
0010
0100
0010
0000
0100
0001
,
0100
0000
0010
0001
0100
0000
0000
0001
,
0001
0000
0000
1000
1000
0000
0000
0100
,
0010
0000
0010
0001
0200
0000
0300
0000
,
0010
0100
0010
0000
,
0001
0001
0010
0100
,
1000
1100
0110
0011
,
0020
0030
0001
0000
,
0100
0110
0010
1001
,
0100
0000
0010
0001
1000
0000
0001
0000
,
0100
0000
0010
1000
0010
1000
0010
0000
,
0100
0000
0001
0010
0001
0000
0110
0000
,
1000
0110
0001
1100
,
1000
0000
0001
0010
0002
0000
0000
0000
,
1003
0000
0100
0000
1000
0010
0100
0000
,
0010
0100
0001
0000
0010
0001
0010
0000
,
0001
0000
1000
0100
0010
0000
1000
0010
,
0100
0000
1000
0100
0010
0000
0001
0010
,
0100
0000
0001
1000
0010
0000
0001
0010
,
0100
0000
0001
0100
0010
0000
0001
0010
,
0100
0000
0001
0100
0010
0000
0001
0000
,
0010
0000
0001
0100
0010
0000
0100
0000
,
0002
0003
0000
0000
,
0000
0000
0001
0001
;

//---------------dance-single - ----------------
#NOTEDATA:;
#CHARTNAME:;
#STEPSTYPE:dance-single;
#DESCRIPTION:;
#CHARTSTYLE:;
#DIFFICULTY:Hard;
#METER:13;
#RADARVALUES:0.633749,0.792402,0.318443,0.098827,0.164712,404.000000,375.000000,29.000000,9.000000,0.000000,0.000000,0.000000,0.000000,0.000000,0.633749,0.792402,0.318443,0.098827,0.164712,404.000000,375.000000,29.000000,9.000000,0.000000,0.000000,0.000000,0.000000,0.000000;
#CREDIT:;
#NOTES:
// measure 0
0000
0000
0000
0000
,  // measure 1
0000
0000
0000
0000
,  // measure 2
0000
0000
0000
0000
,  // measure 3
0110
0110
1010
1100
,  // measure 4
1000
0001
1000
0001
1000
0000
0001
0000
0001
0000
0000
0000
1000
0000
0000
0000
,  // measure 5
1000
0100
0001
0000
0100
0010
0001
0000
,  // measure 6
0100
0001
0010
0000
0100
1000
0100
1000
,  // measure 7
0100
0010
0001
0100
0000
0010
0100
0001
,  // measure 8
0010
0000
0001
1000
1001
0000
1000
0100
,  // measure 9
1100
0000
0010
0001
0100
0010
0000
0100
,  // measure 10
0010
0000
0100
0010
0100
0000
0010
0100
0010
0000
0000
0000
1000
0000
0100
0000
,  // measure 11
0110
0000
0001
0100
0001
0000
0100
0001
0100
0000
0000
0000
0001
0000
0000
0000
,  // measure 12
0010
0100
0101
0000
,  // measure 13
1000
0001
0000
1000
0000
0010
0000
0100
,  // measure 14
0000
0001
0000
1000
0100
1000
0010
0001
,  // measure 15
0000
0010
0000
0100
0000
0001
0000
0100
,  // measure 16
0101
0101
0101
0101
0101
0000
0010
0000
,  // measure 17
1000
0000
0000
0100
0010
0000
0001
0000
1000
0010
0100
0000
0001
0000
1000
0000
,  // measure 18
1000
0001
0100
0000
0010
0000
0110
0000
,  // measure 19
0001
0000
0000
1000
0010
0000
1000
0000
0010
0000
0100
0000
0010
0000
1000
0010
,  // measure 20
0100
0000
0010
1000
0010
0000
0000
0000
0100
0000
0000
0001
1000
0000
0000
0000
,  // measure 21
1000
0100
0100
0000
0010
0010
0001
0010
,  // measure 22
0002
0100
0000
0100
0003
0010
1000
0100
,  // measure 23
2000
3000
0200
0300
0020
0030
0002
0003
,  // measure 24
0200
0301
0000
0100
0001
0100
0001
0010
,  // measure 25
0001
0000
0001
0000
0100
0001
0010
0001
,  // measure 26
0100
0000
0010
0000
1000
0000
0100
0001
,  // measure 27
0100
0001
0100
0010
0001
0000
0001
0000
,  // measure 28
0101
0000
1000
0001
0100
0000
0001
0010
,  // measure 29
0100
0000
1000
0001
0100
0000
0010
0100
,  // measure 30
1000
0000
0001
0010
0100
0000
0110
0000
,  // measure 31
0100
1000
0001
0010
0100
0000
0001
0100
,  // measure 32
0001
0000
0000
0010
0001
0000
0010
0000
0100
0000
0000
0000
1100
0000
0000
0000
,  // measure 33
0001
0000
0000
0100
0010
0000
0100
0000
0001
0000
0000
0000
0010
0000
0001
0000
,  // measure 34
0001
0000
0000
0010
0100
0000
0010
0000
0001
0000
0000
0000
0011
0000
0000
0000
,  // measure 35
0100
0010
0100
0010
0100
0001
0010
0001
,  // measure 36
1000
0001
1000
0001
1000
0000
0000
0000
0001
0000
0000
0000
0001
0000
0000
0000
,  // measure 37
0100
0000
0100
0010
0010
0000
0101
0010
,  // measure 38
0100
0000
0010
0100
0010
0000
0100
0001
,  // measure 39
0100
0000
1010
1000
0010
0100
0010
0100
,  // measure 40
0001
0100
0010
1000
0001
0000
1000
0000
,  // measure 41
0001
0000
0110
0000
1000
0000
0100
0010
,  // measure 42
0001
0000
0010
0001
0200
0010
0310
0100
,  // measure 43
0010
0100
0001
1000
0010
0100
0000
0100
,  // measure 44
0001
0001
0010
0100
,  // measure 45
1100
0110
0011
0110
,  // measure 46
0010
0100
0010
0100
0010
0000
0100
0000
0010
0000
0000
0000
0100
0000
0000
0000
,  // measure 47
0010
0000
0110
0000
0010
0000
1000
0001
,  // measure 48
0100
0000
0010
0100
0001
0000
0001
0010
,  // measure 49
0100
0000
0010
0001
0010
1000
0010
0001
,  // measure 50
0100
0000
0000
0001
0010
0000
0001
0000
0010
0000
0000
0000
0001
0000
0000
0000
,  // measure 51
1000
0100
0010
0010
0001
0000
1100
0100
,  // measure 52
1000
0000
0000
0000
0001
0000
0010
0000
0002
0000
0000
0000
0103
0001
0100
0001
,  // measure 53
0100
0001
0100
0000
0001
0010
0000
0100
,  // measure 54
0010
0000
0001
0100
0010
0000
0100
0001
,  // measure 55
1001
0000
1000
0100
0010
0001
1000
0010
,  // measure 56
0100
0000
0010
0100
1000
0000
0010
0100
,  // measure 57
0001
0000
1000
0001
0010
0000
0001
0010
,  // measure 58
0100
0010
0001
0100
0010
0100
0001
0000
,  // measure 59
0100
0001
0100
0001
0100
0000
0001
0100
0010
0100
0001
0000
0000
0000
0000
0000
,  // measure 60
0001
0100
0010
0100
0001
0000
0100
0001
0100
0001
0100
0000
0001
0000
0100
0000
,  // measure 61
0002
0003
0000
0000
,  // measure 62
0000
0000
0000
0011
;
