#TITLE:Toxic;
#SUBTITLE:;
#ARTIST:Local H;
#TITLETRANSLIT:;
#SUBTITLETRANSLIT:;
#ARTISTTRANSLIT:;
#GENRE:;
#CREDIT:;
#BANNER:;
#BACKGROUND:;
#LYRICSPATH:;
#CDTITLE:;
#MUSIC:Local H - Toxic (Britney Spears Cover)-cut.ogg;
#OFFSET:-0.047000;
#SAMPLESTART:50.494999;
#SAMPLELENGTH:19.900000;
#SELECTABLE:YES;
#DISPLAYBPM:141.000000;
#BPMS:0.000000=141.501999
,184.000000=142.000000
,185.000000=141.501999
;
#STOPS:
;
#BGCHANGES:;
#KEYSOUNDS:;
#ATTACKS:;

//---------------dance-single - ----------------
#NOTES:
     dance-single:
     :
     Beginner:
     3:
     0.113254,0.146352,0.029362,0.022022,0.000000,108.000000,104.000000,4.000000,3.000000,0.000000,0.000000,0.113254,0.146352,0.029362,0.022022,0.000000,108.000000,104.000000,4.000000,3.000000,0.000000,0.000000:
0000
0000
0000
0000
,
0000
0000
0000
0000
,
0000
0000
0000
0000
,
0000
0000
0000
0000
,
1000
0000
0000
0000
,
0001
0000
0100
0000
,
0010
0000
0000
0000
,
0010
0000
1000
0000
,
0001
0000
0000
0000
,
0100
0000
0001
0000
,
1000
0000
0000
0000
,
0001
0000
1000
0000
,
0001
0000
0000
0000
,
1000
0000
0010
0000
,
1000
0000
0000
0000
,
0001
0000
0100
0000
,
0001
0000
0000
0000
,
1000
0000
0010
0000
,
0010
0000
0000
0000
,
0200
0000
0300
0000
,
0010
0000
0000
0000
,
1000
0000
0001
0000
,
1000
0000
0000
0000
,
0001
0000
1000
0000
,
0001
0000
0000
0000
,
1000
0000
0000
0000
,
0001
0000
0000
0000
,
1000
0000
0100
0000
,
0100
0000
0000
0000
,
0000
0000
0000
0000
,
0110
0000
0000
0000
,
1000
0000
0001
0000
,
1000
0000
0000
0000
,
0001
0000
0100
0000
,
0001
0000
0000
0000
,
0001
0000
1000
0000
,
0001
0000
0000
0000
,
1000
0000
0010
0000
,
0100
0000
0000
0000
,
0110
0000
0000
0000
,
0001
0000
0010
0000
,
0001
0000
0010
0000
,
0001
0000
0000
0000
,
1001
0000
0000
0000
,
0002
0000
0003
0000
,
1000
0000
1000
0000
,
1000
0000
0000
0000
,
0001
0000
0000
0000
,
0100
0000
0000
0000
,
0001
0000
1000
0000
,
0001
0000
0000
0000
,
1000
0000
0010
0000
,
1000
0000
0000
0000
,
0010
0000
0100
0000
,
0010
0000
0000
0000
,
0100
0000
0000
0000
,
0110
0000
0000
0000
,
0001
0000
0000
0000
,
1000
0000
0001
0000
,
1000
0000
0001
0000
,
0100
0000
0000
0000
,
0010
0000
0100
0000
,
0010
0000
0000
0000
,
0100
0000
0010
0000
,
0100
0000
0000
0000
,
0020
0000
0030
0000
,
1000
0000
0000
0000
,
0001
0000
0000
0000
,
1000
0000
0001
0000
,
1000
0000
0000
0000
,
0001
0000
0100
0000
,
0001
0000
0100
0000
,
0001
0000
0000
0000
,
1000
0000
0000
0000
,
0010
0000
0000
0000
,
0100
0000
0001
0000
,
0100
0000
0000
0000
,
0010
0000
0000
0000
,
0010
0000
0000
0000
,
0100
0000
0000
0010
;

//---------------dance-single - ----------------
#NOTES:
     dance-single:
     :
     Easy:
     6:
     0.267405,0.380515,0.198194,0.146811,0.000000,255.000000,228.000000,27.000000,20.000000,0.000000,0.000000,0.267405,0.380515,0.198194,0.146811,0.000000,255.000000,228.000000,27.000000,20.000000,0.000000,0.000000:
0000
0000
0000
0000
,
0000
0000
0000
0000
,
0000
0000
0000
0000
,
0000
0000
0000
0000
,
0110
0000
0000
0000
,
0001
1000
0001
0100
,
0110
0000
0010
1000
,
0001
0000
1000
0001
,
1000
0000
0001
0100
,
0001
0000
1000
0010
,
1000
0000
0001
0000
,
0100
0010
0100
0020
,
1030
0000
0001
0100
,
0001
0000
1000
0010
,
1000
0000
0001
0100
,
0100
0000
0001
0100
,
0010
0000
1000
0010
,
0010
0000
1000
0010
,
0100
0000
0001
0000
,
1000
0001
1000
0002
,
0103
0000
0010
0000
,
0100
0010
0200
0000
,
0301
1000
0001
0000
,
1000
0001
2000
0000
,
3010
0000
0100
0000
,
0010
0000
1000
0000
,
0002
1000
1003
0000
,
2000
0001
3001
0001
,
1000
0000
0000
0000
,
0001
0000
0000
0100
,
0110
0010
1001
0001
,
0100
0020
0000
0130
,
0010
1000
0001
1000
,
0001
0100
0010
1000
,
1001
0100
0001
1000
,
0001
0200
0000
0310
,
0100
0001
1000
0001
,
0100
0001
0100
0010
,
0000
0100
0000
0000
0010
0000
0100
0000
,
0020
0000
0130
0001
,
1000
0001
0100
0000
,
0100
0001
1000
0010
,
0000
0100
0000
0000
0001
0000
0000
0000
,
1000
1010
0000
0010
,
0100
0001
1000
0000
,
0110
0110
1001
1001
,
0000
0000
0000
0000
,
0001
0000
1000
0001
,
1000
0000
0001
0100
,
0100
0000
0100
0001
,
1000
0000
0001
0100
,
0010
1000
0010
0100
,
0001
0000
1000
0000
,
0001
1000
0001
0000
,
2000
0010
3010
0100
,
0020
1000
1030
0001
,
0200
0000
0310
0000
,
0020
0000
0030
0100
,
0110
0010
1000
0001
,
1001
0100
0001
0100
,
0010
0010
1000
0001
,
1000
0002
0000
0003
,
1000
0000
0001
0000
,
0110
0110
1001
1001
,
1001
0000
0100
0010
,
1000
0000
0001
0100
,
0001
1000
1000
0001
,
0001
0100
0010
0100
,
0110
0010
1000
1000
,
0001
0010
0001
0100
,
0020
0000
1030
0001
,
1001
1001
0110
0110
,
0220
0000
0330
0000
,
0002
0000
0003
1000
,
2000
0000
3000
0001
,
0002
0000
0003
0100
,
0010
0100
0000
0001
,
1000
0010
0000
0010
,
0100
0001
0000
0000
,
1001
1001
0110
0110
;

//---------------dance-single - ----------------
#NOTES:
     dance-single:
     :
     Medium:
     10:
     0.444626,0.468326,0.220216,0.154151,0.000000,424.000000,394.000000,30.000000,21.000000,0.000000,0.000000,0.444626,0.468326,0.220216,0.154151,0.000000,424.000000,394.000000,30.000000,21.000000,0.000000,0.000000:
0000
0000
0000
0000
,
0000
0000
0000
0000
,
0100
0001
1000
0001
0100
0000
0010
0100
,
0010
0100
0001
1000
,
0001
0000
1000
0001
1000
0001
0100
0000
,
0010
0000
1000
0001
0100
0000
0010
0000
,
0110
0000
0001
0010
0001
0010
0001
0000
,
1000
0000
0100
0010
0001
0000
1000
0000
,
1001
0000
0010
0100
0010
0100
0010
0000
,
0100
0000
0001
1000
0001
0000
1000
0000
,
0100
1000
0100
0010
0001
0000
1000
0001
,
1000
0001
0100
0001
,
1001
0000
0100
0010
0100
0010
0100
0000
,
0001
0000
1000
0001
1000
0000
0010
0000
,
0100
0000
0001
0010
0001
0010
0001
0000
,
0010
0000
0001
0010
0100
0010
0100
0000
,
1000
0000
0010
0100
0001
0100
0010
0000
,
1000
0000
0001
0100
0100
0001
0010
0000
,
0100
0010
0100
1000
0001
0000
0100
0000
,
0010
1000
0001
0100
,
0101
0000
0001
0010
0001
0000
0000
1000
,
0001
0000
0100
0000
0020
0000
0100
0030
,
0000
0100
0010
0100
0010
0000
1000
0100
,
1000
0100
0001
0100
,
1000
0000
0001
0100
0001
0000
0100
0001
,
0100
0000
0010
1000
0001
1000
0001
0000
,
0100
0010
0100
0001
0100
0000
0010
0000
,
0200
0302
2003
3020
,
0230
0000
0300
0000
,
0020
0000
0000
0000
0030
0000
0100
0010
,
0110
0000
0001
1000
0020
0000
1030
0000
,
0001
0100
0002
0000
0000
0000
1003
0010
,
1010
0100
0001
0100
,
1000
0000
0001
0100
0010
0000
1000
0000
,
0002
0000
1003
0010
0100
0000
0100
0000
,
0001
1000
0002
0000
0000
0000
1003
0010
,
0100
0000
0001
0010
0001
0000
1000
0010
,
1010
0000
0100
0001
1000
0000
0010
0000
,
0100
0010
0100
0010
0100
0001
1000
0000
,
0002
0000
1000
0000
1003
0000
0001
0100
,
0001
0000
1000
0010
1000
0000
0100
0010
,
0001
0000
1000
0100
0010
0000
0001
0000
,
1000
0100
0010
0100
1000
0010
0100
0010
,
2000
0000
0001
0000
3001
0000
0100
0010
,
0200
0010
0310
0100
,
0101
1010
0101
1010
,
1000
0000
0001
0100
0001
0000
1000
0000
,
0010
0000
0100
0010
0100
0000
0001
0000
,
1000
0000
0001
1000
0001
0000
1000
0000
,
0010
0000
0100
0010
1000
0000
0001
0000
,
0100
0000
0001
0100
0010
0000
1000
0000
,
1000
0000
0001
0100
0001
0000
1000
0000
,
0001
0000
1000
0010
0100
0000
0001
0000
,
0100
0000
0010
0100
0010
0000
1000
0000
,
0001
0101
0001
1000
,
1010
0010
0100
0101
,
0002
0000
1003
0001
,
0100
0010
0100
0000
0000
0000
0110
0000
,
1001
0000
0001
0000
0100
0000
0010
1000
,
0010
0000
1000
0100
0010
0000
0100
0010
,
0001
0000
1000
0100
1000
0000
0001
0000
,
0100
0001
0200
0000
0000
0000
0310
0100
,
0010
0000
1000
0001
0100
0000
0100
0001
,
0010
0011
0011
0110
,
1100
0000
1000
0010
1000
0000
0001
0000
,
0100
0000
0020
0000
0000
0000
0130
0001
,
0100
0001
1000
0001
,
0100
0000
0010
0100
1000
0000
0100
0000
,
0102
0000
1000
0000
1003
0000
0010
0100
,
0010
0000
0200
0000
0000
0000
0301
0100
,
0001
0000
1000
0010
0100
0000
0001
0010
,
0011
0011
1100
1100
,
0020
0000
0130
0001
,
2000
0000
3001
0000
0100
0000
0001
0100
,
0001
0000
1000
0010
1000
0010
1000
0000
,
0001
0000
0100
0010
0100
0001
0100
0000
,
0010
0000
1000
0100
0010
0001
1000
0000
,
0001
0000
0010
0100
1000
0001
0010
0000
,
0011
0000
1000
0010
0100
0001
1000
0000
,
1100
1100
0110
0011
;

//---------------dance-single - ----------------
#NOTES:
     dance-single:
     :
     Hard:
     12:
     0.522226,0.557444,0.389048,0.300962,0.029362,498.000000,445.000000,53.000000,41.000000,0.000000,0.000000,0.522226,0.557444,0.389048,0.300962,0.029362,498.000000,445.000000,53.000000,41.000000,0.000000,0.000000:
// measure 0
0000
0000
0000
0000
,  // measure 1
0000
0000
0000
0000
,  // measure 2
0000
0000
0000
0000
,  // measure 3
0000
0000
0000
0000
,  // measure 4
0100
0000
0010
0100
0010
0100
0001
0000
,  // measure 5
1001
0000
1000
0010
1000
0000
0001
0000
,  // measure 6
0101
0000
0001
0100
0010
1000
0010
0000
,  // measure 7
1000
0100
0001
0100
0010
0000
0001
0000
,  // measure 8
0011
0000
1000
0001
1000
0000
0001
0100
,  // measure 9
0001
0000
1000
0010
0100
0000
0010
0000
,  // measure 10
0100
0000
0010
0000
0100
0000
0010
0100
0010
0000
0000
0000
1000
0100
1000
0000
,  // measure 11
0002
0103
0020
1030
,  // measure 12
1010
0000
0001
0010
0100
0010
0100
0000
,  // measure 13
1000
0000
0100
0010
0100
0000
0001
0000
,  // measure 14
0100
0000
0010
0001
0100
0001
0010
0000
,  // measure 15
0001
1000
0010
0010
0100
0001
1000
0000
,  // measure 16
0001
0000
1000
0010
1000
0010
0100
0000
,  // measure 17
0110
0000
0001
0010
0001
1000
0100
0000
,  // measure 18
0010
0000
0001
0000
1000
0000
0010
0100
0010
0000
0000
0000
1000
0010
1000
0000
,  // measure 19
0002
1003
0200
0310
,  // measure 20
0101
0000
0001
0010
0100
0000
0000
1000
,  // measure 21
0100
0010
0001
1000
,  // measure 22
0110
0001
0100
1000
0001
0000
0010
1000
,  // measure 23
0001
0000
0100
0010
1000
0000
0001
0010
,  // measure 24
0011
0000
1000
0100
0010
0000
0010
0100
,  // measure 25
1000
0001
0010
0001
0100
0100
0010
0000
,  // measure 26
0100
0000
0001
0000
0100
0000
0001
0100
0001
0000
0000
0000
1000
0100
0010
0000
,  // measure 27
0002
1003
2000
3010
,  // measure 28
0100
0010
0010
0010
,  // measure 29
1000
0000
0001
0000
0001
0000
0100
0010
,  // measure 30
0110
0000
0001
0010
0001
0000
1000
0100
,  // measure 31
1100
0000
0010
0001
0000
0001
0010
0001
,  // measure 32
0200
0000
0310
1000
0010
0000
0100
0001
,  // measure 33
0100
0000
0010
0010
1000
0000
0001
0100
,  // measure 34
0101
0000
1000
0010
0100
0000
0010
0100
,  // measure 35
0010
0000
0200
0001
0000
0301
0010
0001
,  // measure 36
0100
0010
1000
0001
0100
0000
0010
0100
,  // measure 37
0010
0000
1000
0001
1000
0000
0001
0000
,  // measure 38
0000
0110
0110
0011
0011
0011
1001
0000
,  // measure 39
0002
0000
0103
0010
0000
0010
0100
0001
,  // measure 40
2000
0000
3001
0100
0010
0000
0010
0100
,  // measure 41
0001
0000
1000
0010
1000
0000
0001
0000
,  // measure 42
0000
0110
0110
1100
1100
1100
1001
0000
,  // measure 43
0200
0000
0310
0100
0000
0100
0001
1000
,  // measure 44
0002
0000
1003
0001
0100
0001
0100
0010
,  // measure 45
0220
0330
2200
3300
0220
0330
0022
0033
,  // measure 46
2000
0000
3001
0100
0000
0100
0001
0000
,  // measure 47
1000
0000
0010
0100
0000
0010
1000
0000
,  // measure 48
0001
0000
1000
0010
0000
0100
0001
0000
,  // measure 49
1000
0000
0001
1000
0000
1000
0010
0000
,  // measure 50
0200
0010
0310
0100
,  // measure 51
0020
1000
1030
0001
,  // measure 52
2000
0010
3010
0110
,  // measure 53
0002
0100
0103
1010
,  // measure 54
0001
0100
0001
0010
0001
0010
0100
0010
,  // measure 55
0001
0000
0100
0000
0010
0000
0100
0000
0001
0000
1000
0010
1000
0000
0001
0100
,  // measure 56
0001
0000
0100
0010
1000
0000
0001
0000
,  // measure 57
0100
0010
0200
0000
0300
0110
0110
0110
,  // measure 58
0101
0000
0001
1000
0001
0100
0001
0000
,  // measure 59
1001
0000
1000
0100
1000
0010
1000
0000
,  // measure 60
0001
0000
0100
0010
0100
0001
1000
0000
,  // measure 61
0001
0000
0100
0010
0200
0000
0301
0010
,  // measure 62
0001
0000
1000
0100
1000
0000
0010
0100
,  // measure 63
0011
0110
1100
1002
,  // measure 64
1003
0000
0010
0100
0001
0000
1000
0100
,  // measure 65
1100
0000
0020
0000
0100
0000
0130
0001
,  // measure 66
1000
0000
0001
0100
0001
0100
0001
0000
,  // measure 67
1000
0000
0010
1000
0010
0000
0100
0010
,  // measure 68
0200
0000
0310
0100
0010
0000
1000
0001
,  // measure 69
1000
0100
0020
0000
0031
0100
0010
1000
,  // measure 70
0010
0000
0100
0001
1000
0000
0001
0100
,  // measure 71
0101
0000
0001
0100
0020
0000
0230
0000
,  // measure 72
0301
0000
1000
0100
0001
0100
1000
0000
,  // measure 73
0101
0000
0011
0001
0010
0100
0010
0001
,  // measure 74
1000
0000
1010
1000
0100
0010
0001
0100
,  // measure 75
0101
0000
1010
0100
0010
0100
0001
1000
,  // measure 76
0010
0000
1001
0100
0001
0010
0100
1000
,  // measure 77
1010
0000
0101
0010
0100
1000
0001
0100
,  // measure 78
0100
0000
0110
0010
1000
0001
0010
0100
,  // measure 79
0220
0000
0330
0000
2200
0000
3300
0000
0022
0000
0033
0000
0220
0000
0000
0330
;
