#VERSION:0.83;
#TITLE:Tokyo Traffic Report;
#SUBTITLE:;
#ARTIST:Namekawa Kimiwo and the Hiders;
#TITLETRANSLIT:;
#SUBTITLETRANSLIT:;
#ARTISTTRANSLIT:;
#GENRE:;
#ORIGIN:;
#CREDIT:from pop n music 11 AC / 9 CS;
#BANNER:Namekawa Kimiwo and the Hiders - Tokyo Traffic Report.png;
#BACKGROUND:;
#PREVIEWVID:;
#JACKET:;
#CDIMAGE:;
#DISCIMAGE:;
#LYRICSPATH:;
#CDTITLE:;
#MUSIC:Namekawa Kimiwo and the Hiders - Tokyo Traffic Report.mp3;
#OFFSET:-0.111000;
#SAMPLESTART:9.072001;
#SAMPLELENGTH:12.000000;
#SELECTABLE:YES;
#BPMS:0.000=112.500;
#STOPS:;
#DELAYS:;
#WARPS:;
#TIMESIGNATURES:0.000=4=4;
#TICKCOUNTS:0.000=4;
#COMBOS:0.000=1;
#SPEEDS:0.000=1.000=0.000=0;
#SCROLLS:0.000=1.000;
#FAKES:;
#LABELS:0.000=Song Start;
#BGCHANGES:;
#KEYSOUNDS:;
#ATTACKS:
;

//---------------dance-single - ----------------
#NOTEDATA:;
#CHARTNAME:;
#STEPSTYPE:dance-single;
#DESCRIPTION:;
#CHARTSTYLE:;
#DIFFICULTY:Beginner;
#METER:4;
#RADARVALUES:0.151015,0.197815,0.052332,0.010466,0.000000,101.000000,96.000000,5.000000,1.000000,0.000000,0.000000,0.000000,0.000000,0.000000,0.151015,0.197815,0.052332,0.010466,0.000000,101.000000,96.000000,5.000000,1.000000,0.000000,0.000000,0.000000,0.000000,0.000000;
#CREDIT:;
#NOTES:
0000
0000
0000
0000
,
0000
0000
0000
0000
,
0000
0000
0000
0000
,
0000
0000
0000
0000
,
0000
0000
0100
0010
,
0000
0000
0100
0010
,
0000
0000
0100
0010
,
0000
0000
0100
0001
,
0000
0000
1001
0000
,
0100
0000
0010
0000
,
1000
0000
1001
0000
,
0010
0000
0001
0000
,
1000
0000
0001
0000
,
0010
0000
0001
0000
,
1000
0000
0100
0000
,
0001
0000
0010
0000
,
0001
0000
1001
0000
,
1000
0000
1000
0000
,
0100
0100
0100
0010
,
0000
0010
0001
0001
,
0001
1000
1000
0000
,
0001
0010
0001
0000
,
1000
0100
1000
0100
,
1000
0100
0100
0000
,
1000
0000
0100
1000
,
0100
0010
0001
0010
,
0001
0010
0001
0000
,
0001
0000
0210
0300
,
0100
0000
0100
0000
,
0001
0000
1000
0000
,
0010
0000
1000
0000
,
0100
0000
0010
0000
,
0001
0000
1000
0001
,
1000
0000
0001
1000
,
0001
0000
1000
0100
,
0100
0000
0100
0010
,
0010
0000
0001
0000
,
0011
0000
0001
1000
,
1000
0100
0010
0000
,
0100
0010
0010
0001
,
0001
0000
1000
0000
,
0100
0000
0000
0001
,
0010
0000
0000
0000
;

//---------------dance-single - ----------------
#NOTEDATA:;
#CHARTNAME:;
#STEPSTYPE:dance-single;
#DESCRIPTION:;
#CHARTSTYLE:;
#DIFFICULTY:Easy;
#METER:8;
#RADARVALUES:0.267640,0.339503,0.083731,0.125597,0.230260,179.000000,171.000000,8.000000,12.000000,0.000000,0.000000,0.000000,0.000000,0.000000,0.267640,0.339503,0.083731,0.125597,0.230260,179.000000,171.000000,8.000000,12.000000,0.000000,0.000000,0.000000,0.000000,0.000000;
#CREDIT:;
#NOTES:
// measure 0
0000
0000
0000
0000
,  // measure 1
0000
0000
0000
0000
,  // measure 2
0000
0000
0000
0000
0000
0000
0000
0000
0000
0000
0000
0000
0000
0000
0000
0000
0000
0000
0000
0000
0000
0000
0000
0100
,  // measure 3
0000
0000
0000
0000
0000
0000
0000
0000
0010
0000
0000
0000
0000
0000
0100
0000
0000
0000
0000
0000
0000
0000
0000
0100
,  // measure 4
0000
0000
0000
0100
0000
0000
0002
0000
0000
0000
0010
0000
,  // measure 5
0013
0000
0000
0000
0000
0000
0000
0000
0000
0000
0000
0000
2000
0000
0000
0000
0000
0000
0010
0000
0000
0000
0000
0010
,  // measure 6
3000
0000
0000
0100
0000
0000
0200
0000
0000
0000
0010
0000
,  // measure 7
0310
0000
0000
0000
0000
0000
0000
0000
0000
0000
0000
0000
0002
0000
0000
0000
0000
0000
1000
0000
0000
0000
0000
1000
,  // measure 8
0003
0000
0000
0000
0000
0000
0100
0000
0000
0000
0000
0000
1001
0000
0000
0000
0000
0001
0000
0000
0000
0000
0000
0000
,  // measure 9
1000
0000
0000
0000
0000
0000
0100
0000
0000
0000
0000
0010
0000
0000
0000
0000
0000
0010
0000
0000
0000
0000
0000
0000
,  // measure 10
0001
0000
0000
0000
0000
0000
1000
0000
0000
0000
0000
0001
0000
0000
0000
0000
0000
0001
0000
0000
0000
0000
0000
0000
,  // measure 11
0000
0000
0000
0000
0000
1000
0000
0000
0000
0000
0000
1000
0000
0000
0000
0000
0000
0000
0000
0000
0000
0000
0000
0000
,  // measure 12
0100
0000
0000
0000
0000
0000
0010
0000
0000
0000
0000
0000
0001
0000
0000
0000
0000
0001
0000
0000
0000
0000
0000
0000
,  // measure 13
0000
0000
0000
0000
0000
0000
0010
0000
0000
0000
0000
0100
0000
0000
0000
0000
0000
1000
0000
0000
0000
0000
0000
0000
,  // measure 14
0000
0000
0000
0000
0000
0000
0001
0000
0000
0000
0000
0100
0000
0000
0000
0000
0000
0010
0000
0000
0000
0000
0000
0100
,  // measure 15
0000
0000
0000
0000
0000
0010
0000
0000
0000
0000
0000
0110
0000
0000
0000
0000
0000
0100
0000
0000
0000
0000
0000
0010
,  // measure 16
0000
0000
0000
0000
0000
0100
0000
0000
0000
0000
0000
0000
0001
0000
0000
0000
0000
1000
0000
0000
0000
0000
0000
0000
,  // measure 17
0001
0100
1000
0100
,  // measure 18
0001
0010
1000
0010
,  // measure 19
0001
0000
0010
0100
0001
0000
0001
0100
,  // measure 20
0010
1000
0001
1000
,  // measure 21
0001
0010
0020
0030
0100
1000
2000
3000
,  // measure 22
0100
0100
0020
0030
0001
0010
0200
0300
,  // measure 23
1000
0100
0020
0030
0100
0010
0001
0000
,  // measure 24
1000
0100
0010
0000
0100
0000
1001
0000
,  // measure 25
0100
0010
0100
0010
0100
0000
0010
0100
,  // measure 26
0010
0100
0010
0000
1000
0100
1000
0100
,  // measure 27
1000
0000
0000
0000
0000
0000
0001
0000
0000
0010
0000
0000
0002
0000
0000
0000
0000
0000
0003
0000
0000
0000
0000
0101
,  // measure 28
0000
0000
0000
0100
0000
0000
0100
0000
0000
0000
0100
0000
,  // measure 29
0100
0000
0000
0000
0100
0000
0000
0000
0000
0000
0000
0000
0100
0000
0000
0000
0000
0000
0010
0000
0000
0000
0000
0010
,  // measure 30
0000
0000
0000
0001
0000
0000
1001
0000
0000
0000
0001
0000
,  // measure 31
0001
0000
0000
0000
0001
0000
0000
0000
0000
0000
0000
0000
0010
0000
0000
0000
0000
0000
0001
0000
0000
0000
0000
0100
,  // measure 32
0000
0000
0000
0000
0000
0000
0001
0000
0000
0000
0000
0000
1001
0000
0000
0000
0000
0000
0000
0000
0000
0000
0000
1000
,  // measure 33
0000
0000
0000
0000
0000
0000
0100
0000
0000
0000
0000
0010
0000
0000
0000
0000
0000
0100
0000
0000
0000
0000
0000
1000
,  // measure 34
0000
0000
0000
0000
0000
0000
0100
0000
0000
0000
0000
0010
0000
0000
0000
0000
0000
0010
0000
0000
0000
0000
0000
0000
,  // measure 35
0200
0000
0000
0300
0000
0001
0000
0000
0000
0000
0000
0100
0000
0000
0000
0000
0000
0000
0010
0000
0000
0000
0000
0110
,  // measure 36
0000
0000
0100
0001
0001
0000
0000
0000
,  // measure 37
1000
0100
1000
0001
1000
0000
0000
0000
,  // measure 38
0001
0100
0010
0000
0100
0000
0001
0100
,  // measure 39
0001
0000
0101
0000
0001
0000
1000
0100
,  // measure 40
0010
0000
0010
0100
1000
0000
0100
0010
,  // measure 41
0100
0001
0010
0001
,  // measure 42
0010
0000
0000
0000
0000
0002
0000
0000
0000
0000
0000
0000
0000
0000
0000
0000
0000
0000
0000
0000
0000
0000
0000
0000
,  // measure 43
0000
0003
0000
0000
;

//---------------dance-single - ----------------
#NOTEDATA:;
#CHARTNAME:;
#STEPSTYPE:dance-single;
#DESCRIPTION:;
#CHARTSTYLE:;
#DIFFICULTY:Medium;
#METER:11;
#RADARVALUES:0.411179,0.407404,0.115130,0.177928,0.554718,275.000000,264.000000,11.000000,17.000000,0.000000,0.000000,0.000000,0.000000,0.000000,0.411179,0.407404,0.115130,0.177928,0.554718,275.000000,264.000000,11.000000,17.000000,0.000000,0.000000,0.000000,0.000000,0.000000;
#CREDIT:;
#NOTES:
0000
0000
0000
0000
,
0000
0000
0000
0000
,
0000
0000
0000
0000
0000
0000
0000
0000
0000
0000
0000
0000
0000
0000
0000
0000
0000
0000
0000
0000
0000
0000
0000
0100
,
0000
0000
0000
0000
0000
0000
0000
0000
0010
0000
0000
0000
0000
0000
0100
0000
0000
0000
0010
0000
0000
0000
0000
0110
,
0000
0000
0000
0000
0000
0000
0100
0000
0000
0001
0000
0000
0010
0000
0000
0100
0000
1000
0000
0000
0010
0000
0000
0000
,
0100
0000
0010
0000
0000
0000
0100
0000
0000
0010
0000
2000
0000
0000
0000
0000
0000
0000
3010
0000
0000
0000
0000
0100
,
0000
0000
0000
0001
0000
0000
0100
0000
0000
0001
0000
0000
0100
0000
0000
0010
0000
0100
0000
0000
0010
0000
0000
0000
,
0100
0000
0001
0000
0000
0000
0001
0000
0000
1000
0000
0002
0000
0000
0000
0000
0000
0000
1003
0000
0000
0000
0000
0100
,
0000
0000
0010
0000
0000
0000
0001
0000
0000
1000
0000
0000
1001
0000
0000
0000
0000
0101
0000
0000
0000
0000
0000
0000
,
1000
0000
0000
0000
0000
0000
0100
0000
0000
0000
0000
0000
0100
0000
0000
0010
0000
0000
0000
0000
0000
0000
0001
0000
0000
0000
0000
0000
0000
0000
0000
0000
0000
0000
0011
0000
0000
0000
0000
0000
0000
0000
0000
0000
0000
0000
0000
0000
,
1000
0000
0000
0000
0000
0000
0010
0000
0000
0000
0000
0000
1000
0000
0000
0100
0000
0000
0000
0000
0000
0000
0100
0000
0000
0000
0000
0000
0000
0000
0000
0000
0000
0000
0010
0000
0000
0000
0000
0000
0000
0000
0000
0000
0000
0000
0000
0000
,
0010
0000
0000
0001
0000
1000
0000
0000
0001
0000
0000
1000
0000
0000
0000
0000
0000
0000
0001
0000
0000
0000
0000
0100
,
0000
0000
0010
0000
0000
0000
0100
0000
0000
0001
0000
0000
0010
0000
0000
0000
0000
0001
0000
0000
0010
0000
0000
0100
,
0000
0000
0000
0000
0000
0000
0000
0000
0000
0000
0000
0000
1000
0000
0000
0001
0000
0000
0000
0000
0000
0000
0100
0000
0000
0000
0000
0000
0001
0000
0000
0000
0000
0000
1000
0000
0000
0000
0000
0000
0000
0000
0000
0000
0000
0000
0001
0000
,
0000
0000
0000
0000
0000
0000
0000
0000
0000
0000
0000
0000
0001
0000
0000
0100
0000
0000
0000
0000
0000
0000
0001
0000
0000
0000
0000
0000
0100
0000
0000
0000
0000
0000
0001
0000
0000
0000
0000
0000
0000
0000
0000
0000
0000
0000
0200
0000
,
0000
0000
0000
0000
0000
0310
0000
0000
0000
0100
0000
0020
0000
0000
0000
0000
0000
0030
2000
0000
0000
0000
0000
3010
,
0000
0000
0000
0000
0000
0000
0000
0000
1001
0000
0000
0000
0001
0000
0000
0000
0000
1000
0000
0000
0000
0000
0000
0000
,
0100
0010
0100
0001
1000
0010
0100
0010
,
0001
0100
0010
0000
1000
0010
0010
0000
,
0100
0000
0000
0001
0000
0100
0000
0000
0000
0000
0000
0000
0001
0000
0000
0010
0000
0000
0001
0000
0100
0000
0000
0000
,
0010
0000
0000
1000
0000
0010
0000
0000
0100
0000
0000
0000
0001
0000
0000
0010
0000
0100
0000
0000
0000
0000
0000
0000
,
0001
0010
0002
0100
0103
0010
1000
0100
,
2000
0100
3100
0010
0002
0010
0013
0100
,
2000
0001
3001
0000
0100
0010
0100
0001
,
1000
0100
0010
0001
0100
0000
0010
0100
,
0001
0010
0100
0010
0001
0000
1010
0100
,
0110
0001
0010
0100
2000
0001
3001
0100
,
0020
0000
0000
1000
0000
0000
1030
0000
0000
0010
0000
0000
0200
0000
0000
0000
0000
0001
0300
0000
0000
0000
0000
0100
,
0000
0000
0000
0010
0000
0000
0100
0000
0000
0001
0000
0000
0100
0000
0000
0010
0000
0100
0000
0000
0010
0000
0000
0000
,
0100
0000
0001
0000
0000
0000
0100
0000
0000
0010
0000
1000
0000
0000
0000
0100
0000
0000
0001
0000
0000
0000
0000
0011
,
0000
0000
0000
0100
0000
0000
0001
0000
0000
0010
0000
0000
1000
0000
0000
0010
0000
0001
0000
0000
0100
0000
0000
0000
,
0001
0000
0100
0000
0000
0000
0001
0000
0000
0010
0000
0100
0000
0000
0000
0010
0000
0000
0010
0000
0000
0100
0000
0100
,
0000
0000
0000
1000
0000
0000
0001
0000
0000
1000
0000
0000
1001
0000
0000
0000
0000
0100
0000
0000
0000
0000
0000
0010
,
0000
0000
0000
0000
0000
0000
0100
0000
0000
0000
0000
0000
0100
0000
0000
0010
0000
0000
0000
0000
0000
0000
0010
0000
0000
0000
0000
0000
0100
0000
0000
0000
0000
0000
0100
0000
0000
0000
0000
0000
0001
0000
0000
0000
0000
0000
1000
0000
,
0000
0000
0000
0000
0000
0000
0000
0000
0000
0000
0000
0000
0100
0000
0000
0010
0000
0000
0000
0000
0000
0000
0001
0000
0000
0000
0000
0000
0100
0000
0000
0000
0000
0000
0010
0000
0000
0000
0000
0000
0100
0000
0000
0000
0000
0000
0200
0000
,
0000
0000
0000
0000
0000
0301
0000
0000
0001
0000
0000
0200
0000
0000
0000
0300
0000
0000
0010
0000
0000
0000
0000
0110
,
0000
0000
0000
0010
0000
0000
0100
0000
0000
0001
0000
0000
0001
0000
0000
0000
0000
1000
0000
0000
0001
0000
0000
0100
,
0000
0000
0000
0000
0010
0000
0000
0000
0000
0000
0000
0000
1000
0000
0000
0001
0000
0000
0000
0000
0000
0000
1000
0000
0000
0000
0000
0000
0010
0000
0000
0000
0000
0000
1000
0000
0000
0000
0000
0000
0010
0000
0000
0000
0000
0000
0000
0000
,
0100
0000
0000
0000
0000
0000
0000
0000
0000
0000
0000
0000
0010
0000
0000
0100
0000
0000
0000
0000
0000
0000
0010
0000
0000
0000
0000
0000
0100
0000
0000
0000
0000
0000
0001
0000
0000
0000
0000
0000
0100
0000
0000
0000
0000
0000
0001
0000
,
0000
0000
0000
0000
0000
0000
0010
0000
0000
0001
0000
0010
0000
0000
0001
0000
0000
0000
1000
0000
0000
0000
0000
0100
,
0000
0000
0000
0010
0000
0000
0001
0000
0200
0000
0000
0000
0300
0000
0010
0000
0000
0000
0100
0000
0000
0001
0000
0000
,
0100
0000
0000
0001
0000
0100
0000
0000
0002
0000
0000
0000
0003
0000
0100
0000
0000
0000
0011
0000
0000
0000
0000
0000
,
0001
0000
0010
0000
0000
0002
0000
0000
0000
0000
0000
0000
0000
0000
0000
0000
0000
0010
0000
0000
0000
0000
0000
0000
,
0000
0003
0000
0000
;

//---------------dance-single - ----------------
#NOTEDATA:;
#CHARTNAME:;
#STEPSTYPE:dance-single;
#DESCRIPTION:;
#CHARTSTYLE:;
#DIFFICULTY:Hard;
#METER:14;
#RADARVALUES:0.580137,0.662696,0.146529,0.146529,1.072804,388.000000,374.000000,14.000000,14.000000,0.000000,0.000000,0.000000,0.000000,0.000000,0.580137,0.662696,0.146529,0.146529,1.072804,388.000000,374.000000,14.000000,14.000000,0.000000,0.000000,0.000000,0.000000,0.000000;
#CREDIT:;
#NOTES:
0000
0000
0000
0000
,
0000
0000
0000
0000
,
0000
0000
0000
0000
0000
0000
0000
0000
0000
0000
0000
0000
0000
0000
0000
0000
0000
0000
0000
0000
0000
0000
0000
0100
,
0000
0000
0000
0000
0000
0000
0000
0000
0110
0000
0000
0000
0000
0000
0100
0000
0000
0000
0010
0000
0000
0000
0000
0101
,
0000
0000
0001
0000
0000
0000
0100
0000
0000
0001
0000
0000
0010
0000
0000
0100
0000
1000
0000
0000
0010
0000
0000
0000
,
0100
0000
0010
0000
0000
0000
0100
0000
0000
0010
0000
2000
0000
0000
0000
0000
0000
0000
3010
0000
0100
0010
0000
0100
,
0000
0000
0000
0001
0000
0000
0101
0000
0000
0001
0000
0000
0110
0000
0000
0010
0000
0100
0000
0000
0010
0000
0000
0000
,
1000
0000
0001
0000
0000
0000
0001
0000
0000
1000
0000
0002
0000
0000
0000
0000
0000
0000
1003
0000
0100
1000
0000
0100
,
0000
0000
0010
0001
0000
0010
0001
0000
1000
0001
0000
0000
1001
0000
0000
0000
0000
0110
0000
0000
0000
0010
0000
0000
,
1000
0000
0000
0000
0010
0000
0100
0000
0000
0000
0000
0000
0100
0000
0000
0010
0000
0000
0000
0000
0000
0000
0100
0000
0000
0000
0000
0000
0000
0000
0000
0000
0000
0000
0100
0000
0000
0000
0000
0000
0010
0000
0000
0000
0000
0000
0000
0000
,
1000
0000
0000
0000
0100
0000
0010
0000
0000
0000
0000
0000
0001
0000
0000
0100
0000
0000
0000
0000
0000
0000
0010
0000
0000
0000
0000
0000
0000
0000
0000
0000
0000
0000
0100
0000
0000
0000
0000
0000
0000
0000
0000
0000
0001
0000
0010
0000
,
0001
0000
0000
0000
0000
0001
1000
0000
0001
0000
0000
1000
0000
0000
0001
0000
0000
0000
0101
0000
0000
0000
0000
0100
,
0000
0000
0010
0100
0000
0010
0100
0000
0001
0100
0000
0100
0010
0000
0000
0000
0000
0100
0000
0000
0001
0000
0000
0100
,
0000
0000
0000
0000
0001
0000
0100
0000
0000
0000
0000
0000
0100
0000
0000
0001
0000
0000
0000
0000
0000
0000
0010
0000
0000
0000
0000
0000
0100
0000
0000
0000
0000
0000
0010
0000
0000
0000
0000
0000
0001
0000
0000
0000
0000
0000
0001
0000
,
1000
0000
0000
0000
0000
0000
0000
0000
0000
0000
0000
0000
0001
0000
0000
0100
0000
0000
0000
0000
0000
0000
0010
0000
0000
0000
0000
0000
0100
0000
0000
0000
0000
0000
0001
0000
0000
0000
0000
0000
0000
0000
0100
0000
0000
0000
0010
0000
,
0100
0000
0000
0000
0000
0010
0100
0000
0000
0100
0000
0020
0000
0000
0100
0000
0000
0030
0200
0000
0000
0000
0000
0310
,
0000
0000
0000
0001
0000
0000
0000
0000
1001
0000
0000
0000
0001
0000
0000
0000
0000
1000
0000
0000
0000
0000
0000
0000
,
0100
0000
0000
0010
0000
0100
0001
0000
0000
0001
0000
1000
0001
0000
0000
0110
0000
0000
0001
0000
0000
0010
0000
0001
,
0100
0000
0000
0001
0000
0010
0000
0000
0001
0000
0000
0000
1000
0000
0010
0100
0000
0000
0010
0000
0100
0010
0000
0100
,
0010
0000
0000
0001
0000
0010
0100
0000
0001
1000
0000
0001
0100
0000
0100
0010
0000
0000
0100
0000
0001
0010
0000
0001
,
0010
0000
0000
0100
0010
0100
0010
0000
0100
0000
0000
0000
0010
0000
0000
0001
0000
0100
0001
0000
0000
0000
0000
0000
,
0001
0000
0000
0010
0000
0000
0010
0000
0000
0100
0000
0010
0100
0000
0010
0100
0000
0100
1000
0000
0001
0000
0000
0000
,
1000
0000
0000
0100
0000
0010
0000
0000
0001
0010
0000
0001
0010
0000
0100
1000
0000
0010
0001
0000
0010
0100
0000
1000
,
0001
0000
0100
0001
0000
0100
0001
0000
0000
0100
0000
0010
0100
0000
0000
0010
0000
0100
0001
0000
0100
0001
0000
0010
,
0001
0000
0000
0000
0000
0000
0100
0000
0000
0000
0001
0000
0010
0000
0000
0000
0000
0000
0001
0000
0000
0000
0000
0000
0000
0100
0000
0000
0010
0000
0000
0100
0000
0000
0001
0000
0000
0000
0000
0000
0100
0000
0000
0001
0000
0000
0010
0000
,
0000
0001
0000
0000
0010
0000
0000
0001
0000
0000
0010
0000
0000
0100
0000
0000
0010
0000
0000
0001
0000
0000
0000
0000
0000
0001
0000
0000
0010
0000
0000
0100
0000
0000
1000
0000
0000
0001
0000
0000
0000
0000
0000
0000
0000
0000
0000
0000
,
0110
0000
0000
0000
0000
0000
0001
0000
0000
0000
0000
0000
0010
0000
0000
0000
0100
0000
1000
0000
0000
0000
0001
0000
2000
0000
0000
0000
0000
0000
0001
0000
0000
0000
0000
0000
3000
0001
0000
0000
0010
0000
0000
0100
0000
0000
0010
0000
,
0000
0002
0000
0000
0000
0000
0003
0000
1000
0000
0000
0100
0000
0000
0000
0000
0000
0000
0010
0000
0000
0000
0000
0000
0002
0000
0000
0000
0000
0000
0103
0000
0000
0000
0100
0000
0000
0000
0000
0000
0000
0000
0000
0000
0000
0000
0100
0000
,
0000
0000
0000
0000
0000
0000
0010
0000
0000
0000
0000
0000
0100
0000
0000
0000
0000
0000
0001
0000
0000
0010
0000
0000
0100
0000
0000
0000
0000
0000
0010
0000
0000
0000
0100
0000
0000
0000
0000
0000
0010
0000
0000
0000
0000
0000
0010
0000
,
0001
0000
0000
0000
0001
0000
0000
0000
0000
0000
0000
0000
0100
0000
0000
0000
0000
0000
0010
0000
0000
0000
1000
0000
0000
0000
0000
0000
0000
0000
0100
0000
0000
0010
0000
0000
0001
0000
0000
0000
0010
0000
0001
0000
0000
0000
0010
0000
,
0000
0000
0000
0001
0000
0000
1000
0000
0000
0010
0000
0000
0100
0000
0000
0010
0000
0001
0000
0000
0001
0000
0000
0001
,
0100
0000
0001
0000
0000
0000
0010
0000
0000
0100
0000
1000
0000
0000
0000
0010
0000
0000
0010
0000
0100
0010
0000
0100
,
0000
0000
0001
1000
0000
0001
1000
0000
0000
1000
0000
0000
1001
0000
0000
0000
0000
0101
0000
0000
0010
0000
0000
0010
,
0000
0000
0000
0000
0100
0000
0001
0000
0000
0000
0000
0000
0100
0000
0000
0010
0000
0000
0000
0000
0000
0000
0010
0000
0000
0000
0000
0000
0100
0000
0000
0000
0000
0000
0001
0000
0000
0000
0000
0000
0001
0000
0000
0000
0000
0000
0001
0000
,
0000
0000
0000
0000
0100
0000
0010
0000
0000
0000
0000
0000
0100
0000
0000
0010
0000
0000
0000
0000
0000
0000
0001
0000
0000
0000
0000
0000
0100
0000
0000
0000
0000
0000
0010
0000
0000
0000
0000
0000
0100
0000
0000
0000
0000
0000
0001
0000
,
0000
0000
0010
0000
0000
0001
0010
0000
0001
0010
0000
0002
0000
0000
0000
0003
0000
0000
0010
0000
0000
0000
0000
0110
,
0000
0000
0100
0010
0000
0100
0010
0000
0001
1000
0000
0001
0100
0000
0000
0010
0000
1000
0000
0000
0001
0000
0000
0100
,
0000
0000
0000
0000
0010
0000
0100
0000
0000
0000
0010
0000
1000
0000
0000
0001
0000
0000
0000
0000
0000
0000
1000
0000
0000
0000
0000
0000
0010
0000
0000
0000
0000
0000
1000
0000
0100
0000
0000
0000
0010
0000
0000
0000
0000
0000
0001
0000
,
0010
0000
0000
0000
0000
0000
0000
0000
0000
0000
0000
0000
0010
0000
0000
0100
0000
0000
0000
0000
0000
0000
0001
0000
0000
0000
0000
0000
0010
0000
0000
0000
0000
0000
0100
0000
0000
0000
0000
0000
0010
0000
0000
0000
0000
0000
0001
0000
,
0010
0000
0000
0000
0000
0100
0010
0000
0000
0001
0000
0010
0001
0000
1000
0100
0000
0000
2000
0000
0000
3000
0000
0100
,
0000
0000
0000
0010
0000
0001
0000
0000
0200
0000
0000
0000
0300
0000
0010
0000
0000
0000
0100
0000
0000
0001
0000
0000
,
0100
0000
0000
0001
0000
0101
0000
0000
0002
0000
0000
0000
0003
0000
0100
0000
0000
0010
0100
0000
0000
0000
0000
0000
,
0001
0000
0010
0001
0000
0020
0000
0000
0000
0000
0000
0000
0000
0000
0000
0000
0000
0032
0000
0000
0000
0000
0000
0000
,
0000
0000
0000
0000
0000
0200
0003
0000
0000
0000
0000
0000
0000
0000
0000
0000
0301
0000
0000
0000
0000
0000
0000
0000
;
