#VERSION:0.83;
#TITLE:Three Treasures Lost;
#SUBTITLE:;
#ARTIST:Kid Innocence;
#TITLETRANSLIT:;
#SUBTITLETRANSLIT:;
#ARTISTTRANSLIT:;
#GENRE:;
#ORIGIN:;
#CREDIT:;
#BANNER:;
#BACKGROUND:;
#PREVIEWVID:;
#JACKET:;
#CDIMAGE:;
#DISCIMAGE:;
#LYRICSPATH:;
#CDTITLE:;
#MUSIC:Kid-Innocence - Three Treasures Lost At The-Bottom-Of-The-Ocean-2006.ogg;
#OFFSET:-0.018000;
#SAMPLESTART:23.716999;
#SAMPLELENGTH:20.200001;
#SELECTABLE:YES;
#BPMS:0.000=220.024;
#STOPS:;
#DELAYS:;
#WARPS:;
#TIMESIGNATURES:0.000=4=4;
#TICKCOUNTS:0.000=4;
#COMBOS:0.000=1;
#SPEEDS:0.000=1.000=0.000=0;
#SCROLLS:0.000=1.000;
#FAKES:;
#LABELS:0.000=Song Start;
#BGCHANGES:;
#KEYSOUNDS:;
#ATTACKS:
;

//---------------dance-single - ----------------
#NOTEDATA:;
#CHARTNAME:;
#STEPSTYPE:dance-single;
#DESCRIPTION:;
#CHARTSTYLE:;
#DIFFICULTY:Beginner;
#METER:4;
#RADARVALUES:0.146533,0.221381,0.073794,0.154967,0.000000,139.000000,129.000000,10.000000,21.000000,0.000000,0.000000,0.000000,0.000000,0.000000,0.146533,0.221381,0.073794,0.154967,0.000000,139.000000,129.000000,10.000000,21.000000,0.000000,0.000000,0.000000,0.000000,0.000000;
#CREDIT:;
#NOTES:
0000
0000
0000
0000
,
0000
0000
0000
0000
,
0000
0000
0000
0000
,
0000
0000
0000
0000
,
1000
0000
0000
0000
,
0001
0000
0000
0000
,
0000
1000
0000
0001
,
0000
0100
0000
0020
,
0030
1000
0000
0100
,
0000
0010
0000
0002
,
0003
1000
0000
0001
,
0000
0000
0000
0000
,
1000
0000
0001
0000
,
0100
0000
0010
0000
,
2000
3000
0000
0002
,
0003
0000
0000
0200
,
0300
0000
0000
0010
,
0000
0000
0000
0020
,
0030
0000
0000
2000
,
3000
0000
0000
0002
,
0003
0000
0000
0000
,
0100
0000
0000
0000
,
0010
0000
0000
0000
,
1000
0000
0000
0000
,
1000
0000
0001
0000
,
0001
0000
0000
0000
,
0100
0000
0000
0000
,
0010
0000
0000
0000
,
1001
0000
0000
0000
,
0100
0000
0000
0000
,
0001
0000
0000
0000
,
1000
0000
1000
0000
,
0001
0000
0000
0000
,
0100
0000
0010
0000
,
0100
0000
0000
0000
,
0001
0000
0000
0000
,
1000
0000
0001
0000
,
1000
0000
0000
0000
,
0101
0000
0000
0000
,
0001
0000
0000
0000
,
1000
0000
0000
0000
,
0100
0000
0100
0000
,
0200
0000
0000
0000
,
0320
0000
0000
0000
,
0031
0000
0000
0000
,
0001
0000
0000
0000
,
0100
0000
0000
0000
,
0010
0000
0000
0000
,
1000
0000
0001
0000
,
0100
0000
0000
0000
,
0100
0000
0001
0000
,
1000
0000
0000
0000
,
0010
0000
0010
0000
,
0100
0000
0000
0000
,
0101
0000
0000
0000
,
1000
0000
0000
0000
,
0001
0000
0000
0000
,
0100
0000
0000
0000
,
0010
0000
0000
0000
,
1000
0000
0000
0000
,
0001
0000
0000
0000
,
0100
0000
0100
0000
,
0100
0000
0000
0000
,
0010
0000
0010
0000
,
0100
0000
0000
0000
,
0001
0000
0001
0000
,
1000
0000
0000
0000
,
1000
0000
1000
0000
,
0001
0000
0000
0000
,
0200
0000
0000
0000
,
0310
0000
0000
0000
,
0010
0000
0000
0000
,
1000
0000
0000
0000
,
0001
0000
0000
0000
,
0100
0000
0001
0000
,
0100
0000
0000
0000
,
0001
0000
0000
0000
,
1000
0000
0000
0000
,
0002
0000
0003
0000
,
0000
0000
0000
0000
,
2000
0000
3000
0000
,
0000
0000
0000
0000
,
0020
0000
0030
0000
,
0000
0000
0000
0000
,
0100
0000
0100
0000
,
0010
0000
0010
0000
,
1000
0000
0000
0000
,
0001
0000
0000
0000
,
1001
0000
0000
0000
,
0001
0000
0000
0000
,
2002
0000
0000
0000
,
3003
0000
0000
0000
,
0100
0000
0000
0000
,
0010
0000
0000
0000
,
0110
0000
0000
0000
,
0000
0000
0000
0000
,
1001
0000
0000
0000
,
0000
0000
0000
0000
,
2002
0000
0000
0000
,
3003
0000
0000
0000
,
0001
0000
0000
0000
,
0100
0000
0000
0000
,
0001
0000
0000
0000
,
1000
0000
0000
0000
,
0010
0000
0000
0000
,
1000
0000
1000
0000
,
0001
0000
0000
0000
,
0001
0000
0000
0000
,
0100
0000
0000
0000
,
0010
0000
0000
0000
,
1001
0000
0000
0000
,
0110
0000
0000
0000
,
0002
0000
0000
0000
,
0003
0000
0000
0000
,
2000
0000
0000
0000
,
3000
0000
0000
0000
,
0010
0000
0010
0000
,
0010
0000
0000
0000
,
0200
0000
0000
0000
,
0000
0000
0000
0000
,
0300
0000
0000
0000
;

//---------------dance-single - ----------------
#NOTEDATA:;
#CHARTNAME:;
#STEPSTYPE:dance-single;
#DESCRIPTION:;
#CHARTSTYLE:;
#DIFFICULTY:Easy;
#METER:8;
#RADARVALUES:0.285687,0.354210,0.110690,0.140208,0.000000,271.000000,256.000000,15.000000,19.000000,0.000000,0.000000,0.000000,0.000000,0.000000,0.285687,0.354210,0.110690,0.140208,0.000000,271.000000,256.000000,15.000000,19.000000,0.000000,0.000000,0.000000,0.000000,0.000000;
#CREDIT:;
#NOTES:
0000
0000
0000
0000
,
0000
0000
0000
0000
,
0000
0000
0000
0000
,
0000
0000
0000
0000
,
1000
0000
0000
0000
,
0001
0000
0000
0000
0001
0000
0000
0100
,
0000
0001
0000
1000
,
0010
0000
0000
0000
0100
0000
0000
0010
,
0000
1000
0000
0001
,
1000
0000
0000
0000
0001
0000
0000
2000
,
0000
0000
0000
3000
,
0002
0000
0000
0000
1003
0000
0000
1000
,
0000
0000
0001
0000
,
0100
0000
0000
0000
0001
0000
0000
1000
,
0000
0000
1000
0000
0000
0000
0000
0001
,
0000
0000
0100
0000
0000
0000
0000
0100
,
0000
0001
0000
1000
,
0010
0000
1000
0000
0001
0000
0000
0100
,
0000
0000
0001
0000
0000
0000
0000
0001
,
0000
0000
1000
0000
0000
0000
0000
0010
,
0000
0010
0000
1000
,
0100
0100
0100
0000
,
0010
0000
0001
0000
,
1000
0000
0000
0000
0001
0000
0000
1000
,
0000
0001
0000
1000
,
0000
0001
0000
1000
,
0100
0000
0100
0000
,
0010
0000
0001
1000
,
0100
0000
0010
0000
,
0001
0000
1000
0000
,
0001
0000
0100
0000
,
0010
0000
0000
0000
1000
0000
0000
0001
,
0000
1000
0000
0001
,
0100
0000
0001
0000
,
0100
0100
0000
0000
,
0010
0010
0000
0000
,
1000
0000
0000
0001
0000
0000
2000
0000
,
0000
0000
3001
0000
,
0100
0000
0010
0000
,
1000
0000
0001
0000
1000
0000
0000
0001
,
0000
0000
1000
0000
,
0010
0010
0010
0000
,
0200
0000
0000
0000
,
0301
0000
0100
0000
,
0001
0000
1000
0000
,
0001
0000
0100
0000
,
0100
0000
0010
0000
,
0010
0000
1000
0000
,
0001
0000
1000
0000
,
0001
0000
0100
0000
,
0110
0000
0001
0000
,
1000
0000
0000
0100
0000
0000
2000
0000
,
0000
0000
3001
0000
,
0100
0001
0001
0000
,
0101
0000
0001
0000
,
1000
0010
0100
0000
,
0001
0000
1000
0000
,
0100
0000
0010
0000
,
0001
0000
0000
0000
0000
0000
0000
1000
,
0000
0000
0001
0000
0000
0000
0000
0100
,
0000
0010
0000
0100
,
0100
0000
0001
0001
,
0001
0000
0000
0000
,
1000
0000
0010
0000
,
0100
0001
1000
0000
,
0001
0100
0001
0100
,
0010
0000
0000
0000
0010
0000
0000
1000
,
0000
0000
1000
0000
0000
0000
0000
0001
,
0000
0000
0001
0000
0000
0000
0000
0100
,
0000
0200
0000
0000
,
0310
0000
0010
1000
,
0010
0000
0100
0001
,
1000
0000
0001
0000
,
1000
0000
0110
0000
,
0100
0000
0001
0001
,
1000
0000
1000
1000
,
0100
0000
0000
0000
0100
0000
0000
0010
,
0000
0000
0010
0000
,
0002
0000
0003
0000
,
1000
0000
0010
0000
,
2000
0000
3001
0000
,
0100
0000
0001
0010
,
0200
0000
0300
0000
,
1000
0000
0001
0100
,
0002
0000
0003
0000
,
1000
0000
0110
0000
,
1001
0000
0101
0000
,
0001
0000
2000
0000
,
3001
0000
0101
0000
,
0002
0000
0000
0003
,
2000
0000
0001
0000
,
3001
0000
0000
0000
,
0200
0000
0010
0000
,
0310
0000
0000
0000
,
0001
0000
0100
0000
,
0001
0000
0200
0300
,
1001
0000
0110
0000
,
2000
0000
0000
3000
,
2010
0000
0000
0000
,
3010
0000
0001
0000
,
1000
0001
1000
0001
,
1000
0000
0001
0000
,
0100
0000
0110
0000
,
0100
0000
0001
0000
,
1001
0000
0001
0000
,
1000
0000
0001
0100
,
0001
0000
1000
0010
,
1000
0000
0001
0100
,
0001
0100
0001
0000
,
1000
0010
1000
0010
,
1000
0000
0001
0000
,
0101
0000
1000
0000
,
0002
0000
0100
0000
,
2003
0000
0010
0000
,
3001
0100
0001
0000
,
1001
0000
0100
0000
,
0010
1000
0010
0000
,
0101
0000
0100
0000
,
0010
0100
0010
0000
,
1000
0001
0100
0000
,
0001
0000
0000
0000
;

//---------------dance-single - ----------------
#NOTEDATA:;
#CHARTNAME:;
#STEPSTYPE:dance-single;
#DESCRIPTION:;
#CHARTSTYLE:;
#DIFFICULTY:Medium;
#METER:11;
#RADARVALUES:0.465954,0.531314,0.154967,0.206622,0.000000,442.000000,421.000000,21.000000,28.000000,0.000000,0.000000,0.000000,0.000000,0.000000,0.465954,0.531314,0.154967,0.206622,0.000000,442.000000,421.000000,21.000000,28.000000,0.000000,0.000000,0.000000,0.000000,0.000000;
#CREDIT:;
#NOTES:
0000
0000
0000
0000
,
0000
0000
0000
0000
,
0000
0000
0000
0000
,
0000
0000
0000
0000
,
1000
0001
0100
0002
,
1000
0000
1003
0000
0001
0100
0001
0200
,
0000
0300
0001
0000
1000
0000
0010
1000
,
0010
0000
0100
0001
0100
0000
0010
2000
,
0000
3000
0001
0000
0100
0000
0001
1000
,
0001
0000
1000
0001
1000
0000
0001
2000
,
0000
0001
0001
3001
,
0010
0000
0010
0000
0010
1000
0000
1000
,
0000
0001
0001
0100
,
0100
0000
0010
0000
0010
0000
0000
1000
,
0000
0000
0001
0000
0000
0000
1000
0001
,
0000
0000
0100
0000
0000
0000
0010
0100
,
0000
0000
0001
0000
1000
0100
1000
0000
,
0001
0000
0100
0000
0001
0000
0100
0002
,
0000
0003
1000
0000
0000
0000
1000
0020
,
0000
0030
1000
0000
0001
0000
0100
0020
,
0000
0030
1000
0000
0001
0000
0100
0000
,
0010
0100
0010
1000
,
0001
1000
0001
0000
,
1000
0100
0000
0010
0000
0001
0000
1000
,
0000
0000
0001
0000
1000
0000
1000
0010
,
0000
0000
0100
0001
0000
1000
0001
0000
,
0100
0000
0010
0100
0000
0001
0000
1000
,
0000
0001
1000
1000
,
0010
0000
0100
0010
0000
0100
0000
0001
,
0000
2000
0010
3000
,
0001
0000
0100
0010
0100
0000
0010
0100
,
0010
0000
0000
1000
0000
0001
0000
0200
,
0000
0000
0310
0000
0000
0000
0001
0100
,
0000
0000
0100
0001
0000
0000
1000
0001
,
1000
0000
0001
0000
0000
1000
0000
0010
,
0000
0100
0100
0010
,
1000
0000
0000
0001
0000
0000
2000
0000
,
0000
0000
0001
0000
3001
0000
0000
0100
,
0000
0100
0010
1000
,
0001
0100
0001
0000
1000
0000
0001
0100
,
0000
0100
0001
0000
1000
0000
0010
0000
,
0100
0010
0020
0000
,
1030
1000
0001
0000
,
0001
0000
0001
0000
0100
0000
0000
0010
,
0000
0000
0100
0000
0110
0000
0000
0010
,
0000
0010
0220
0000
,
0330
0010
1000
0010
,
0001
0000
1000
0100
,
0001
0000
0100
0010
,
0001
0000
0000
0100
0000
0000
0010
0000
,
0000
1000
0001
1000
,
0001
0000
0000
0100
0000
0000
0020
0000
,
0000
0000
0000
0000
1030
0000
0000
0100
,
0000
0000
0010
0000
0001
0000
0000
0201
,
0000
0000
0000
0000
0001
0000
0000
0001
,
0300
0000
0001
0000
0100
0000
0001
1000
,
0000
0000
0010
0000
1000
0000
0001
0100
,
0000
0000
0100
0010
0000
0000
0010
1000
,
0000
0001
1000
0000
0000
0000
0001
1000
,
0000
0000
0001
0000
0000
0000
1000
0100
,
0000
0010
0010
0001
,
0001
0000
1000
0001
1000
0001
1000
0000
,
0001
0000
0000
0000
0100
0000
0010
1000
,
0000
1000
0010
0100
,
0101
0101
1001
0000
,
1000
0100
1010
0000
,
0010
0000
0100
0000
0010
0000
0000
1000
,
0000
0000
1000
0000
0001
0000
0100
0001
,
0000
0000
0001
0000
1000
0000
0010
0100
,
0000
0200
0000
0000
,
0310
0000
0010
1000
,
0001
0100
0100
0001
,
1000
0000
0001
0100
0001
0000
1000
0000
,
0001
1000
1001
0000
,
0100
0100
0001
0001
,
1000
0010
1000
0010
,
0100
0000
0001
0000
0100
0000
0001
1000
,
0000
0001
0100
0001
,
0010
0000
0000
0100
0010
0000
0100
1000
,
0000
0001
0010
0000
0001
0000
0000
0000
,
0010
0001
0000
0100
0001
0000
0001
0010
,
0000
0100
0010
0001
,
2001
0000
3001
0000
,
1002
0000
1003
0000
,
0200
0000
0320
0000
,
1030
0010
1000
0000
,
1001
0000
0101
0001
,
0002
0000
1003
0000
,
1100
0000
0101
0001
,
0001
0000
0100
0010
0000
0100
0000
0001
,
2000
0000
0000
0000
3001
0100
0000
0001
,
0000
0000
0100
0000
0010
0100
0000
0010
,
0000
0000
1000
0000
0010
0000
0000
0100
,
0010
0000
0100
0010
0000
0100
0000
0002
,
0000
1003
0100
0010
,
0001
0000
0001
0000
,
0110
0000
1100
0000
,
0001
0000
0100
0010
0000
1000
0000
1000
,
0020
0000
1030
0000
,
0001
0000
0100
0001
0000
1000
0000
0002
,
0000
0000
0103
0010
1000
0000
0000
0000
,
0001
0000
0100
0010
0100
0000
0000
0000
,
0010
0010
0100
0001
,
0100
0000
0001
0100
0001
0000
0100
0000
,
1100
0100
1000
0010
,
1000
0000
0100
1000
0100
0000
1000
0000
,
1001
0001
0100
0001
,
0010
0000
0100
1000
0100
0000
0010
0000
,
1001
0000
0110
0000
,
0001
0100
0101
0000
,
0002
0000
0103
0000
,
2000
0000
3100
0000
,
0002
0000
1000
0000
,
0103
0000
0001
1000
0001
0000
0000
0000
,
1000
0100
1000
0100
,
0010
0001
0010
0001
,
1000
0001
0100
0010
,
1000
0001
0100
0010
,
1000
1000
1000
1000
,
0001
0001
0001
0001
,
0100
0000
0000
0000
;

//---------------dance-single - ----------------
#NOTEDATA:;
#CHARTNAME:;
#STEPSTYPE:dance-single;
#DESCRIPTION:;
#CHARTSTYLE:;
#DIFFICULTY:Hard;
#METER:16;
#RADARVALUES:0.791700,0.841248,0.317313,0.184484,0.114380,751.000000,708.000000,43.000000,25.000000,0.000000,0.000000,0.000000,0.000000,0.000000,0.791700,0.841248,0.317313,0.184484,0.114380,751.000000,708.000000,43.000000,25.000000,0.000000,0.000000,0.000000,0.000000,0.000000;
#CREDIT:;
#NOTES:
// measure 0
0000
0000
0000
0000
,  // measure 1
0000
0000
0000
0000
,  // measure 2
0000
0000
0000
0000
,  // measure 3
0000
0000
0000
0000
,  // measure 4
1000
0000
0000
0001
0000
0000
0100
0000
0001
0100
0000
0100
,  // measure 5
0001
0000
0000
0000
1000
0000
0010
0000
0000
0000
0000
0000
1000
0000
0000
0100
0000
0000
1000
0000
0000
0100
0000
0000
,  // measure 6
0000
0100
0001
1000
0010
0001
0010
1000
,  // measure 7
0010
0001
0100
0010
0100
0010
1000
0100
,  // measure 8
0000
0010
0001
0100
0010
1000
0001
0100
,  // measure 9
0010
0001
0010
0100
0001
1000
0001
2000
,  // measure 10
0000
0001
3001
0000
0110
0000
0001
0010
,  // measure 11
0100
0010
0001
0000
1000
1010
0000
1020
,  // measure 12
0000
0000
0000
0000
0130
0000
0000
0000
0001
0000
0000
0000
0100
0000
0001
0010
,  // measure 13
0001
1000
0010
0100
0100
0001
0001
1001
,  // measure 14
0000
0100
0001
0000
1000
0100
1000
0001
,  // measure 15
0000
0001
0100
0000
0010
0100
0010
0110
,  // measure 16
0000
1000
0001
0000
1000
0100
1000
0020
,  // measure 17
0000
0130
0010
0200
0000
0301
0100
0001
,  // measure 18
0000
0000
0001
0000
1000
0000
0000
0000
0100
0000
1000
0010
1000
0000
0010
0000
,  // measure 19
0000
0000
0100
0000
0101
0000
0000
0000
0001
0000
1000
0100
0010
0000
0001
0000
,  // measure 20
0000
0000
1000
0000
1001
0000
0000
0000
0001
0000
0100
0010
0100
0000
0010
0000
,  // measure 21
1000
0000
0001
0000
0100
0000
0010
0100
0010
0000
1000
0000
0001
0000
1001
0000
,  // measure 22
0000
0001
1000
0000
0010
0000
1000
0100
,  // measure 23
1000
0100
0000
0010
0000
0001
0000
1100
,  // measure 24
0000
0100
0010
0000
0100
0010
0001
0010
,  // measure 25
0001
1000
0100
0010
0100
0001
0100
0000
,  // measure 26
1000
0000
0010
0100
0001
0100
0001
1000
,  // measure 27
0010
0100
0001
1000
1000
0010
1000
0001
,  // measure 28
0101
0000
0100
0010
0100
0000
0010
1000
,  // measure 29
0001
0000
0200
0000
0010
0000
0300
0010
,  // measure 30
0000
0000
0100
0010
0100
0000
0010
0100
,  // measure 31
0010
0000
1000
0001
0000
0100
0010
0200
,  // measure 32
0000
0010
0310
0000
1000
1000
0001
0100
,  // measure 33
0000
0100
0100
0001
0000
1000
0010
0010
,  // measure 34
1000
0000
0000
0000
0001
0000
0100
0000
0010
0000
1000
0100
1000
0000
0010
0000
,  // measure 35
0100
0000
0001
0000
0100
0000
0010
0100
0001
0000
0000
0000
0010
0000
0000
0000
,  // measure 36
1001
0000
0001
2000
0000
3000
0020
0000
,  // measure 37
0000
0130
0001
0000
1000
0100
0010
0100
,  // measure 38
0000
0100
0010
0000
0001
0000
1000
0001
,  // measure 39
0100
0000
0001
0000
0100
0000
0010
0000
1000
0000
0001
0010
0001
0000
0010
0000
,  // measure 40
0000
0001
1100
0000
1000
0010
0100
0001
,  // measure 41
0100
0000
0010
0000
1000
0000
0001
0010
0001
0000
1000
0000
0001
0000
1000
0000
,  // measure 42
0000
1000
0100
0001
0100
1000
0100
0001
,  // measure 43
0100
1000
0100
0001
0100
1000
0010
0110
,  // measure 44
0000
0010
0110
0000
0100
0001
0100
0001
,  // measure 45
0000
0001
1000
0000
0010
0100
0010
0200
,  // measure 46
0000
0310
0010
0000
1000
0001
0010
0001
,  // measure 47
1000
0000
0001
0000
0010
0000
0001
0000
1000
0000
0001
0100
0001
0000
0100
0000
,  // measure 48
0000
0100
0110
0000
0100
0001
0010
0100
,  // measure 49
0010
0001
0010
0100
0010
0001
0010
0110
,  // measure 50
0000
1000
0100
0001
0001
0100
1000
0001
,  // measure 51
0010
1000
0010
0001
0010
1000
0010
0002
,  // measure 52
0000
0003
1000
0000
1100
0000
0010
0100
,  // measure 53
0000
0000
0010
0000
1000
0000
0000
0000
0001
0000
0100
0001
0100
0000
0002
0000
,  // measure 54
0000
0000
0000
0000
1003
0000
0000
0000
0001
0000
0100
0010
0100
0000
0001
0000
,  // measure 55
0000
0000
0001
0000
1000
0000
0000
0000
0100
0000
0010
0100
0010
0000
0001
0000
,  // measure 56
0000
0001
0100
0010
1000
0001
0001
0100
,  // measure 57
0100
0000
0010
0000
1000
0000
0001
0100
0001
0000
1000
0000
0001
0000
1001
0000
,  // measure 58
0000
0001
1100
0000
1000
0001
0100
0010
,  // measure 59
0000
0100
0001
0000
0001
1000
0100
0100
,  // measure 60
0000
0010
0001
0000
0011
0000
1000
0100
,  // measure 61
0001
0000
0100
1000
0100
0010
0001
2000
,  // measure 62
0000
3000
0001
0000
0100
0010
0000
1000
,  // measure 63
0001
0100
0001
1000
0001
0001
0100
0010
,  // measure 64
0100
0000
0000
0000
0101
0000
0000
0000
1000
0000
0010
0100
0001
0000
1000
0000
,  // measure 65
0100
0000
1000
0100
1000
0000
0001
0000
0010
0000
0001
0010
0001
0000
0010
0000
,  // measure 66
0000
0001
0100
0000
0010
1000
0001
1000
,  // measure 67
0000
0010
1000
0000
0001
0100
0001
0200
,  // measure 68
0000
0300
0101
0000
1000
0010
0100
0210
,  // measure 69
0000
0300
0020
0000
1030
0000
0001
0100
,  // measure 70
0000
0001
1000
0000
0020
0030
2000
3000
,  // measure 71
0002
0003
0100
0010
0100
0000
0001
1000
,  // measure 72
0000
0100
0001
0100
0001
0100
1000
0001
,  // measure 73
0010
1000
0010
0100
1000
0001
0100
0110
,  // measure 74
0000
0001
0100
0000
0001
0100
0001
0000
,  // measure 75
1000
0100
1000
0000
0100
0010
0100
0010
,  // measure 76
0000
0001
0100
0000
0120
0000
1030
0001
,  // measure 77
0000
0001
1000
0000
0100
0000
0001
0000
,  // measure 78
0110
0000
0000
0001
1000
0000
0001
1000
,  // measure 79
0000
0001
0010
0000
0100
1000
0000
0000
,  // measure 80
0010
0001
0000
0100
0010
0000
1000
0010
,  // measure 81
0000
0100
0001
0000
0010
0000
0000
0000
,  // measure 82
1000
0100
0000
0100
0010
0001
0010
0001
,  // measure 83
0000
0001
1000
0100
1000
0010
0100
0000
,  // measure 84
0010
0100
0000
0010
0100
0000
0001
1000
,  // measure 85
0000
0001
0100
0000
0010
0000
0010
0000
,  // measure 86
1001
0001
0100
0001
0100
0010
1000
0000
,  // measure 87
0002
0000
0103
0010
2000
0000
3000
0000
,  // measure 88
0011
0000
0000
0000
0000
0000
0010
0001
0010
0000
0000
0000
0001
0000
0000
0000
,  // measure 89
1000
0000
0100
0010
0000
0100
0010
0001
,  // measure 90
1100
0000
0000
0000
0000
0000
1000
0100
0010
0000
0000
0000
0100
0000
0010
0000
,  // measure 91
0001
1000
0100
0000
0010
0100
0010
0001
,  // measure 92
1000
0100
0000
0010
0100
0000
0000
0010
,  // measure 93
1000
0000
0010
0100
0001
0100
0000
0001
,  // measure 94
1001
0000
0000
0000
1000
0000
0010
0100
0010
0000
0000
0000
0100
0000
0000
0000
,  // measure 95
0002
0000
2003
0000
3001
0010
0001
0000
,  // measure 96
0100
0010
0100
0000
0000
0000
0010
0100
0010
0000
0000
0000
1000
0000
0000
0000
,  // measure 97
0001
0000
0100
0010
1000
0001
0000
1000
,  // measure 98
0010
0100
0010
0000
0000
0000
1000
0001
1000
0000
0000
0000
0001
0000
0000
0000
,  // measure 99
0100
0000
0100
0010
0000
1000
0100
0010
,  // measure 100
0002
0000
1003
0010
,  // measure 101
0100
0000
0010
0000
0100
0000
0001
1000
0001
0000
0000
0000
1000
0000
0000
0000
,  // measure 102
1010
0000
0000
0000
0000
0000
0001
0100
0001
0000
0000
0000
1000
0000
0100
0000
,  // measure 103
0010
0000
0100
0010
0001
0000
0001
0010
,  // measure 104
1000
0000
0001
0100
1000
0000
0001
0100
,  // measure 105
0010
0000
1000
0100
0010
0001
0001
1000
,  // measure 106
0100
0010
0010
0001
1000
0000
0100
0000
,  // measure 107
0010
0001
0010
0000
0001
0000
1000
0000
,  // measure 108
0110
0000
0000
0000
0000
0000
0010
0100
0010
0000
0000
0000
1000
0000
0000
0000
,  // measure 109
0001
0000
0100
0000
0001
0000
0100
0001
0100
0000
0020
0000
0000
0000
0030
0000
,  // measure 110
1010
0000
0100
0000
0101
0000
0001
0010
,  // measure 111
0100
0000
0100
1000
0001
0000
0100
0000
,  // measure 112
0110
0010
0110
0100
,  // measure 113
1010
0000
0100
0001
0010
0000
0001
0000
,  // measure 114
1000
1000
0001
0001
,  // measure 115
0101
0000
0100
0010
1000
0000
0001
0000
,  // measure 116
0011
0000
0001
1000
0100
0000
0100
0010
,  // measure 117
0001
0000
1000
0001
1001
0000
0001
0000
,  // measure 118
1001
0100
0110
0010
,  // measure 119
1010
0000
0100
0001
0010
0000
0001
0000
,  // measure 120
1000
0000
0000
0000
;
