#TITLE:This Is Love;
#SUBTITLE:;
#ARTIST:Ahmir;
#TITLETRANSLIT:;
#SUBTITLETRANSLIT:;
#ARTISTTRANSLIT:;
#GENRE:;
#CREDIT:;
#BANNER:;
#BACKGROUND:;
#LYRICSPATH:;
#CDTITLE:;
#MUSIC:Ahmir - This Is Love RrnB.ogg;
#OFFSET:-0.017000;
#SAMPLESTART:27.778999;
#SAMPLELENGTH:19.200001;
#SELECTABLE:YES;
#DISPLAYBPM:134.000000;
#BPMS:0.000000=134.000000
,224.000000=140.800003
,226.750000=134.000000
;
#STOPS:
;
#BGCHANGES:;
#KEYSOUNDS:;
#ATTACKS:;

//---------------dance-single - ----------------
#NOTES:
     dance-single:
     :
     Beginner:
     3:
     0.159339,0.210780,0.035130,0.052695,0.000000,127.000000,123.000000,4.000000,6.000000,0.000000,0.000000,0.159339,0.210780,0.035130,0.052695,0.000000,127.000000,123.000000,4.000000,6.000000,0.000000,0.000000:
0100
0010
1000
0000
,
0001
0100
0001
0000
,
1000
0000
0001
0000
,
1000
0000
0010
0000
,
0100
0001
0100
0000
,
0001
1000
0001
0000
,
1000
0000
0001
0000
,
1000
0000
0010
0000
,
0200
0300
0010
0000
,
0020
0030
1000
0000
,
0001
0000
0100
0000
,
0010
0000
0000
0000
,
2000
3000
0001
0000
,
0002
0003
1000
0000
,
0001
0000
0100
0000
,
0010
0000
0000
0000
,
0110
0000
0010
0000
,
1000
0000
0001
0000
,
1000
0001
1000
0000
,
0001
1000
0001
0000
,
1000
0000
0010
0000
,
0100
0000
0001
0000
,
0100
0000
0010
0000
,
1000
0000
0001
0000
,
1000
0000
0010
0000
,
0010
0000
0000
0000
,
0100
0000
0001
0000
,
0001
0000
0000
0000
,
1000
0000
0010
0000
,
0010
0000
0000
0000
,
0100
0000
0001
0000
,
0001
0000
1000
0000
,
0002
0000
0003
0000
,
0000
0000
0000
0000
,
2000
0000
3000
0000
,
0010
0000
0000
0000
,
0100
0000
0001
0000
,
1000
0000
0001
0000
,
1000
1000
1000
0000
,
0001
0001
0001
0000
,
1001
0000
1000
0000
,
1001
0000
0001
0000
,
0100
0000
0010
0100
,
0010
0000
0100
0010
,
0100
0000
0001
1000
,
0001
0000
0001
0010
,
0001
0000
1000
0000
,
0001
0000
0100
0000
,
0010
0010
0010
0010
,
0010
0000
0100
0000
,
0100
0100
0100
0100
,
0100
0000
0001
0000
,
1000
0000
0001
0000
,
1000
0000
0001
0000
,
1000
0000
0010
0000
,
0100
0000
0001
0000
,
1001
0000
0000
0000
,
1000
0000
0000
0000
,
0001
0000
0000
0000
,
1000
0000
0000
0000
,
0010
0000
0000
0000
;

//---------------dance-single - ----------------
#NOTES:
     dance-single:
     :
     Easy:
     5:
     0.234618,0.263475,0.140520,0.175650,0.000000,187.000000,171.000000,16.000000,20.000000,0.000000,0.000000,0.234618,0.263475,0.140520,0.175650,0.000000,187.000000,171.000000,16.000000,20.000000,0.000000,0.000000:
0100
0010
1000
0001
,
1001
0000
0100
0010
,
1000
0001
0101
0000
,
1000
0100
0110
0000
,
0010
0001
0010
0001
,
1000
0100
0001
0000
,
0100
0100
0101
0000
,
1000
0010
0110
0000
,
0200
0300
0010
0100
,
0020
0030
1000
0001
,
2000
3000
0001
0010
,
0002
0003
1000
0000
,
0001
0100
0001
0000
,
1000
0010
1000
0000
,
0001
0010
0100
1000
,
0002
0000
0103
0000
,
0110
0000
0010
0100
,
0001
0000
1001
0000
,
1000
0100
1000
0100
,
0010
0000
0002
0003
,
1001
0000
2000
3000
,
1001
0000
0001
0010
,
0100
0000
1000
0100
,
0010
0000
0001
0000
,
1000
0100
0010
0001
,
0010
0001
0010
0100
,
1000
0010
0010
0100
,
0001
0000
1000
0000
,
2000
3000
0020
0030
,
0200
0300
0001
0100
,
0001
0000
1000
1000
,
0100
0100
0010
0000
,
0002
0000
0003
0000
,
0200
0000
0300
0000
,
2000
0000
3000
0000
,
0020
0000
0030
0000
,
0100
0010
0100
0010
,
1000
0000
1001
0000
,
0001
0010
0100
0010
,
0001
0000
0001
0100
,
2002
3003
1000
0010
,
2020
3030
0001
0100
,
0001
0100
0100
0010
,
0010
1000
0100
0010
,
0002
0003
1000
0010
,
0200
0300
0001
0010
,
0100
0010
0100
1000
,
0001
0000
0100
0000
,
0110
0010
0010
0000
,
1000
1000
0001
0001
,
0100
0000
0110
0000
,
0100
0001
1000
0000
,
1000
0000
0101
0000
,
0001
0100
0010
0000
,
1000
0100
0010
0000
,
0010
0001
1000
0001
,
1001
0000
0001
0000
,
1000
0000
0010
0000
,
0001
0000
0100
0000
,
0010
0000
1000
0000
,
0010
0000
0000
0000
;

//---------------dance-single - ----------------
#NOTES:
     dance-single:
     :
     Medium:
     7:
     0.306132,0.368864,0.079042,0.219562,0.000000,244.000000,235.000000,9.000000,25.000000,0.000000,0.000000,0.306132,0.368864,0.079042,0.219562,0.000000,244.000000,235.000000,9.000000,25.000000,0.000000,0.000000:
0100
0000
0010
0000
1000
0001
1000
0000
,
1001
0000
0001
0000
0100
0010
0100
0000
,
1010
0000
0010
0100
0010
0000
1000
0000
,
0001
0100
0110
0020
,
0030
1000
0010
0001
,
1000
0100
0001
0000
,
1000
0100
0001
1000
,
0010
0001
0100
0000
,
0220
0330
0010
0000
,
2200
0000
3300
0000
1000
0000
0001
0100
,
0000
0001
0000
0100
0000
0001
0000
0200
,
0000
0000
0300
0000
0010
0000
1000
0001
,
0010
0000
0100
1000
0001
0000
0000
0000
,
1000
0000
0010
0100
0001
0000
1000
0001
,
1000
0000
0010
0100
0010
0000
1000
0002
,
0000
0000
0103
0010
,
0220
0000
0330
0000
0010
0000
0100
0001
,
1000
0000
0000
0000
1000
0001
0100
0000
,
0001
0000
0100
0000
0010
0000
0010
0100
,
0000
0020
0000
0000
1030
0000
0001
0000
,
1001
0001
1100
0100
,
0011
0000
0000
0000
0001
0010
0001
0000
,
0100
0000
0010
0000
1000
0000
0100
0010
,
0001
0000
1000
0000
0001
0000
0100
0010
,
0100
0000
0010
0000
0010
0000
1000
0100
,
1000
0000
0001
0000
0001
0000
0100
0010
,
0100
0000
0010
0000
0010
0000
1000
0001
,
1000
0000
0001
0000
0001
0000
1000
0200
,
0000
0300
0010
0002
0000
0003
0010
0002
,
0000
0003
1000
0200
0000
0300
0010
0002
,
0000
0003
1000
0020
0000
0030
1000
0000
,
0100
0000
0010
0000
0001
0000
1000
0001
,
1000
0010
0000
0000
,
0200
0010
0310
0000
,
2000
0001
3001
0000
,
0002
0100
0103
0000
,
0100
0010
0100
0010
,
1000
0010
1000
0001
,
1000
0001
0100
0000
,
0001
0000
0000
0000
0001
0000
0100
0001
,
0200
0000
0300
0000
0010
0000
1000
0001
,
2000
3000
0001
0100
,
0010
0100
0001
0010
,
0100
1000
0100
0000
,
0020
0031
1000
0010
,
0200
0310
1000
0001
,
0100
0000
0010
0100
0010
0000
1000
0000
,
0001
0100
0001
0000
0100
0000
0000
0000
,
1000
0000
0010
0000
1000
0000
0001
0100
,
0001
0000
1000
0000
0001
0000
1000
0010
,
1000
0000
0001
0000
0100
0000
0010
0100
,
0010
0000
1000
0000
0001
0000
1000
0001
,
1000
0000
0001
0010
,
0001
0100
0010
1000
,
0100
1000
0001
0001
,
0001
1000
1000
1000
,
0002
0000
0003
0000
,
2000
0000
3000
0000
0010
0000
0000
0100
,
0010
0000
0100
0000
,
0010
0000
1000
0001
,
1000
0000
0000
0000
;

//---------------dance-single - ----------------
#NOTES:
     dance-single:
     :
     Hard:
     11:
     0.401485,0.474254,0.000000,0.122955,0.114172,320.000000,320.000000,0.000000,14.000000,0.000000,0.000000,0.401485,0.474254,0.000000,0.122955,0.114172,320.000000,320.000000,0.000000,14.000000,0.000000,0.000000:
// measure 0
0100
0000
0010
0100
0010
0000
0000
0000
1000
0000
0001
0000
0001
0000
0100
0000
,  // measure 1
0000
0010
1000
0001
0001
0100
0010
0000
,  // measure 2
0010
1000
0001
0001
0100
0000
0010
0100
,  // measure 3
0010
0200
0000
0300
0001
0000
1000
0000
,  // measure 4
0000
0000
0001
0010
0001
0000
1000
0000
0001
0000
0010
0000
0001
0000
0010
0000
,  // measure 5
0100
1000
0010
0010
0100
0001
0100
1000
,  // measure 6
0100
0010
0001
0000
0000
0000
1000
0100
,  // measure 7
0010
0001
0020
0000
0030
0001
1000
0010
,  // measure 8
0200
0000
0300
0010
0010
0000
0100
0000
,  // measure 9
0020
0000
1030
0000
0002
0000
0003
1000
,  // measure 10
0000
0001
0000
0010
0000
0001
0000
0200
,  // measure 11
0000
0300
0010
0100
0010
1000
0001
1000
,  // measure 12
0002
0003
0200
0300
,  // measure 13
0020
0000
0030
0000
2000
0000
3000
0001
,  // measure 14
0000
0010
0000
1000
0000
0010
0000
0001
,  // measure 15
0000
0000
0000
0000
0000
0000
0100
0000
0010
0100
0000
0001
,  // measure 16
0100
0000
0000
0000
0000
0000
0001
0000
1000
0100
0000
0010
,  // measure 17
0001
0000
0000
0100
0000
0010
0100
0000
0001
1000
0000
0100
,  // measure 18
1000
0000
0001
0010
0001
0000
0100
0010
,  // measure 19
1000
0000
0000
0020
0000
0000
0000
0000
0000
0030
0000
0000
0100
0000
0000
0000
0010
0000
0100
0000
0000
0000
0010
0000
,  // measure 20
0100
0000
0000
0001
0000
0000
1000
0000
0001
0100
0000
0100
,  // measure 21
0001
0000
0000
0000
0000
0000
1000
0000
0100
0010
0000
0000
,  // measure 22
0001
0000
1000
0100
1000
0000
0010
0100
,  // measure 23
0010
0010
0000
0000
0000
0100
0010
0100
,  // measure 24
0000
0001
1000
0001
0000
1000
0100
0010
,  // measure 25
0000
0010
0001
0100
0000
0100
0001
0010
,  // measure 26
0000
0010
0001
1000
0000
0001
0010
0001
,  // measure 27
0000
0100
0000
0010
0010
0100
0010
2000
,  // measure 28
0000
3001
1000
0001
0000
1000
0010
1000
,  // measure 29
0000
0010
0100
0010
0000
0010
0001
0010
,  // measure 30
0000
1000
0100
0010
0000
0001
0010
0001
,  // measure 31
0000
0100
0000
0010
0010
0100
0001
1000
,  // measure 32
0000
0010
0000
0100
0000
0001
0010
0100
,  // measure 33
0000
1000
0000
0100
0000
0001
0000
0100
,  // measure 34
0000
1000
0000
0010
0000
0100
0000
0001
,  // measure 35
0000
0000
0000
0000
0000
1000
0100
0100
,  // measure 36
0000
0010
0000
0001
0000
1000
0000
0001
,  // measure 37
0000
0100
0000
0010
0100
0010
0000
0100
,  // measure 38
0010
0000
0100
0001
0000
0001
0000
0010
,  // measure 39
0000
0100
0010
0100
1000
0000
0010
0000
,  // measure 40
0200
0000
0000
0300
0000
0000
0001
0000
0100
0010
0000
0100
,  // measure 41
0010
0000
0000
1000
0000
0001
0100
0000
0001
0100
0000
0010
,  // measure 42
1000
0000
0001
0100
0001
0000
1000
0010
,  // measure 43
1000
0000
0000
0010
0000
0000
0000
0000
0000
0000
0000
0000
0100
0000
0000
0000
0001
0000
0100
0000
0000
0000
0001
0000
,  // measure 44
0100
0000
0000
0000
0000
0000
0010
0000
1000
0010
0000
1000
,  // measure 45
0010
0000
0000
0000
0000
0000
0001
0000
1000
0001
0000
0001
,  // measure 46
1000
0000
0010
0100
0010
0000
0100
0001
,  // measure 47
0100
0010
0000
0000
0010
0100
0001
1000
,  // measure 48
0000
0001
1000
0001
0000
0001
0010
0001
,  // measure 49
0000
0001
0100
0001
0000
1000
0010
1000
,  // measure 50
0000
1000
0100
1000
0000
0010
0100
0010
,  // measure 51
0000
0010
0000
0100
0010
0100
0010
0200
,  // measure 52
0000
0301
1000
0001
0000
1000
0001
1000
,  // measure 53
0000
0010
0100
0010
0000
0100
0010
0100
,  // measure 54
0000
0100
1000
0100
0000
0001
0010
0100
,  // measure 55
0010
0001
0000
1000
1000
0100
0010
0100
,  // measure 56
0010
0000
0000
0000
,  // measure 57
0001
0000
0000
0000
1000
0000
0000
0100
,  // measure 58
0010
0000
0000
0000
0000
0000
0010
0000
0000
0001
0000
0000
0010
0000
0000
0000
0000
0000
0000
0000
0001
0000
0000
0000
,  // measure 59
0010
0000
0100
1000
0100
0000
0000
0000
,  // measure 60
0010
0000
0000
0000
;
