#VERSION:0.83;
#TITLE:Thinking of You;
#SUBTITLE:;
#ARTIST:Mr.Valentine;
#TITLETRANSLIT:;
#SUBTITLETRANSLIT:;
#ARTISTTRANSLIT:;
#GENRE:J-Jazz;
#ORIGIN:;
#CREDIT:from pop n music 12;
#BANNER:Mr.Valentine - Thinking of You.png;
#BACKGROUND:;
#PREVIEWVID:;
#JACKET:;
#CDIMAGE:;
#DISCIMAGE:;
#LYRICSPATH:;
#CDTITLE:;
#MUSIC:Mr.Valentine - Thinking of You.mp3;
#OFFSET:-0.025000;
#SAMPLESTART:17.999001;
#SAMPLELENGTH:12.000000;
#SELECTABLE:YES;
#BPMS:0.000=139.983;
#STOPS:;
#DELAYS:;
#WARPS:;
#TIMESIGNATURES:0.000=4=4;
#TICKCOUNTS:0.000=4;
#COMBOS:0.000=1;
#SPEEDS:0.000=1.000=0.000=0;
#SCROLLS:0.000=1.000;
#FAKES:;
#LABELS:0.000=Song Start;
#BGCHANGES:;
#KEYSOUNDS:;
#ATTACKS:
;

//---------------dance-single - ----------------
#NOTEDATA:;
#CHARTNAME:;
#STEPSTYPE:dance-single;
#DESCRIPTION:;
#CHARTSTYLE:;
#DIFFICULTY:Beginner;
#METER:2;
#RADARVALUES:0.062925,0.085735,0.000000,0.083900,0.000000,42.000000,42.000000,0.000000,8.000000,0.000000,0.000000,0.000000,0.000000,0.000000,0.062925,0.085735,0.000000,0.083900,0.000000,42.000000,42.000000,0.000000,8.000000,0.000000,0.000000,0.000000,0.000000,0.000000;
#CREDIT:;
#NOTES:
0000
0000
0000
0000
,
0000
0000
0000
0000
,
0000
0000
0000
0000
,
0000
0000
0000
0000
,
0000
0000
0100
0000
,
0000
0000
0100
0000
,
0000
0000
0010
0000
,
0000
0000
0000
0000
,
0000
0000
0010
0000
,
0000
0000
0000
0000
,
0000
0000
1000
0000
,
0000
0000
0001
0000
,
0000
0000
1000
0000
,
0000
0000
0001
0000
,
0000
0000
0020
0000
,
0030
0000
0100
0000
,
0000
0000
0200
0000
,
0300
0000
0001
0000
,
0000
0000
1000
0000
,
0000
0000
0001
0000
,
0000
0000
0001
0000
,
0000
0000
1000
0000
,
0000
0000
0002
0000
,
0003
0000
1000
0000
,
0000
0000
2000
0000
,
3000
0000
0001
0000
,
0000
0000
0100
0000
,
0000
0000
0010
0000
,
0000
0000
0000
0000
,
0000
0000
0100
0000
,
0000
0000
0010
0000
,
0000
0000
0100
0000
,
0000
0000
0010
0000
,
0000
0000
0000
0000
,
0100
0000
0000
0000
,
0001
0000
0000
0000
,
1000
0000
0000
0000
,
0001
0000
0000
0000
,
0000
0000
1000
0000
,
0000
0000
0001
0000
,
0000
0000
1000
0000
,
0000
0000
0001
0000
,
0000
0000
0100
0000
,
0000
0000
0000
0000
,
0000
0000
0020
0000
,
0030
0000
0000
0000
,
0000
0000
0200
0000
,
0300
0000
0000
0000
,
0000
0000
0020
0000
,
0030
0000
0000
0000
,
0000
0000
0100
0000
,
0000
0000
0100
0000
,
0000
0000
0200
0000
,
0000
0000
0300
0000
,
0000
0000
0001
0000
;

//---------------dance-single - ----------------
#NOTEDATA:;
#CHARTNAME:;
#STEPSTYPE:dance-single;
#DESCRIPTION:;
#CHARTSTYLE:;
#DIFFICULTY:Easy;
#METER:3;
#RADARVALUES:0.143828,0.201884,0.052437,0.157312,0.000000,96.000000,91.000000,5.000000,15.000000,0.000000,0.000000,0.000000,0.000000,0.000000,0.143828,0.201884,0.052437,0.157312,0.000000,96.000000,91.000000,5.000000,15.000000,0.000000,0.000000,0.000000,0.000000,0.000000;
#CREDIT:;
#NOTES:
0000
0000
0000
0000
,
0000
0000
0000
0000
,
0000
0000
0000
0000
,
0000
0000
0000
0000
,
0000
0000
0100
0000
,
0001
0000
1000
0000
,
0010
0000
0200
0000
,
0301
0000
0001
0000
,
0000
0000
0002
0000
,
1003
0000
1000
0000
,
0000
0000
1000
0001
,
1000
0000
0002
0000
,
1003
0000
1000
0100
,
0010
0000
0002
0000
,
0003
0000
0010
0100
,
0100
0000
2000
0000
,
3000
0001
0002
0000
,
0000
0000
1003
0000
,
1000
0000
0001
0001
,
0010
0000
0002
0000
,
1003
0000
1000
1000
,
0100
0000
2000
0000
,
3001
0000
0200
0000
,
0310
0000
1000
0000
,
0001
0000
2000
0000
,
0001
0000
3001
0000
,
0010
0000
0100
0000
,
0000
0000
0100
0000
,
0000
0000
1000
0000
,
0000
0000
0101
0000
,
0000
0000
0010
0000
,
0000
0010
0010
0000
,
0000
0100
0100
0000
,
0000
0000
1001
0000
,
0000
0000
1000
0000
,
0001
0000
1000
0000
,
0000
0000
2000
0000
,
3000
0000
0000
0001
,
0000
0001
1000
0001
,
0000
0000
0001
1000
,
0001
0000
1000
0000
,
0001
0000
0101
0000
,
0000
0000
0010
0000
,
0100
0000
1000
0000
,
0000
0000
0002
0000
,
0000
0000
0103
0000
,
0100
0000
0200
0000
,
0000
0000
0310
0000
,
0010
0000
0020
0000
,
0000
0000
1030
0000
,
1000
0000
0001
0000
,
1001
0000
1001
0000
,
0001
0000
2000
0000
,
0000
0000
3001
0000
,
0001
0000
0001
0001
,
0001
0000
0000
0000
;

//---------------dance-single - ----------------
#NOTEDATA:;
#CHARTNAME:;
#STEPSTYPE:dance-single;
#DESCRIPTION:;
#CHARTSTYLE:;
#DIFFICULTY:Hard;
#METER:11;
#RADARVALUES:0.413505,0.523062,0.157312,0.314624,0.781316,276.000000,261.000000,15.000000,30.000000,0.000000,0.000000,0.000000,0.000000,0.000000,0.413505,0.523062,0.157312,0.314624,0.781316,276.000000,261.000000,15.000000,30.000000,0.000000,0.000000,0.000000,0.000000,0.000000;
#CREDIT:;
#NOTES:
0000
0000
0000
0000
0000
0000
0000
0000
0000
0100
0010
0100
,
0010
0000
0000
0100
0000
0010
0000
0000
0000
1000
0000
0001
,
0000
0000
1000
0100
0000
1000
0000
0001
0000
0001
0000
0001
,
0100
0000
0000
0010
0000
0000
0110
0000
0000
0010
0001
1000
,
0100
0000
0010
0001
0000
0000
1001
0000
1000
0001
0000
1000
,
0000
0000
0001
0000
0000
0010
0000
0000
0001
0100
0010
1000
,
0001
0100
0010
0100
0001
0100
0010
0000
0000
0100
0100
0010
,
0200
0000
0000
0301
0000
0010
0000
0000
0000
0002
0000
0000
,
0003
0000
0000
1000
0000
0100
0100
0000
0000
1000
0000
0100
,
0000
0000
0010
0001
0000
0001
0000
0000
0000
1000
0000
0000
,
0000
0000
1001
0000
0000
0000
0010
0000
0100
0000
0001
0000
,
0200
0000
0000
0300
0010
0000
0001
0000
0020
0000
0000
0000
,
0030
0000
0000
0000
0000
0000
1000
0000
0100
0000
0100
0000
,
0020
0000
0000
0030
0000
0001
0000
0000
0100
0000
0000
0010
,
0000
0000
0100
0010
0000
0200
0000
0000
0000
0000
0000
0000
,
0301
0000
0000
0000
0100
0000
0001
0000
0000
0000
0100
0000
0001
0000
0000
0000
0000
0000
0000
0000
0000
0100
0000
0000
,
0000
0000
0000
0010
0000
2001
0000
0000
0000
0000
0000
0000
,
3001
0000
0000
0001
0000
0000
1000
0000
0000
1000
0000
0100
,
0000
0000
0010
0001
0000
0000
1000
0000
0100
0000
1000
0000
,
0200
0000
0000
0300
0000
1000
0010
0000
0200
0010
0000
0000
,
0300
0000
0010
0100
0000
0000
0010
0000
1000
0000
0010
0000
,
0002
0000
0000
0003
0010
0100
0000
0002
0000
1000
0000
1000
,
0003
1000
0100
0010
0000
0200
0000
0000
0000
0300
0000
0000
,
0010
0000
0001
0100
0000
0010
0100
0000
0000
0000
0000
0012
,
0000
0000
0000
0103
0000
0020
0000
0000
0000
0030
0000
0000
,
0100
0000
0000
0001
0000
0010
0100
0000
0000
1000
0000
0001
,
0000
0000
0000
1000
0000
0000
0100
0000
0010
0000
0000
0101
,
0000
0000
0001
0100
0010
0100
0001
0000
0010
0000
0000
0011
,
0000
0000
0000
0001
0000
0000
1000
0000
0010
0000
0010
0000
,
0010
0000
0010
0000
0100
0000
0110
0000
0001
0000
1000
0000
,
0020
0000
0000
0030
0000
0000
0100
0000
0010
0000
0000
1100
,
0000
0000
1000
0010
0100
0010
1000
0000
0100
0000
0000
0110
,
0000
0000
0000
0100
0000
0000
0010
0000
0100
0000
0100
0000
,
0100
0000
0100
0000
0010
0000
0001
0000
1000
0000
0001
0000
,
2000
0000
0000
3000
0000
0001
0100
0000
0000
0001
0010
0001
,
0010
0000
0001
0010
0001
0010
0002
0000
1003
0000
0000
1001
,
0000
0000
1100
0000
0000
0002
0000
0000
0000
1003
0001
1000
,
0001
1000
0001
1000
0001
0000
0100
0000
0100
0000
0100
0000
,
0100
0000
0000
0010
0000
0000
0100
0000
0010
0000
0000
1000
,
0000
0000
0001
0000
0000
1000
0100
0000
0010
0000
0000
0100
,
0000
0000
0010
0000
0000
0002
0000
0000
2003
0000
0000
3002
,
0000
0000
0023
0000
0000
0230
0000
0000
1300
0000
0000
0001
,
0000
0000
0001
0000
0000
0000
0000
0000
0100
0001
0000
0001
,
0000
0000
0010
0000
0000
0001
0000
0000
0100
0000
0000
0010
,
0000
0000
0100
0000
0000
0002
0000
0000
0000
0000
0000
0000
,
1003
0000
0000
0010
0000
0200
0000
0000
0000
0000
0000
0000
,
0301
0000
0000
1001
0000
2000
0000
0000
0000
3000
0000
0000
,
0100
0000
0000
0010
0000
0002
0000
0000
0000
1000
0000
1000
,
0003
0000
0000
0010
0000
0100
0010
0000
0000
0100
0000
0010
,
0100
0000
0000
0001
0000
2000
0000
0000
0000
0001
0000
0000
,
3001
0000
0001
1000
0000
0001
0000
0000
0000
0000
0000
0000
,
1100
0000
0011
0000
,
0020
0030
0200
0000
,
0000
0000
0000
0000
0000
1000
0300
0000
0100
0000
0000
0010
,
0000
0000
0100
0000
0000
0000
0010
0000
0001
0010
0000
0100
,
0000
0000
0010
0000
0000
0001
0000
0000
0000
0000
0000
0000
;

//---------------dance-single - ----------------
#NOTEDATA:;
#CHARTNAME:;
#STEPSTYPE:dance-single;
#DESCRIPTION:;
#CHARTSTYLE:;
#DIFFICULTY:Medium;
#METER:7;
#RADARVALUES:0.248703,0.261531,0.104875,0.157312,0.267430,166.000000,156.000000,10.000000,15.000000,0.000000,0.000000,0.000000,0.000000,0.000000,0.248703,0.261531,0.104875,0.157312,0.267430,166.000000,156.000000,10.000000,15.000000,0.000000,0.000000,0.000000,0.000000,0.000000;
#CREDIT:;
#NOTES:
// measure 0
0000
0000
0000
0000
,  // measure 1
0100
0000
0000
0000
0000
0000
0100
0000
0000
0000
0000
0010
,  // measure 2
0000
0000
0000
0100
0000
0001
0000
0000
0000
0001
0000
0000
,  // measure 3
1000
0000
0000
0010
0000
0000
0110
0000
0000
0000
0000
0100
,  // measure 4
0000
0100
0002
2003
,  // measure 5
3001
0010
0100
1000
,  // measure 6
0010
0100
0001
0100
,  // measure 7
1000
0100
0001
2000
,  // measure 8
0000
0000
0000
3000
0000
0000
0001
0000
0000
0100
0000
0010
,  // measure 9
0000
0000
0000
0010
0000
0100
0000
0000
0000
0020
0000
0000
,  // measure 10
0030
0000
0000
0100
0000
0000
0001
0000
1000
0000
0001
0000
,  // measure 11
1000
0000
0000
0000
0000
0000
0001
0000
0000
0000
0000
0100
,  // measure 12
0000
0000
0000
0000
0000
0000
0010
0000
0100
0000
0010
0000
,  // measure 13
0100
0000
0000
0000
0000
0000
0010
0000
0000
0000
0000
0100
,  // measure 14
0000
0000
0002
0000
,  // measure 15
2003
0000
3010
0100
,  // measure 16
0010
0100
0100
0001
,  // measure 17
0010
0100
0010
0001
,  // measure 18
0100
0000
0000
0000
0000
0000
0001
0000
1000
0000
0001
0000
,  // measure 19
1000
0000
0000
0000
0000
0000
0010
0000
0000
0000
0000
0100
,  // measure 20
0000
0000
0000
0001
0000
0000
1000
0000
0100
0000
1000
0000
,  // measure 21
0100
0000
0000
0000
0000
0000
0010
0000
0000
0000
0000
0001
,  // measure 22
0000
1000
2000
0000
,  // measure 23
3100
0000
0010
0000
,  // measure 24
0001
0000
2000
0000
,  // measure 25
3001
0000
0010
0000
,  // measure 26
0100
0000
0000
0000
0000
0000
1000
0000
0001
0000
0000
1000
,  // measure 27
0000
0000
0000
0000
0000
0000
1000
0000
0100
0000
0000
2200
,  // measure 28
0000
3300
0000
0000
,  // measure 29
0000
0000
0000
0000
0000
0000
0100
0000
0010
0000
0100
0000
,  // measure 30
0010
0000
0000
0000
0000
0000
0100
0000
0010
0000
0000
0110
,  // measure 31
0000
0000
0000
0000
0000
0000
0100
0000
0001
0000
0000
0202
,  // measure 32
0000
0303
0000
0000
,  // measure 33
0100
0000
0000
0000
0000
0000
0010
0000
0100
0000
0001
0000
,  // measure 34
0100
0000
0001
0100
,  // measure 35
0001
0000
0000
1000
0000
0000
0010
0000
0000
0000
0000
0100
,  // measure 36
0000
0000
0100
0000
0000
0020
0000
0000
0000
0000
0000
0000
,  // measure 37
0030
0000
0100
0000
,  // measure 38
0000
0000
0000
0000
0000
0000
0010
0000
0000
0000
0000
0100
,  // measure 39
0000
0000
0010
0000
0000
0000
0000
0000
1000
0000
0000
0010
,  // measure 40
0000
0000
0100
0000
0000
0010
0000
0000
0100
0000
0000
0010
,  // measure 41
0000
0000
0100
0000
0000
0001
0000
0000
1000
0000
0000
0001
,  // measure 42
0000
0000
0000
0000
0000
0000
0001
0000
0000
0000
0000
0100
,  // measure 43
0000
0000
0010
0000
0000
0100
0000
0000
0000
0000
0000
0001
,  // measure 44
0000
0000
1000
0001
,  // measure 45
1000
0000
0001
1000
,  // measure 46
0001
0000
1100
0100
,  // measure 47
0100
0000
0011
0001
,  // measure 48
0001
0000
1000
0100
,  // measure 49
0010
0001
1000
0100
,  // measure 50
0010
0000
0011
0000
,  // measure 51
0110
0000
1001
0000
,  // measure 52
0011
0000
0200
0000
,  // measure 53
0000
0000
0302
0000
,  // measure 54
0000
0000
0000
0000
0000
0000
1003
0000
0000
0000
0000
0001
,  // measure 55
0000
0000
1000
0000
0000
0001
0000
0000
0000
0000
0000
0000
;
