#TITLE:The tyro's reverie;
#SUBTITLE:;
#ARTIST:Waldeus von dovjak;
#TITLETRANSLIT:;
#SUBTITLETRANSLIT:;
#ARTISTTRANSLIT:;
#GENRE:Classic 7;
#CREDIT:from pop n music 9 AC / 7 CS;
#BANNER:CS7_CLASSIC_7;
#BACKGROUND:;
#LYRICSPATH:;
#CDTITLE:Popn_music_9_logo_small;
#MUSIC:Waldeus von dovjak - The tyro's reverie.ogg;
#OFFSET:-0.178000;
#SAMPLESTART:6.798000;
#SAMPLELENGTH:17.000000;
#SELECTABLE:YES;
#BPMS:0.000000=190.018005
;
#STOPS:
;
#BGCHANGES:;
#KEYSOUNDS:;
#ATTACKS:;

//---------------dance-single - ----------------
#NOTES:
     dance-single:
     :
     Beginner:
     4:
     0.184842,0.295597,0.094675,0.157792,0.005260,123.000000,114.000000,9.000000,15.000000,0.000000,0.000000,0.184842,0.295597,0.094675,0.157792,0.005260,123.000000,114.000000,9.000000,15.000000,0.000000,0.000000:
0000
0000
0000
0000
,
0000
0000
0000
0000
,
0000
0000
0000
0000
,
0000
0100
0000
0000
,
0000
0110
0000
1001
,
0000
0110
0000
0000
,
0100
0100
0000
0000
,
0001
0001
0000
1000
,
1000
0000
0000
0010
,
0100
0000
0000
0010
,
0000
0000
0200
0000
,
0300
0001
0000
1000
,
0000
0010
0000
0100
,
0000
0110
0000
1001
,
0000
0110
0000
0002
,
0003
2000
0000
3000
,
0000
0002
0000
0003
,
0000
0200
0000
0300
,
0000
0020
0000
0000
,
0000
0130
0000
0100
,
0000
0010
0000
0010
,
0000
1000
0000
0001
,
0000
0100
0000
0010
,
0000
0100
0000
0001
,
0000
1000
0000
0100
,
0000
1000
0000
0100
,
0000
0001
0000
0010
,
0000
0001
0000
0010
,
0000
0100
0000
0000
,
0000
0100
0000
0000
,
0000
0100
0000
0010
,
0000
1000
0000
0001
,
0000
0100
0000
0010
,
0000
0100
0000
0001
,
0000
2000
0000
3000
,
0000
2000
0000
3000
,
0000
0011
0000
0000
,
0000
0001
0000
0000
,
0000
0000
0000
0000
,
0000
0100
0000
0100
,
0000
0000
0000
0010
,
0010
0010
0000
0100
,
0000
0100
0000
0001
,
0001
0001
0000
1000
,
0000
1000
0000
0010
,
0010
0010
0000
0100
,
0000
0100
0000
0010
,
0000
0110
0000
1000
,
0000
0000
0000
0000
0000
0010
0000
0000
0000
0000
0000
0000
0000
0000
0000
0000
,
0000
0001
0000
0000
,
0000
0100
0000
0000
,
0000
0020
0000
0000
,
0130
0000
0000
0200
,
0000
0000
0310
0000
,
0000
0010
0000
1000
,
0010
0000
1000
0100
,
0000
0010
0001
0000
,
0100
0200
0000
0300
,
0000
0020
0000
0000
,
0130
0000
0000
0100
,
0000
0020
0000
0030
,
1000
0000
0001
0000
,
1000
0000
0000
0000
,
0002
0000
0003
1000
,
0020
0000
0030
0110
,
0000
0000
0100
0000
,
0000
0010
0000
0000
,
1000
1000
0000
0001
,
0000
0000
0001
0001
,
0000
0001
0000
0000
,
0000
0100
0000
0000
;

//---------------dance-single - ----------------
#NOTES:
     dance-single:
     :
     Easy:
     7:
     0.314081,0.372126,0.231428,0.284025,0.005260,209.000000,187.000000,22.000000,27.000000,0.000000,0.000000,0.314081,0.372126,0.231428,0.284025,0.005260,209.000000,187.000000,22.000000,27.000000,0.000000,0.000000:
0000
0000
0000
0000
,
0000
0000
0000
0000
,
0000
0100
0010
0100
,
0010
0200
0000
0301
,
1000
0110
0000
1001
,
0000
0220
0330
0010
,
0100
0001
1000
1001
,
0100
0001
0000
2000
,
3000
0010
0000
0200
,
0300
0010
0000
0100
0000
0000
0010
0000
,
0000
0110
0000
0000
1000
0000
0100
0000
,
0001
0101
0000
1000
,
0010
0100
0001
0100
,
0000
0100
0010
1001
,
0010
0100
0010
0002
,
0003
2000
0000
3100
,
0100
0020
0000
0031
,
0001
2000
0000
3010
,
0100
0020
0000
0130
,
0001
0100
0000
0100
,
0000
0010
1000
0010
,
0000
0010
0100
0010
,
0000
0100
0001
0010
,
0100
0100
0010
0001
,
0100
0020
0130
0100
,
0010
2000
3001
0100
,
0001
0000
0100
0010
0000
0000
0010
0000
,
0000
0000
0100
0010
0000
0000
0010
0000
,
0000
0100
0010
0000
,
0000
1001
0110
0000
,
0000
0100
0001
0010
,
0000
1000
0100
0010
,
0000
1100
0000
0101
,
0000
0100
0001
0100
,
0000
0002
0103
0020
,
1030
0200
0310
0200
,
0301
0011
0000
0000
,
0000
0001
0010
0002
,
0000
0003
0000
0000
,
0000
0100
0010
0100
,
0001
0100
0010
0100
,
0001
1000
0000
0110
,
0000
0010
0100
0010
,
1000
0010
0100
0010
,
1000
0001
0000
0020
,
0030
0110
0000
0110
,
0000
0200
0300
0010
,
0000
0200
0300
0001
,
0010
0002
0000
0003
,
0000
0001
0000
0100
,
0000
1000
0000
0100
,
0000
0001
0000
0010
,
0000
1000
0000
0010
,
0000
0001
0000
0010
,
0000
1001
0000
0100
,
0020
0030
1000
0001
,
1000
0001
0200
0300
,
0001
0200
0000
0310
,
0000
0120
0000
0000
,
0030
0000
0010
0100
,
0010
0100
0000
0010
,
1000
0000
0001
0001
,
0000
1000
1000
0000
,
0001
0100
0001
1000
,
0001
0000
0100
0200
,
0000
0300
0001
0000
,
0101
0101
0000
1010
,
1010
0000
0000
0101
,
0000
0001
0000
0000
0001
0000
0000
0001
,
0000
0000
0000
0000
0000
0001
0000
0000
0000
0000
0000
0000
0000
0000
0000
0000
,
0000
0200
0000
0300
;

//---------------dance-single - ----------------
#NOTES:
     dance-single:
     :
     Medium:
     9:
     0.449331,0.520976,0.220908,0.410259,0.021039,299.000000,278.000000,21.000000,39.000000,0.000000,0.000000,0.449331,0.520976,0.220908,0.410259,0.021039,299.000000,278.000000,21.000000,39.000000,0.000000,0.000000:
0000
0000
0000
0000
,
0000
0000
0000
0000
,
0000
0000
0100
0010
0100
0000
0010
0100
,
0010
0000
1000
0001
1000
0000
0001
1000
,
0001
0110
0100
1001
,
0001
0101
0000
0010
,
0100
0000
0001
0000
1000
0000
0001
1000
,
0100
0000
1000
0100
0000
0010
0001
0000
,
1000
0000
0010
0200
0300
0010
0200
0300
,
0001
0010
0000
0100
1000
0000
0010
0100
,
0000
0110
0000
0100
0001
0100
0000
0001
,
0100
0001
0100
0000
0010
1000
0010
0000
,
0010
0000
0200
0000
0301
0100
0002
0000
,
0003
0000
0110
0000
0010
0100
0010
0000
,
0010
0000
0110
0000
1000
0001
1000
0000
,
0000
0002
0000
0103
,
0100
0010
2000
0000
0000
0000
3001
0000
,
0001
0100
2000
0000
0000
0000
3100
0000
,
0100
0001
0020
0000
0000
0000
0130
0000
,
0010
0000
0001
1000
0000
0000
0001
0100
,
0000
0000
0010
1000
0010
0000
0010
0010
,
0000
0000
0100
0001
0100
0000
0100
0100
,
0000
0002
2003
3002
,
0203
0000
0301
0010
0001
0000
1000
0010
,
1000
0020
0230
0320
,
0230
0000
0301
0010
0001
0000
1000
0100
,
1000
0000
0100
0010
0000
0010
0100
0000
,
0010
0000
0100
0010
0000
0010
0001
0000
,
0000
0000
0101
0000
0000
0002
0000
0003
,
0000
0000
1001
0000
0000
2000
0000
3000
,
0000
0000
0100
0001
0000
0100
0001
0000
,
0100
0000
0010
0100
0000
0010
0100
0000
,
0000
0011
0001
0101
,
0010
0110
0100
0001
,
1001
0000
0001
0010
0100
0000
0010
0100
,
1000
0200
0310
0020
,
0031
0011
0000
0000
,
0000
0000
1000
0001
0100
0001
0100
0020
,
0000
0000
0000
0030
0000
0000
0000
0000
,
0000
0000
0100
0010
0100
0010
0100
0000
,
0001
0200
0302
0103
,
0001
1000
0001
0000
1000
0000
0010
0100
,
0010
0100
0010
0000
0100
0000
0020
0000
,
0230
0301
0100
0001
,
0010
0100
0010
0000
0000
0000
0001
0000
,
1000
0000
0010
0100
0010
0000
0100
0010
,
0100
0000
0010
0100
0010
0000
1000
0000
,
1001
1002
0000
1003
,
0100
0002
0000
0003
,
0000
0100
0100
0100
,
1000
0002
0000
0103
,
0010
0100
0001
1000
,
0002
0000
1003
0010
,
0001
0010
2000
0000
,
3001
1001
0000
0100
,
0200
0300
0010
0110
,
0000
0010
0020
0030
,
0100
0002
0003
1000
,
0010
0100
0001
2000
,
3001
0000
0100
0000
0010
0100
0010
0000
,
0100
0100
0000
0001
,
0002
0003
1000
0200
,
1300
0010
2000
3000
,
0001
0100
0100
0001
,
0100
0000
0100
0000
0010
0000
0100
0010
,
0100
0000
0001
0000
1000
0001
1000
0000
,
0001
0000
0100
0010
0100
0000
0010
0000
,
0010
0000
0000
0110
0000
0000
0101
0000
,
0000
0000
1010
0000
0000
0000
0000
0000
0100
0000
0000
0010
0000
0000
0000
0000
,
0000
0010
0000
0000
0000
0100
0000
0000
0000
0010
0000
0000
0000
0000
0000
0000
,
0000
0202
0000
0303
;

//---------------dance-single - ----------------
#NOTES:
     dance-single:
     :
     Hard:
     13:
     0.599609,0.669826,0.336622,0.305064,0.163051,399.000000,367.000000,32.000000,29.000000,0.000000,0.000000,0.599609,0.669826,0.336622,0.305064,0.163051,399.000000,367.000000,32.000000,29.000000,0.000000,0.000000:
0000
0000
0000
0000
,
0000
0000
0000
0000
,
0000
0000
0100
0010
0100
0010
0001
0100
,
0010
1000
0001
0100
0010
0100
0010
1000
,
0001
0100
0110
0000
0100
0000
1001
0000
,
0001
0101
1000
0110
,
0100
0101
1000
1001
,
1001
0000
0000
0000
1000
0100
0000
0000
1000
0000
0000
0000
0001
0010
0000
0000
,
0001
0000
0010
0100
0010
0000
1000
0001
,
0100
0110
0000
0100
0010
0000
0100
0001
,
1000
0000
1001
0000
0000
0000
0100
0001
0100
0001
0100
0000
0000
0000
0000
0000
,
0100
0000
0101
0000
0010
1000
0010
1000
,
0010
0100
0001
0010
0001
0100
1000
0100
,
0001
0000
0100
0010
1000
0100
0010
0001
,
1000
0100
0001
1000
0010
0001
1000
0010
,
2000
0000
3000
0000
0002
0000
0000
0000
0000
0000
0000
0000
0103
0000
0000
0010
,
0100
0000
0000
0010
0200
0000
0000
0000
0000
0000
0000
0000
0301
0000
0000
1000
,
0001
0000
0000
1000
0002
0000
0000
0000
0000
0000
0000
0000
0103
0000
0000
0010
,
0100
0000
0000
0000
0210
0000
0000
0000
0000
0000
0000
0000
0310
0000
0000
0100
,
0010
0000
0000
1000
0001
0000
1000
0000
0001
0000
0000
0000
1000
0000
0100
0000
,
0010
0010
0100
1000
0010
0000
0100
0010
,
0100
0000
0001
0010
0100
0100
0010
0001
,
0100
0002
2003
3002
,
0203
0000
0301
0010
0001
0010
0001
1000
,
0100
0020
0032
0023
,
0032
1003
1001
0100
,
0110
0000
0100
0010
0000
0010
0100
0000
,
0010
0000
1000
0001
0000
1000
0100
0000
,
0000
0000
0100
0010
0100
0010
0002
0000
,
0003
0000
0010
0100
0010
0100
2000
0000
,
3000
0000
0000
0000
0001
0000
0001
0000
0100
0000
0000
0100
0001
0000
0000
0000
,
0101
0000
0000
0010
0100
0000
0000
0010
0100
0000
0001
0000
0200
0000
0000
0000
,
0300
0000
0000
0000
1000
0000
0000
0010
0100
0000
0001
0000
0100
0000
0000
0001
,
1000
0000
0100
0000
0010
0000
0000
0010
0001
0000
0000
0000
1000
0000
0000
0000
,
1001
0000
0000
0000
0001
0000
0000
0100
0001
0000
0000
0100
0010
0000
0000
0100
,
0001
0000
0000
0000
0100
0000
0000
0010
1000
0000
0000
0010
0100
0000
0000
0010
,
1000
1100
0000
0000
,
0000
0000
1000
0001
0100
0001
0100
0020
,
0000
0000
0000
0030
0000
0000
0000
0000
,
0000
0000
0100
0010
0100
0010
0100
0001
,
1000
0100
0010
0100
1000
0010
0100
0001
,
0010
0100
1000
0000
1000
0000
1010
0000
,
0010
0100
0010
0100
0010
0000
1000
0100
,
0010
0001
0010
0010
0100
0000
0010
0001
,
0001
0100
0100
0010
1000
0010
0100
0010
,
1000
0001
0100
0001
0010
0001
0010
0001
,
0100
0010
1000
1000
0001
0001
1000
0000
,
1001
0000
2000
0000
3000
0000
0100
0010
,
0100
0020
0000
0030
,
1000
0100
0010
0001
,
1000
0000
0000
0000
0020
0000
0000
0000
0000
0000
0000
0000
0130
0000
0000
0100
,
0010
0100
0001
1000
,
1002
1000
1003
0110
,
0001
0110
2000
0001
,
3001
1010
0100
0010
,
0001
1000
0010
0210
,
0300
0010
0120
0030
,
0100
0000
0010
0100
0010
1000
0001
0000
,
0000
1000
0100
0010
0001
0000
0000
0010
,
0001
0010
0001
0000
0000
0001
0010
0100
,
1000
0000
0000
0010
0100
0010
0100
0000
,
0000
0001
1000
0010
0100
0000
0020
0000
,
1030
0010
1000
0001
2000
0000
3100
0010
,
0001
0010
0100
0000
1100
0000
0101
0000
,
2000
0000
0000
0000
3000
0000
0000
0000
0001
0000
0000
0000
0100
0010
0000
0000
,
0100
0000
0000
0000
0001
0000
0001
0000
0101
0000
0000
0000
1000
0001
0000
0000
,
1000
1000
1001
0000
0100
0010
0100
0010
,
0110
0000
0010
0110
0000
0001
0101
0000
,
0000
0000
0000
0000
0000
0000
1010
0000
0000
0000
0000
0000
0000
0000
0000
0000
0000
0000
0000
0000
0000
0000
0000
0000
0100
0000
0000
0000
0000
0000
0000
0000
0000
0100
0000
0000
0010
0000
0000
0000
0000
0000
0000
0000
0100
0000
0000
0000
,
0000
0000
0000
0000
0010
0000
0000
0000
0000
0000
0000
0000
0000
0000
0000
0100
0000
0000
0000
0000
0000
0000
0000
0000
0000
0000
0000
0020
0000
0000
0000
0000
0000
0000
0000
0000
0000
0000
0000
0000
0000
0000
0000
0000
0000
0000
0000
0000
,
0030
0200
0000
0300
;

//---------------dance-single - ----------------
#NOTES:
     dance-single:
     :
     Challenge:
     17:
     0.879126,1.116377,0.368181,0.157792,0.752141,585.000000,550.000000,35.000000,15.000000,0.000000,0.000000,0.879126,1.116377,0.368181,0.157792,0.752141,585.000000,550.000000,35.000000,15.000000,0.000000,0.000000:
// measure 0
0000
0000
0000
0000
,  // measure 1
0000
0000
0000
0000
,  // measure 2
0000
0000
1000
0010
0100
0010
0001
0010
,  // measure 3
1000
1000
0001
0100
0001
0001
0010
0100
,  // measure 4
0001
0000
0100
0000
0110
0000
0000
0000
0100
0010
0100
0010
1000
0000
0000
0000
,  // measure 5
0001
0000
0100
0000
0101
0000
0000
0000
1000
0000
0001
0000
0110
0000
1000
0010
,  // measure 6
0100
0000
0000
0000
0101
0000
0000
0010
1000
0000
0000
0000
0011
0000
0001
0000
,  // measure 7
1000
0001
0000
0000
1000
0100
0000
1000
0100
0000
0010
0000
0001
0010
0000
0001
,  // measure 8
0010
0000
0000
0000
0100
0010
0100
0010
0100
0000
0000
0000
1000
0001
1000
0001
,  // measure 9
1000
0000
0001
0000
0100
0010
0100
0001
0100
0000
0000
0000
0100
0000
0001
0100
,  // measure 10
0001
0010
0001
0000
0000
0000
0100
0001
0100
0001
0100
0010
1000
0010
1000
0010
,  // measure 11
0100
0000
0101
0001
0010
1000
0010
0001
,  // measure 12
0100
0000
0001
0000
1000
0000
0010
0000
0100
0000
0010
0100
0001
0000
0100
0000
,  // measure 13
0001
0100
0101
0001
1000
0100
1001
0001
,  // measure 14
1000
0000
0010
0000
0001
0000
1000
0000
0100
0000
0001
0000
1000
0010
1000
0000
,  // measure 15
0001
0010
0001
0000
0010
0100
0010
0100
0010
0100
1000
0100
0010
0000
0010
0000
,  // measure 16
0001
1000
0001
1000
0020
0000
0000
0000
0130
0000
0001
0000
0100
0010
1000
0001
,  // measure 17
0100
0010
0100
0010
0200
0000
0000
0000
0301
0000
1000
0000
0100
1000
0100
1000
,  // measure 18
0100
0010
0001
0010
0002
0000
0000
0000
0003
0000
1000
0000
0010
0000
0100
0010
,  // measure 19
0100
0000
0000
0000
0001
0000
1000
0001
1000
0000
0001
1000
0001
1000
0001
0010
,  // measure 20
0001
0010
0001
0000
0100
0000
0000
0100
0010
0000
0000
0000
0100
0001
0100
0001
,  // measure 21
0100
0000
0000
0000
0001
0010
0100
1000
0001
0000
0000
0000
1000
0010
0100
0010
,  // measure 22
1000
0000
0000
0000
0002
0000
0000
0000
2003
0000
0000
0000
3001
0100
0001
0010
,  // measure 23
0001
0000
0000
0000
1000
0000
0001
0000
0100
0000
0010
0000
0100
0010
0100
0010
,  // measure 24
0100
0000
0000
0000
0020
0000
0000
0000
2030
0000
0000
0000
3100
0010
0100
0010
,  // measure 25
0100
0000
0000
0000
1000
0000
0001
0000
0100
0000
0001
0000
0100
0010
1000
0100
,  // measure 26
0010
0000
0010
0001
0000
0010
0100
0000
,  // measure 27
0110
0000
0000
0000
1000
0001
1000
0000
0000
0000
1000
0010
0100
0000
0000
0000
,  // measure 28
0000
0000
0000
0000
0110
0000
0010
0000
0100
0000
0010
0100
0010
0100
0010
0100
,  // measure 29
0010
0000
0000
0000
0110
0000
0001
0000
1000
0000
0001
1000
0001
0100
0001
0100
,  // measure 30
0002
0000
0000
0000
0103
0010
0000
0010
0100
0000
0001
0000
1000
0001
0000
0100
,  // measure 31
0001
0000
0100
0010
0100
0000
0010
0100
0010
0000
1000
0000
0100
1000
0100
0010
,  // measure 32
0100
1000
0001
0100
0001
0000
0000
0100
0001
0000
0100
0001
0100
0000
0001
0000
,  // measure 33
1001
0000
0100
0000
0110
0000
0100
0010
0100
0000
0010
0100
0001
0000
0000
0000
,  // measure 34
1001
0000
0000
0000
0001
0000
0000
1000
0100
0000
0000
0100
0010
0000
0000
0010
,  // measure 35
0001
0000
0000
0001
1000
0000
0000
1000
0100
0000
0000
0010
0001
0000
0000
0010
,  // measure 36
0100
1100
0000
0000
,  // measure 37
0000
0000
1000
0100
0001
0100
0010
0002
,  // measure 38
0000
0000
0000
0003
0000
0000
0000
0000
,  // measure 39
0000
0000
0000
0000
0100
0000
0010
0000
0100
0000
0010
0000
0100
0000
0001
1000
,  // measure 40
0001
0100
0001
0100
1000
0100
0001
1000
,  // measure 41
1010
0010
1010
0000
1000
0100
0010
0001
,  // measure 42
0100
0010
1000
0000
0100
0000
0010
0000
0001
0000
1000
0000
0001
0000
0100
0000
,  // measure 43
0010
0100
0001
0000
0010
0000
0100
0000
1000
0000
0010
0000
0100
0000
0001
0000
,  // measure 44
0100
0000
0001
0000
0100
0000
0010
0100
0010
0000
0100
0000
0001
0000
0010
0001
,  // measure 45
0010
0000
0001
0000
1000
0000
0100
1000
0100
0000
0001
0000
0010
0000
0001
0000
,  // measure 46
0100
0000
0010
0000
0100
0000
0100
0000
1000
0000
0010
0000
0100
0010
0100
0000
,  // measure 47
0110
0000
1100
0110
1100
0000
0100
0010
,  // measure 48
0110
0000
0000
0000
0010
0200
0000
0000
0000
0000
0000
0000
0300
0000
0000
0000
,  // measure 49
0100
0000
0000
0010
0100
0000
0000
0000
0010
0000
0000
0100
0010
0000
0000
0000
,  // measure 50
1000
0000
0000
0000
0000
0000
0002
0000
0000
0000
0000
0000
0000
0000
0000
0003
0000
0000
1000
0000
0100
0000
0010
0000
,  // measure 51
0001
0000
0000
0000
0010
0000
0000
0000
0001
0000
0000
0000
0010
0000
0000
0000
0000
0000
0000
0000
0000
0000
0000
0000
0001
0000
0000
0000
0000
0000
0000
0000
0000
1000
0000
0000
0001
0000
0000
0000
0000
0000
0000
0000
0000
0000
0000
0000
,  // measure 52
1000
0001
0100
0001
1000
0000
0000
0000
0100
0000
0000
0010
0100
0000
0000
0000
,  // measure 53
0001
0010
0001
0010
0001
0000
0000
0000
1000
0100
1000
0100
1000
0000
0000
0000
,  // measure 54
0001
0000
0000
0000
1000
0010
0100
0010
0100
0000
0000
0001
0010
0000
0000
0000
,  // measure 55
0010
0100
0010
0100
1000
0000
0000
0100
0010
0000
0000
0000
0001
0010
0100
0010
,  // measure 56
0001
0000
0000
1000
0010
0000
0000
0000
1000
0100
0010
0001
1000
0000
0000
0000
,  // measure 57
0100
0000
0010
0001
0010
0001
1000
0000
,  // measure 58
0001
1000
0100
0010
0001
0000
1000
0010
,  // measure 59
0100
0010
1000
0010
0100
0001
0010
0100
,  // measure 60
1000
0000
0000
0000
1010
0000
0001
0000
0100
0010
0100
0010
0100
0000
0001
0000
,  // measure 61
0100
0000
0000
0001
1000
0000
0000
0010
0100
0000
0000
0010
0200
0000
0000
0000
,  // measure 62
0001
0000
0301
0010
0100
1000
0100
0010
,  // measure 63
0001
0000
0010
0000
0100
0000
0000
0100
1000
0000
0000
0100
0010
0000
0000
0010
,  // measure 64
0002
0000
0000
0000
0003
0000
0000
0000
0001
0000
0000
0000
0011
0000
0001
0010
,  // measure 65
0100
1000
0001
0000
0101
0000
0101
0000
0101
0000
0001
0010
0100
1000
0100
1000
,  // measure 66
0100
0010
0100
0000
1000
0000
0010
0100
0001
1000
0100
0000
0110
0000
0110
0000
,  // measure 67
1001
0010
0010
0110
0100
0001
0101
0000
,  // measure 68
0000
0000
0000
0000
0000
0000
1010
0000
0000
0000
0000
0000
0000
0000
0000
0000
0000
0000
0000
0000
0000
0000
0000
0000
0101
0000
0000
0000
0000
0000
0000
0000
0000
1000
0000
0000
0010
0000
0000
0000
0000
0000
0000
0000
0100
0000
0000
0000
,  // measure 69
0000
0000
0000
0000
0010
0000
0000
0000
0000
0000
0000
0000
0000
0000
0000
1000
0000
0000
0000
0000
0000
0000
0000
0000
0000
0000
0000
1020
0000
0000
0000
0000
0000
0000
0000
0000
0000
0000
0000
0000
0000
0000
0000
0000
0000
0000
0000
0000
,  // measure 70
0030
0200
0000
0300
;
