#TITLE:The chamomile of night;
#SUBTITLE:;
#ARTIST:SUZUKKI;
#TITLETRANSLIT:;
#SUBTITLETRANSLIT:;
#ARTISTTRANSLIT:;
#GENRE:;
#CREDIT:from pop n music 10 AC / 8 CS;
#BANNER:SUZUKKI - The chamomile of night.png;
#BACKGROUND:;
#LYRICSPATH:;
#CDTITLE:Popn_music_10_logo_small.png;
#MUSIC:SUZUKKI - The chamomile of night.mp3;
#OFFSET:-0.691000;
#SAMPLESTART:10.058000;
#SAMPLELENGTH:16.000000;
#SELECTABLE:YES;
#BPMS:0.000000=106.000000
;
#STOPS:
;
#BGCHANGES:;
#KEYSOUNDS:;
#ATTACKS:;

//---------------dance-single - ----------------
#NOTES:
     dance-single:
     :
     Beginner:
     3:
     0.091504,0.124227,0.010008,0.080066,0.000000,64.000000,63.000000,1.000000,8.000000,0.000000,0.000000,0.091504,0.124227,0.010008,0.080066,0.000000,64.000000,63.000000,1.000000,8.000000,0.000000,0.000000:
0000
0000
0000
0000
,
0000
0000
0000
0000
,
0000
0000
0000
1000
,
0000
0001
0000
0100
,
0000
0001
0000
1000
,
0000
0010
0000
0100
,
0000
0010
0000
1000
,
0000
0001
0000
2000
,
0000
3000
0001
0000
0000
0000
0002
0000
,
0000
0003
1000
0000
0000
0000
0001
0000
,
0000
0100
0000
0001
,
0000
0010
0000
0001
,
0000
1000
0000
0020
,
0000
0000
0030
0000
,
0000
0100
0000
0100
,
0000
0000
0010
0000
,
0010
0000
0000
0100
,
0000
0010
0000
0010
,
0000
0100
0000
0001
,
0000
0001
0000
1000
,
0000
0000
0000
2000
,
0000
3000
0000
0002
,
0000
0003
0000
1000
,
0000
0000
0000
0001
,
0000
0000
0000
1000
,
0000
0010
0000
0100
,
0000
0010
0000
1000
,
0000
0000
0000
0001
,
0000
0001
0000
1000
,
0000
1000
0000
0001
,
0000
0001
0000
1000
,
0000
1000
0000
0001
,
0000
0001
0000
1000
,
0000
0001
0000
1000
,
0000
0001
0000
0200
,
0000
0300
0000
0020
,
0000
0000
0030
0000
,
0000
0000
0000
1001
,
0000
0001
0000
1000
,
0000
1000
0000
0001
,
0000
0002
0000
0000
0000
0000
0000
0000
,
0000
0000
0000
0003
0000
0000
0000
0000
;

//---------------dance-single - ----------------
#NOTES:
     dance-single:
     :
     Easy:
     7:
     0.278800,0.313382,0.090074,0.180148,0.050041,195.000000,186.000000,9.000000,18.000000,0.000000,0.000000,0.278800,0.313382,0.090074,0.180148,0.050041,195.000000,186.000000,9.000000,18.000000,0.000000,0.000000:
// measure 0
0000
0000
0000
1000
,  // measure 1
0000
0000
0000
1000
,  // measure 2
0000
0000
0000
1001
,  // measure 3
1000
0000
0000
0000
0001
0000
0000
0100
0000
0000
0000
0000
0100
0000
0000
0100
,  // measure 4
0000
0100
0001
0000
1000
0000
2000
0000
,  // measure 5
3100
0000
0010
0001
0000
0001
0100
0000
,  // measure 6
0010
0000
0100
0000
0000
0000
0100
0000
0010
0000
0000
0000
1000
0000
0000
0001
,  // measure 7
0000
0000
1000
0000
0000
0000
0001
0000
0000
1000
0000
0000
0001
0000
0000
1000
,  // measure 8
0000
0002
0000
0003
1000
0000
2200
0000
,  // measure 9
3300
0000
0001
0000
0010
0000
0001
1000
,  // measure 10
0010
0000
0100
0001
0010
0000
0001
1000
,  // measure 11
0020
0000
0030
0000
0100
0000
0001
1000
,  // measure 12
0010
0000
0100
0001
0010
0000
0022
0000
,  // measure 13
0033
2002
3003
0100
,  // measure 14
0010
0000
0100
0010
0100
0000
0010
0000
,  // measure 15
0100
0000
0010
0100
0010
0000
1000
0100
,  // measure 16
1000
0100
0010
0000
0001
0000
0011
0000
,  // measure 17
0100
0000
0010
0100
0010
0000
1000
0010
,  // measure 18
1000
0000
0100
0010
0100
0000
0010
0001
,  // measure 19
0010
0000
0001
0010
0100
1000
1001
0000
,  // measure 20
0000
1001
0000
0000
0001
0010
0200
0000
,  // measure 21
0010
0001
0310
0002
,  // measure 22
0100
0013
0001
1000
,  // measure 23
0000
0100
0000
0000
0000
0010
0001
0000
,  // measure 24
0010
0001
0000
0000
1000
0100
1100
0000
,  // measure 25
0000
0010
0010
0000
0010
0001
0100
0000
,  // measure 26
0001
0000
0010
0000
0001
0000
1000
0100
,  // measure 27
0010
0000
0010
0100
1000
0000
0001
0010
,  // measure 28
0100
0000
0100
0010
0001
0000
1000
0000
,  // measure 29
1001
0000
1000
0000
0010
0010
0100
0100
,  // measure 30
0000
0000
0002
0000
0000
0000
1003
0000
0000
0001
0000
0000
2000
0000
0000
0000
,  // measure 31
3001
0010
0001
0010
0001
0000
1000
0000
,  // measure 32
0100
1000
0100
1000
0100
0000
1000
0000
,  // measure 33
0001
0010
0001
0010
0100
0000
1000
0000
,  // measure 34
0100
1000
0100
1000
0010
0000
0200
0000
,  // measure 35
0000
0301
0001
0020
,  // measure 36
0001
0000
0000
0000
0001
0000
0000
0000
0031
0000
0000
0000
1000
0000
0000
0002
,  // measure 37
0000
0000
0000
0003
1000
0000
0000
0000
0001
0000
0000
0000
1000
0000
0000
0020
,  // measure 38
0000
0000
0000
0030
1000
0000
0000
0000
0100
0000
0010
0000
0001
0000
0000
1000
,  // measure 39
0000
0000
0000
0000
1000
0000
0000
0001
0000
0000
0000
0000
0001
0000
0000
0000
,  // measure 40
0000
0002
0000
0000
0100
0000
0100
0000
,  // measure 41
0100
0000
0000
0003
0000
0000
0100
0000
;

//---------------dance-single - ----------------
#NOTES:
     dance-single:
     :
     Medium:
     8:
     0.361725,0.354103,0.210172,0.320263,0.140115,253.000000,232.000000,21.000000,32.000000,0.000000,0.000000,0.361725,0.354103,0.210172,0.320263,0.140115,253.000000,232.000000,21.000000,32.000000,0.000000,0.000000:
0000
0000
0000
0000
0100
0000
1000
0001
,
0001
0000
0100
0010
0100
0000
1000
0001
,
0010
0001
1000
0000
0010
0100
1001
0000
,
0001
0000
0100
0000
0001
0000
0000
0100
0000
0000
0010
0000
0100
0000
0010
0000
,
0010
0000
0100
0000
0001
0000
0000
0000
1000
0001
0000
0000
1100
0000
0000
0000
,
0100
0000
0010
0000
0010
0000
0001
0000
0100
0000
0001
0000
0200
0000
0000
0320
,
0000
0000
0130
0000
0000
0000
0100
0000
0000
0110
0000
0000
2000
0000
0000
3002
,
0000
0000
1003
0000
0000
0000
0001
0000
0010
0001
0000
0000
0002
0000
0000
2003
,
0000
0000
3010
0000
0000
0000
0100
0000
0100
0010
0000
0000
0200
0000
0000
0000
,
0301
0010
0001
1000
0010
1000
2001
0000
,
3010
0200
0000
0301
0010
0000
0020
0001
,
0031
0000
0100
0110
0000
0100
0002
0000
,
0013
0200
0000
1300
0010
0000
0201
0000
,
0301
0000
0000
1000
0000
0000
0100
0000
0010
0001
0000
0002
0000
0000
0003
1000
,
0000
0000
1000
0000
0000
0000
0010
0000
0100
0000
0000
0000
0010
0000
0000
0100
,
0000
0000
0001
0000
1000
0000
0100
0000
1000
0000
0000
0000
0001
0000
0000
0100
,
0000
0001
0010
0100
0010
0000
0011
0000
,
0100
0000
0000
0000
0010
0000
0100
0000
0010
0000
0000
0010
1000
0000
0000
0010
,
1000
0000
0000
0000
0100
0000
0000
0100
0001
0000
0000
0000
0100
0000
1000
0000
,
0100
0000
0000
0000
1001
0000
0000
0000
0100
0001
0000
0000
0100
0001
0000
0000
,
0100
1001
0000
1001
0010
0000
0200
0000
,
0010
0000
0010
0000
0000
0000
0010
0000
0310
0000
0100
0000
0002
0000
0000
0100
,
0003
0010
0000
1000
0001
0000
1001
0000
,
0100
0000
0010
0100
0000
0000
0010
0000
0010
0000
0000
0000
1000
0000
0100
0000
,
0010
0001
1000
0010
1000
0100
1100
0000
,
0010
0010
0000
0001
0010
0001
0101
0000
,
0001
0000
0010
0001
0000
0000
0010
0000
0001
0000
0010
0000
0011
0000
0000
0000
,
0010
0000
0000
0001
0000
0000
0100
0000
0001
0000
0000
0000
0002
0000
0000
0000
,
0103
0100
0100
0010
0010
0010
1010
0000
,
1001
0000
0001
0100
0010
1000
0100
0100
,
0000
0000
0010
0000
0000
0000
0001
0000
0000
0011
0000
0000
0002
0000
0000
0000
,
0003
0001
1000
0100
,
0010
0000
0100
0000
1000
0000
1000
0100
,
0001
0100
1000
0010
0200
0300
0020
0030
,
0220
0330
2002
3003
0010
0100
0002
0000
,
0103
0000
0001
0010
0001
0000
0010
0001
,
0010
0000
0000
0000
0001
0000
1000
0000
0001
0000
0000
0000
1000
0000
0000
0002
,
0000
0000
0000
0003
1000
0000
0100
0000
0010
0000
0100
0000
1000
0000
0000
0020
,
0000
0000
0000
0030
1000
0000
1000
0000
0100
0000
0100
0000
0010
0000
0000
0022
,
0000
0000
0033
0000
0001
0000
0000
2200
0000
0000
3300
0000
0000
0000
0000
0000
,
0000
0002
0000
0000
0100
0000
0000
0000
,
0100
0000
0000
0003
0000
0100
0000
0000
;

//---------------dance-single - ----------------
#NOTES:
     dance-single:
     :
     Hard:
     12:
     0.500410,0.501912,0.150123,0.200164,0.575472,350.000000,335.000000,15.000000,20.000000,0.000000,0.000000,0.500410,0.501912,0.150123,0.200164,0.575472,350.000000,335.000000,15.000000,20.000000,0.000000,0.000000:
0000
0000
0000
0000
0000
0000
0000
0000
0100
0010
0100
0000
1001
0000
0001
0000
,
0001
1000
0000
0000
1000
0000
0001
0100
0000
0000
0010
0000
1000
0000
0001
0000
,
0010
0000
0001
1000
0001
0000
1000
0000
1000
0100
0000
0000
1100
0000
0000
0000
,
1000
0100
0000
0000
0010
0000
0100
1000
0000
0000
0010
0000
0100
0000
0001
0000
,
1000
0000
0001
1000
0010
0000
1000
0001
0100
0000
0000
0000
0020
0000
0000
0000
,
0130
0000
0010
0000
0100
0000
0001
0000
0000
0000
0001
0100
0002
0000
0000
0103
,
0000
0000
0001
0000
0100
0000
0010
0000
1000
0010
0000
0000
2000
0000
0000
3010
,
0000
0000
1010
0000
0000
0000
0200
0000
0300
0000
0010
0100
0010
0000
0000
1000
,
0000
0000
1010
0000
0000
0000
0100
0000
0100
0010
0000
0000
0110
0000
0000
0000
,
1000
0000
0001
0000
0001
0000
1000
0010
0000
0000
1000
0010
2000
0000
0000
0000
,
3000
0000
0202
0000
0000
0000
0303
0000
0010
0100
0000
0000
0010
0000
0100
0000
,
0001
0000
1000
0000
0100
0000
0010
0000
0001
0000
0100
0001
0200
0000
0000
0000
,
0301
0000
0100
0000
0001
0100
0001
0010
0001
0000
0000
0000
0200
0000
0001
0000
,
0301
1000
0000
1000
0000
0000
0100
0000
0010
0001
0000
0100
0000
0010
0000
1000
,
0000
0000
1100
0000
0000
0000
0010
0000
0100
0001
0000
0100
0001
0000
0000
0100
,
0000
0001
1000
0000
0100
0000
0000
1000
0100
1000
0100
0010
0002
0000
0003
0100
,
0000
0000
0001
0000
0010
0000
0100
0010
0100
0010
0000
0000
0110
0000
1000
0010
,
1000
0000
0010
0100
0010
0000
0100
0000
0010
0100
0000
0010
0100
0010
0100
0010
,
0000
1000
0000
0100
0000
0000
0001
0000
0100
0010
0100
1000
0100
0000
1000
0000
,
0100
0010
0000
0100
0010
0000
0100
0000
1000
0001
0000
0000
0100
0010
0000
0010
,
1000
0000
1000
0100
0000
0010
0001
0000
0010
0001
0000
0000
0200
0000
0000
0000
,
0310
0000
0010
0100
0000
0000
0010
0000
0100
0010
0000
0100
0001
0000
0001
0100
,
0001
0000
0010
0100
0000
0100
1000
0000
0001
0010
0000
0010
0001
0000
1000
0010
,
0100
0000
0010
0100
0000
0000
0010
0000
1000
0010
0000
1100
0000
0000
0100
0010
,
0001
0010
0000
0010
0001
0000
0010
0000
1000
0000
0010
0001
0010
0000
0000
0000
,
0001
0000
0100
0010
0000
0000
0100
0000
0010
0100
0010
0100
0001
0000
0000
0000
,
0001
0000
0010
0001
0000
0010
0001
0000
0001
0010
0100
0010
0100
0000
2000
0000
,
0000
0000
3001
0000
0000
0000
0100
0000
0001
0010
0001
0010
0002
0000
0100
0000
,
0103
0000
0000
0100
0000
0000
0010
0000
0100
0010
0100
0000
1010
0000
0000
0000
,
0101
0001
0000
0100
0010
1000
0100
0100
,
0000
0000
0010
0000
0000
0000
0001
0000
0010
0001
0000
0000
0002
0000
0000
0000
,
1003
0100
0001
0000
1000
0100
0001
0000
,
0010
0000
0001
0000
0100
0000
0000
0000
1000
0001
0000
1000
0001
0000
0100
0000
,
0001
0100
0000
0010
1000
0000
0010
0000
0100
0010
0100
0000
0020
0000
0030
0000
,
1000
0000
0100
0000
0020
0000
0030
0000
0010
0001
0000
0000
0012
0000
0000
0000
,
0003
0000
1000
0010
1000
0000
0010
0000
0010
0100
0000
0000
0010
1000
0000
1000
,
0010
1000
0000
0001
0000
1000
0100
0010
0001
1000
0000
0000
1001
0000
0000
0002
,
0000
0000
0000
0003
1000
0000
0010
0100
0010
0100
0010
0000
1010
0000
1000
0020
,
0000
0000
0000
0030
1000
0100
1000
0000
0100
0010
0100
0010
0001
0000
0000
0010
,
0001
0010
0001
0000
0011
0000
0000
1000
0000
1000
0100
0000
0000
0000
0000
0000
,
0000
0000
0002
0000
0000
0000
0000
0000
0000
0000
0000
0000
0003
0000
0100
0010
,
0100
0000
0000
0010
0000
0000
0000
0000
0000
0000
0100
0000
0000
0000
0000
0000
0000
0000
0000
0000
0000
0000
0000
0000
0000
0000
0000
0000
0000
0000
0100
0000
0000
0000
0100
0000
0000
0000
0100
0000
0000
0000
0000
0000
0000
0000
0000
0000
;
