#TITLE:The Aim of Nautilus;
#SUBTITLE:;
#ARTIST:mu-Ray;
#TITLETRANSLIT:;
#SUBTITLETRANSLIT:;
#ARTISTTRANSLIT:;
#GENRE:;
#CREDIT:;
#BANNER:mu-Ray - The Aim of Nautilus (cut).png;
#BACKGROUND:;
#LYRICSPATH:;
#CDTITLE:;
#MUSIC:mu-Ray - The Aim of Nautilus (cut).mp3;
#OFFSET:-0.044000;
#SAMPLESTART:6.391000;
#SAMPLELENGTH:16.000000;
#SELECTABLE:YES;
#BPMS:0.000000=160.000000
;
#STOPS:
;
#BGCHANGES:;
#KEYSOUNDS:;
#ATTACKS:;

//---------------dance-single - ----------------
#NOTES:
     dance-single:
     :
     Beginner:
     3:
     0.119646,0.157689,0.000000,0.010469,0.000000,80.000000,80.000000,0.000000,1.000000,0.000000,0.000000,0.119646,0.157689,0.000000,0.010469,0.000000,80.000000,80.000000,0.000000,1.000000,0.000000,0.000000:
0000
0000
0000
0000
,
0000
0000
0000
0000
,
0000
0000
0000
0000
,
0000
0000
0000
0000
,
0000
0100
0000
0010
,
0000
0100
0000
0000
,
0000
0001
0000
1000
,
0000
0001
0000
0000
,
0000
1000
0000
0001
,
0000
1000
0000
0001
,
0000
1000
0000
0000
,
0000
0001
0000
0000
,
0000
1000
0000
0001
,
0000
0100
0000
0001
,
0000
1000
0000
0000
,
0000
0010
0000
0000
,
0000
0100
0000
0010
,
0000
0100
0000
0010
,
0000
0100
0000
0000
,
0000
0001
0000
0000
,
0000
1000
0000
0001
,
0000
1000
0000
0000
,
0000
0001
0000
1000
,
0000
0001
0000
0000
,
0000
1000
0000
0001
,
0000
0100
0000
0001
,
0000
1000
0000
0000
,
0000
0001
0000
0000
,
0000
1000
0000
0010
,
0000
1000
0000
0000
,
0000
0001
0000
0100
,
0000
0001
0000
0000
,
0000
1000
0000
0000
,
0000
0001
0000
0000
,
0000
1000
0000
0000
,
0000
0001
0000
0000
,
0000
0200
0000
0000
,
0300
0000
0000
0001
,
0000
1000
0000
0001
,
0000
1000
0000
0001
,
0000
0100
0000
0000
,
0000
0010
0000
0100
,
0000
0001
0000
1000
,
0000
0001
0000
0000
,
0000
1000
0000
0010
,
0000
1000
0000
0000
,
0000
0001
0000
0100
,
0000
0001
0000
0010
,
0000
0010
0000
0000
,
0000
0001
0000
0000
,
0000
1000
0000
0010
,
0000
1000
0000
0000
,
0000
0010
0000
1000
,
0000
0010
0000
0000
,
0000
0100
0000
0000
,
0000
0010
0000
0000
,
0000
0100
0000
0000
,
0000
0010
0000
0000
,
0000
0100
0000
0000
,
0000
0100
0000
0000
,
0000
0100
0000
0000
;

//---------------dance-single - ----------------
#NOTES:
     dance-single:
     :
     Easy:
     5:
     0.204894,0.283841,0.031407,0.000000,0.000000,137.000000,134.000000,3.000000,0.000000,0.000000,0.000000,0.204894,0.283841,0.031407,0.000000,0.000000,137.000000,134.000000,3.000000,0.000000,0.000000,0.000000:
0000
0000
0000
0000
,
0000
0000
0000
0000
,
0000
0000
0000
0000
,
0000
0000
0000
0000
,
0000
0100
0100
0001
,
0001
1000
0010
0010
,
1000
0001
1000
0001
,
1000
0001
1000
0010
,
0000
1000
0100
0100
,
0100
1000
1000
0001
,
0001
0100
0010
0100
,
0010
0100
0100
0001
,
0000
1000
0000
0001
,
0000
1000
0000
0001
,
0000
0100
0000
0010
,
0000
0100
0000
0000
,
0000
0001
0001
1000
,
1000
0010
0000
0100
,
0000
0110
0000
0010
,
0000
1000
0000
0001
,
1000
0001
0001
0001
,
0001
0010
0010
0010
,
0010
0001
0000
1000
,
0000
0001
0000
0000
,
0000
0100
0100
0010
,
0010
0100
0100
0010
,
0010
0100
0000
0001
,
0000
1000
0000
0000
,
0000
0001
1000
0001
,
1000
0001
0000
1000
,
0100
1000
0000
0100
,
1000
0100
0000
0001
,
0000
0100
0001
0100
,
0001
0100
0000
0010
,
0000
0110
0000
0000
,
0000
0100
0000
0010
,
0000
0110
0000
0100
,
0000
0100
0000
0001
,
0000
1000
0000
0100
,
0000
0010
0000
0001
,
0000
0001
0000
0010
,
0000
0100
0000
1000
,
0000
0001
0000
0000
,
0000
1000
0000
0000
,
0000
0001
0000
1000
,
0000
1000
0000
0000
,
0000
0001
0000
0010
,
0000
0001
0000
0010
,
0000
0001
0000
1000
,
0000
0001
0000
1000
,
0000
0100
0000
0000
,
0000
0100
0000
0000
,
0000
0010
0000
0000
,
0000
0010
0000
0010
,
0000
0010
0000
0000
,
0000
0001
0000
0000
,
0000
1000
0000
0001
,
0000
1000
0000
0001
,
1000
0001
0000
1000
,
0001
1000
0000
0001
,
0000
1000
0000
0000
;

//---------------dance-single - ----------------
#NOTES:
     dance-single:
     :
     Medium:
     8:
     0.339495,0.378455,0.146566,0.020938,0.000000,227.000000,213.000000,14.000000,2.000000,0.000000,0.000000,0.339495,0.378455,0.146566,0.020938,0.000000,227.000000,213.000000,14.000000,2.000000,0.000000,0.000000:
// measure 0
0000
0000
0000
0000
,  // measure 1
0000
0000
0000
0000
,  // measure 2
0000
0000
0000
0000
,  // measure 3
0000
0000
0000
0000
,  // measure 4
0000
0000
0100
0000
0010
0100
0010
0000
,  // measure 5
0100
0010
0100
0000
0100
0000
0001
0000
,  // measure 6
1000
0010
0100
0000
0001
0001
1000
0000
,  // measure 7
1000
0000
0001
0000
0100
0010
0100
0000
,  // measure 8
0001
0000
1000
0000
0001
1000
0001
0000
,  // measure 9
1000
0000
0001
0000
0100
0010
0100
0000
,  // measure 10
0001
0100
0001
0000
1000
0000
1000
0000
,  // measure 11
0100
0100
0010
0010
,  // measure 12
0001
1001
1001
1001
,  // measure 13
1000
0100
0000
0010
,  // measure 14
0001
0101
0000
0010
,  // measure 15
0100
0001
0000
1000
,  // measure 16
0000
0110
1001
0110
,  // measure 17
0100
0010
0000
1000
,  // measure 18
0001
1001
0000
1000
,  // measure 19
0000
0010
0000
0100
,  // measure 20
0010
0100
0001
1000
,  // measure 21
0001
0100
0001
0100
,  // measure 22
0100
0020
0000
1000
,  // measure 23
0030
1000
0000
0001
,  // measure 24
0000
0100
0001
0100
,  // measure 25
0010
1000
0010
1000
,  // measure 26
0001
0200
0000
0001
,  // measure 27
0300
0001
0000
1000
,  // measure 28
0000
1001
1001
1001
,  // measure 29
0000
0010
0000
0100
,  // measure 30
0000
0000
0010
0100
0010
0000
0100
0000
,  // measure 31
0001
0000
1000
0000
0001
1000
0001
0000
,  // measure 32
0100
0010
0100
0010
,  // measure 33
0100
0010
0100
0000
0000
0000
0001
0000
,  // measure 34
1000
0000
0001
0100
0001
0000
0001
0100
,  // measure 35
0001
1000
0100
1000
,  // measure 36
0001
0101
0000
0010
,  // measure 37
0100
0000
0010
0100
0010
0000
0100
0000
,  // measure 38
0000
0000
0110
0000
0001
0010
0100
0000
,  // measure 39
1000
1000
0001
0001
,  // measure 40
1000
0010
0100
0001
,  // measure 41
0001
0000
1000
0000
0000
0000
0001
1000
,  // measure 42
0010
0100
0010
0100
,  // measure 43
0000
0010
0100
0010
,  // measure 44
0000
0100
0000
0010
,  // measure 45
0000
0100
0100
0010
,  // measure 46
0000
0000
0100
0000
0010
0100
0010
0000
,  // measure 47
0100
0001
1000
1100
,  // measure 48
0000
0001
0100
0010
,  // measure 49
1000
0000
0001
0000
0000
0000
1000
0001
,  // measure 50
0010
0001
0001
1000
,  // measure 51
0000
1000
1000
0001
,  // measure 52
0000
0100
0000
0010
,  // measure 53
0000
0100
0100
0100
,  // measure 54
0100
0010
0010
0010
,  // measure 55
0010
1000
1000
0001
,  // measure 56
0001
1000
1000
0010
,  // measure 57
0100
0000
0001
0000
0100
0001
0100
0000
,  // measure 58
0010
0100
0010
0000
0100
0000
0001
0000
,  // measure 59
1000
0000
0001
0000
1000
0001
1000
0000
,  // measure 60
0001
0100
0001
0000
0000
0000
0000
0000
;

//---------------dance-single - ----------------
#NOTES:
     dance-single:
     :
     Hard:
     12:
     0.610194,0.630758,0.083752,0.177973,0.130863,408.000000,400.000000,8.000000,17.000000,0.000000,0.000000,0.610194,0.630758,0.083752,0.177973,0.130863,408.000000,400.000000,8.000000,17.000000,0.000000,0.000000:
0000
0000
0000
0000
,
0000
0000
0000
0000
,
0000
0000
0000
0000
0100
0000
0000
0100
,
0000
0000
0100
0000
0000
0100
0000
0000
,
0100
0000
0001
1000
0001
0100
0010
0001
,
0010
0100
0001
1000
0100
0010
0001
1000
,
0001
0100
0010
0100
0001
1000
0010
0001
,
0010
1000
0100
0010
0100
0010
0001
0100
,
0010
0100
0001
0001
1000
1000
0001
0010
,
0100
0100
0010
0001
0100
0100
0001
0010
,
0001
1000
0100
1000
0100
0010
0001
0010
,
0001
1000
0100
0010
0001
0100
0001
1000
,
0001
0000
0100
0000
0101
0000
0000
0000
0110
0000
0000
0100
0001
0000
0000
0100
,
0001
0000
0000
1000
0010
0000
0000
0000
0100
0000
0001
0100
0002
0000
0000
0000
,
2003
0000
3100
1000
0020
0000
0100
0000
,
0130
0001
0020
0000
0001
0000
0130
1000
,
0001
0000
1000
0100
0010
0000
0001
0100
,
0010
0000
0000
0000
1000
0000
0000
0000
0001
0000
0100
0001
0200
0000
0000
0000
,
0301
0000
1000
0001
2000
0000
0000
0000
3001
0000
0000
0000
0100
0000
0000
0000
,
0010
0000
0000
0000
2000
0000
0000
0000
0001
0000
0000
0000
3001
0000
0000
0100
,
0010
0000
0100
0001
0100
0001
1000
0001
,
0010
0100
0010
0001
1000
0010
0100
0001
,
1000
1000
0002
1000
1003
0100
0100
0010
,
0010
0001
1000
0001
0100
0010
0100
0010
,
0100
0001
1000
0100
1000
0100
0001
0100
,
0001
0100
1000
0010
1000
0010
0001
0010
,
0001
1000
0001
0010
0100
1000
0100
0010
,
0010
0100
0001
1000
0001
0100
0010
0100
,
0001
0000
1000
0000
1001
0000
0000
0010
0100
0000
0000
0001
1000
0000
0000
0100
,
0010
0000
0000
0001
0100
0000
0000
0000
0010
0000
0100
0001
0200
0000
0000
0000
,
0302
0000
0103
0001
0200
0000
0010
0000
,
0301
1000
0020
0000
1000
0000
0031
0010
,
1000
0000
0100
0001
0010
0000
0001
0100
,
0010
0000
0000
0000
1001
0000
0000
0000
0001
0000
0100
0010
0200
0000
0000
0000
,
0301
0000
1000
0100
0002
0000
0103
1000
,
0010
0001
1000
0100
0010
0001
1000
0000
,
0100
0000
0001
0100
0001
0000
0000
0000
1000
0000
0001
0000
1000
0000
0001
0000
,
0100
0000
0000
0000
0001
0000
0010
0000
0001
0000
0100
0001
0100
0000
0000
0000
,
0001
0100
0101
0000
1000
0010
0100
0000
,
0001
1000
0010
0000
0100
0001
1000
0001
,
0100
0000
0001
0100
0001
1000
0001
0000
,
0100
0001
1000
0001
0100
0000
0020
0100
,
0130
0000
0000
0000
0100
0000
0001
0100
0001
0000
0100
0000
0001
0000
0100
0000
,
0001
0000
0100
0001
0100
0000
0001
0000
1000
0000
0100
0000
0010
0000
0001
0010
,
0001
1000
0100
0010
0002
0000
0000
0000
,
1003
0000
0000
0000
1000
0000
0000
0000
0001
0000
0000
0000
0001
0000
0000
1000
,
0001
0000
0110
0000
0100
1000
0001
0000
,
0010
0001
1000
0000
0010
0100
0010
0000
,
0010
1000
0001
0010
0100
0000
0100
0010
,
0001
0001
0100
0000
0100
0001
1000
0001
,
0100
0000
0000
0000
0010
0000
0100
0010
0100
0000
0010
0000
0100
0000
0010
0000
,
0100
0000
0010
0100
0010
0000
0100
0000
0010
0000
0100
0010
0100
0000
0010
0100
,
0010
0200
0001
0001
,
0301
0000
1000
0000
0001
0000
0100
0000
0010
0000
1000
0000
0001
0000
0000
0100
,
0001
0000
0100
0010
0110
0000
0001
1000
,
0001
0000
0000
0000
1000
0000
0001
0000
1000
0000
0001
1000
0001
0000
1000
0000
,
0001
0100
0101
0001
1000
0001
0100
0010
,
0100
0001
1000
0000
0100
0001
0100
0001
,
0100
1000
0001
0000
0100
0010
0010
0100
,
0100
0001
1000
0001
1000
0001
0001
1000
,
1000
0010
0000
0000
;
