#VERSION:0.83;
#TITLE:Texas no gunman;
#SUBTITLE:;
#ARTIST:Sludgy Hawks with N;
#TITLETRANSLIT:;
#SUBTITLETRANSLIT:;
#ARTISTTRANSLIT:;
#GENRE:WESTERN;
#ORIGIN:;
#CREDIT:from pop n music 10;
#BANNER:Sludgy Hawks with N - Texas no gunman.png;
#BACKGROUND:;
#PREVIEWVID:;
#JACKET:;
#CDIMAGE:;
#DISCIMAGE:;
#LYRICSPATH:;
#CDTITLE:Popn_music_10_logo_small.png;
#MUSIC:Sludgy Hawks with N - Texas no gunman.ogg;
#OFFSET:-0.245000;
#SAMPLESTART:18.650999;
#SAMPLELENGTH:16.100000;
#SELECTABLE:YES;
#BPMS:0.000=140.000;
#STOPS:;
#DELAYS:;
#WARPS:;
#TIMESIGNATURES:0.000=4=4;
#TICKCOUNTS:0.000=4;
#COMBOS:0.000=1;
#SPEEDS:0.000=1.000=0.000=0;
#SCROLLS:0.000=1.000;
#FAKES:;
#LABELS:0.000=Song Start;
#BGCHANGES:;
#KEYSOUNDS:;
#ATTACKS:
;

//---------------dance-single - ----------------
#NOTEDATA:;
#CHARTNAME:;
#STEPSTYPE:dance-single;
#DESCRIPTION:;
#CHARTSTYLE:;
#DIFFICULTY:Beginner;
#METER:3;
#RADARVALUES:0.150944,0.196035,0.039134,0.009783,0.000000,108.000000,104.000000,4.000000,1.000000,0.000000,0.000000,0.000000,0.000000,0.000000,0.150944,0.196035,0.039134,0.009783,0.000000,108.000000,104.000000,4.000000,1.000000,0.000000,0.000000,0.000000,0.000000,0.000000;
#CREDIT:;
#NOTES:
0000
0000
0000
0000
,
0000
0000
0000
0000
,
0000
0000
0000
1000
,
0000
0000
1000
1000
,
0000
0000
0001
0001
,
0000
0000
0100
0100
,
0000
0000
0001
0001
,
0000
0000
0100
0100
,
0000
0000
0100
0100
,
0000
0000
0000
0001
,
0000
1000
0000
0001
,
0001
0001
0000
1000
,
1000
1000
0000
0001
,
1000
0001
0000
1000
,
0001
1000
0000
0010
,
0100
0010
0000
0100
,
0010
0100
0000
0001
,
0000
1000
0000
0001
,
0000
1000
0000
0010
,
0000
1000
0000
0001
,
0000
1000
0000
0010
,
0000
1000
0000
0001
,
0000
0000
0000
0200
,
0000
0300
0000
0001
,
0000
0000
1000
0001
,
1000
0000
0000
0001
,
0000
0000
0000
0010
,
0000
0001
0000
0010
,
0000
0000
0100
0010
,
0100
0000
0000
0001
,
0000
0010
0000
0001
,
0000
0000
0000
1000
,
0000
0100
0000
1000
,
0000
0010
0000
1000
,
0000
0100
0000
1000
,
0000
0010
0000
0110
,
0000
0000
0000
0110
,
0000
0000
0000
0001
,
0000
0000
0000
1000
,
0000
0000
0000
0001
,
0000
0000
0000
0100
,
0000
0000
0000
0001
,
0000
0000
0000
0010
,
0000
0010
0000
0010
,
0000
0000
0000
0110
,
0000
0000
0000
1001
,
0000
0000
0001
0001
,
0000
0000
1000
1000
,
0000
0000
0000
0001
,
0010
0001
0000
1000
,
0010
1000
0000
0010
,
0000
0100
0000
0001
,
0000
1000
0000
0001
,
0000
0100
0000
0010
,
0000
0100
0000
0010
,
0000
0100
0000
0001
,
0000
0100
0001
0100
,
0000
0001
0000
0000
;

//---------------dance-single - ----------------
#NOTEDATA:;
#CHARTNAME:;
#STEPSTYPE:dance-single;
#DESCRIPTION:;
#CHARTSTYLE:;
#DIFFICULTY:Easy;
#METER:7;
#RADARVALUES:0.335431,0.336793,0.146751,0.117401,0.000000,240.000000,225.000000,15.000000,12.000000,0.000000,0.000000,0.000000,0.000000,0.000000,0.335431,0.336793,0.146751,0.117401,0.000000,240.000000,225.000000,15.000000,12.000000,0.000000,0.000000,0.000000,0.000000,0.000000;
#CREDIT:;
#NOTES:
0000
0000
0000
0000
,
0000
0000
0000
0000
,
0000
0000
0000
0000
0000
0000
1000
0010
,
0000
0100
0000
0010
1000
0000
0001
0000
,
0100
0010
0000
0100
0010
0000
0101
0000
,
0000
1000
0000
0010
0100
0000
0010
0000
,
1000
0001
0000
0001
1000
0000
0001
0000
,
0000
0011
0000
0000
0101
0000
0100
0000
,
0010
0100
0000
0100
0010
0000
0100
0000
,
0001
1000
0010
0100
,
0001
1001
0100
0101
,
0001
0000
0001
0000
1000
0001
1000
0000
,
1000
0000
1000
0000
0001
1000
0001
0000
,
0001
0000
0100
0000
0010
0100
0010
0000
,
0100
0010
0100
0010
,
0100
0010
0100
0000
0100
0000
0100
0000
,
0010
0100
0010
0000
0010
0000
0010
0000
,
1000
0010
1000
0000
1000
0000
0001
0000
,
0001
0100
0001
0000
0000
0000
0220
0000
,
0330
1000
0001
2002
,
3003
1000
0001
2000
,
3000
0010
0100
0001
,
0100
0010
0100
0020
,
0000
0130
0000
0001
,
0100
0010
0000
0000
1000
0001
1000
0000
,
0001
0010
0000
0000
0001
0000
0011
0000
,
1000
0000
0010
0000
0100
0010
0100
0000
,
0010
0000
0010
0000
0010
0100
0010
0000
,
0100
0010
0000
0000
0110
0000
0110
0000
,
0100
0001
0000
0000
0100
0000
0002
0000
,
0003
2000
3000
0002
,
0003
0200
0300
0010
,
1000
0001
0100
0010
,
1000
0001
0100
1001
,
0000
0100
0000
0010
,
0100
0010
0100
0000
0100
0000
0110
0000
,
0000
0010
0000
0000
0010
0000
0100
0000
,
0001
0100
0000
0100
0001
0000
0001
0000
,
1000
0100
0000
0100
1000
0000
0001
0000
,
0100
0010
0000
0010
0100
0000
0001
0000
,
0000
0100
0000
0000
0010
0000
0100
0000
,
0000
0001
0000
0000
1000
0000
0001
0000
,
1000
0001
0000
1000
0001
0000
0100
0000
,
0001
0010
0100
2000
,
3000
0001
0000
0000
0001
0000
0011
0000
,
0000
1000
0000
0000
1000
0000
1100
0000
,
0000
0100
0000
0000
0010
0000
0001
0000
,
0000
0100
0000
0000
0010
0000
1000
0000
,
0100
0000
1000
0000
0100
0010
0001
0000
,
0010
0000
0001
0000
0010
0100
1000
0000
,
0010
0000
1010
0000
1000
0010
1000
0000
,
0010
0000
0100
0000
0001
0010
0001
0000
,
0100
0000
1000
0000
0100
0001
1000
0000
,
0000
0000
0001
0000
0100
0001
0010
0000
,
0001
0000
0010
0000
0100
1000
0010
0000
,
0100
0000
0010
0000
1000
0010
0100
0000
,
0000
0000
0100
0000
0001
0100
0001
0000
,
0001
0000
0002
0003
0000
0000
0000
0000
;

//---------------dance-single - ----------------
#NOTEDATA:;
#CHARTNAME:;
#STEPSTYPE:dance-single;
#DESCRIPTION:;
#CHARTSTYLE:;
#DIFFICULTY:Medium;
#METER:10;
#RADARVALUES:0.468205,0.449058,0.146751,0.215235,0.107617,335.000000,320.000000,15.000000,22.000000,0.000000,0.000000,0.000000,0.000000,0.000000,0.468205,0.449058,0.146751,0.215235,0.107617,335.000000,320.000000,15.000000,22.000000,0.000000,0.000000,0.000000,0.000000,0.000000;
#CREDIT:;
#NOTES:
0000
0000
0000
0000
,
0000
0000
0000
0000
,
0000
0000
0000
0000
0000
0000
1000
0100
,
0010
0100
0000
0010
0001
0010
0011
0000
,
0100
0000
0010
0000
0200
0000
0300
0010
0000
0000
0010
0000
0200
0000
0300
0000
,
0001
1000
0000
0010
0100
0001
0011
0000
,
1000
0000
0010
0000
0000
0000
0020
0000
0030
2000
0000
3000
0002
0000
0000
0000
,
0003
0000
1000
0000
0000
0000
0002
0000
0003
0200
0000
0300
0001
0000
0000
0000
,
0010
0000
0100
0000
0000
0000
0020
0000
0030
0002
0000
0003
0100
0000
0000
0000
,
0001
0010
1000
0000
0010
0001
1000
0000
,
0001
0100
1000
0000
0001
0010
1000
0000
,
0001
0000
0010
0000
0001
0000
0000
1000
0001
0000
1000
0000
0001
0000
0000
0000
,
1000
0000
0010
0000
1000
0000
0000
0001
0000
0000
0010
0000
0001
0000
0000
0000
,
0100
0000
0010
0000
0100
0000
0000
0010
0100
0000
0001
0000
1000
0000
0000
0000
,
0100
0010
0010
0000
0001
0010
0010
0000
,
0100
0000
1000
0000
0100
0000
0000
1000
0001
0000
1000
0000
0100
0000
0000
0000
,
0010
0000
0001
0000
1000
0000
0000
0001
0000
0000
0010
0000
0001
0000
0000
0000
,
0100
0000
0001
0000
0010
0000
0000
0001
1000
0000
0001
0000
0001
0000
0000
0000
,
1000
0000
1000
0000
0100
0000
0000
0010
0100
0000
0000
0000
0220
0000
0000
0000
,
0330
0000
0000
0000
0001
0000
0000
0001
1000
0000
0001
0000
1000
0000
0010
0000
,
1000
0000
0000
0000
0010
0000
0000
0100
0001
0000
0100
0000
0010
0000
1000
0000
,
0001
0000
0000
0000
1000
0000
0000
0001
0000
0000
0100
0000
0001
0000
0010
0000
,
0001
0100
0010
0000
0100
0010
0200
0000
,
0310
0100
0010
0000
0010
0100
0010
0000
,
0100
0110
0000
0010
1000
0001
1000
0000
,
0001
0011
0000
0010
0001
0000
1000
0000
,
1000
0010
0010
0000
0100
0001
0100
0000
,
0010
1000
0010
0100
0010
0100
0010
0000
,
0100
0110
0000
0010
0100
0001
0100
0000
,
0001
0101
0000
0001
0100
0000
0010
1000
,
0010
0100
0020
0000
1030
0100
0010
0100
,
1000
0010
2000
0000
3001
0100
0010
0000
,
0001
0000
0010
0000
0001
0000
0000
0010
0000
0000
0010
0000
0200
0000
0300
0001
,
0000
0100
0002
0003
0100
0000
1000
0001
,
1000
0000
0100
0001
0100
0000
1000
0001
,
1000
0000
0010
0100
0010
0000
0110
0000
,
0000
0010
0000
0100
0010
0000
0100
0001
,
0001
0000
0100
0000
0001
0000
0000
0100
0001
0000
0100
0000
0001
0000
1000
0000
,
0200
0300
0000
0100
1000
0010
0110
0000
,
0100
0010
0000
0010
0100
0000
0002
0003
,
0000
0010
0000
0100
1000
1000
0100
0000
,
0010
0001
0000
0010
0001
0100
0001
0000
,
1000
0010
0010
1000
0001
0100
0100
0000
,
0001
0000
0010
0000
0000
0000
0100
0000
0000
0010
0000
0001
2000
0000
0000
0000
,
3000
0000
0001
0000
0000
0000
1000
0000
0000
0001
0000
1000
0002
0000
0000
0000
,
0003
0000
1000
0000
0000
0000
0001
0000
0000
0100
0000
0000
0220
0000
0000
0000
,
0330
0100
0000
0000
0010
0100
0110
0000
,
0100
0010
0100
0000
0010
0100
1000
0100
,
0010
0000
0001
0000
0100
0001
0100
0000
,
0010
0000
0011
0000
0010
0001
1000
0000
,
0010
0100
0010
0000
1000
0010
0100
0000
,
0001
0000
0011
0000
0001
1000
0001
0000
,
0100
0010
1000
0000
0100
0010
0001
0000
,
1000
0000
1001
0000
0001
0100
0010
0000
,
0100
0001
0010
0000
0001
1000
0001
0000
,
0100
0000
0110
0000
1000
0010
0100
0000
,
0001
0010
0100
0000
0010
0100
1000
0000
,
0001
0000
0001
0010
0000
0000
0000
0000
;

//---------------dance-single - ----------------
#NOTEDATA:;
#CHARTNAME:;
#STEPSTYPE:dance-single;
#DESCRIPTION:;
#CHARTSTYLE:;
#DIFFICULTY:Hard;
#METER:14;
#RADARVALUES:0.743538,0.786707,0.244585,0.156534,0.631029,532.000000,507.000000,25.000000,16.000000,0.000000,0.000000,0.000000,0.000000,0.000000,0.743538,0.786707,0.244585,0.156534,0.631029,532.000000,507.000000,25.000000,16.000000,0.000000,0.000000,0.000000,0.000000,0.000000;
#CREDIT:;
#NOTES:
// measure 0
0000
0000
0000
0000
,  // measure 1
0000
0000
0000
0000
,  // measure 2
0000
0000
0000
0000
0000
0000
0000
0000
0000
0000
0000
0000
1000
0100
0010
0100
,  // measure 3
2000
0100
0000
3100
0100
0010
0011
0000
,  // measure 4
0100
0000
0001
0000
0100
0000
0000
0010
0000
0000
0100
0000
0010
0100
0010
0100
,  // measure 5
0002
1000
0000
1003
0100
0010
0110
0000
,  // measure 6
0001
0000
0010
0000
0000
0000
0020
0000
0031
0010
0000
0010
0002
0000
0000
0000
,  // measure 7
0003
0000
1000
0000
0100
0000
0020
0000
0031
0100
0000
0100
0010
0000
0000
0000
,  // measure 8
0001
0000
0100
0000
0010
0000
0200
0000
0300
0002
0000
0003
0100
0001
0100
0000
,  // measure 9
0001
0000
0010
0000
0100
0000
0010
0000
0001
0000
1000
0000
1000
0100
0010
0000
,  // measure 10
0001
0000
0100
0000
0001
0000
0100
0001
0100
0001
1000
0010
1000
0000
0000
0000
,  // measure 11
0001
0000
0010
0000
0001
0000
0000
1000
0001
0000
1000
0000
0001
0000
0000
0000
,  // measure 12
1000
0000
0010
0000
0100
0000
0000
0001
0000
0000
0010
0000
0001
0010
0001
0000
,  // measure 13
0100
0000
0010
0000
0100
0000
0000
0010
0100
0000
0001
0000
0101
0000
0000
0000
,  // measure 14
0100
0010
0100
0010
0100
0000
0000
0000
0001
0010
0100
0000
0010
0000
0001
0000
,  // measure 15
0100
0000
1000
0000
0100
0000
0001
1000
0001
0000
1000
0000
0100
0000
0010
0000
,  // measure 16
0001
0000
0001
0000
1000
0000
0010
0000
0100
0000
0010
0000
1000
0100
0010
0000
,  // measure 17
0100
0000
1000
0000
1001
0000
0000
0001
1000
0000
0001
0100
0001
0000
0000
0000
,  // measure 18
1000
0000
0010
0100
0010
0000
0000
0010
0100
0000
0010
0000
0200
0000
0000
0000
,  // measure 19
0310
0000
0010
0000
0001
0000
0000
0001
1000
0000
0001
0000
1000
0010
1000
0010
,  // measure 20
1000
0000
0000
0000
0001
0000
0000
0100
0001
0000
0100
0010
0100
0000
0001
0000
,  // measure 21
0100
0000
0010
0000
1000
0000
0000
0001
0000
0000
0100
0000
0001
0010
0100
0000
,  // measure 22
0010
0000
0100
0000
0010
0000
0001
0000
1000
0001
1000
0000
0100
0010
0002
0000
,  // measure 23
0010
0000
0013
0000
0010
0000
0001
0010
0001
0010
0001
0010
0001
0000
0100
0001
,  // measure 24
0100
0000
0110
0000
0010
0100
0010
0000
1000
0100
0010
0100
1000
0000
0001
1000
,  // measure 25
0001
0000
1001
0000
0010
0100
0010
0000
0100
0000
0010
0100
0010
0000
0100
0010
,  // measure 26
1000
0000
0010
0000
0010
0000
0000
0000
0100
0001
0010
0001
0100
0000
0000
0000
,  // measure 27
0010
0000
1000
0100
0010
0000
0000
0000
0010
0100
0010
0100
0010
0000
0001
0100
,  // measure 28
0001
0000
0101
0000
0010
1000
0100
0000
0010
0001
0010
0001
0100
0000
0010
0100
,  // measure 29
0010
0000
0110
0000
0010
1000
0001
0000
0100
0010
0100
0001
0010
0000
1000
0000
,  // measure 30
0010
0000
0100
0000
0001
0000
0100
0000
1000
0100
0010
0100
0010
0000
0001
0000
,  // measure 31
1000
0100
0010
0100
0010
0000
0100
0000
0001
0000
0100
0010
0001
0000
0100
0000
,  // measure 32
0001
0000
0010
0000
0001
0000
0001
0010
0000
0010
0001
0000
0101
0000
0100
0001
,  // measure 33
0000
0001
0100
0000
0202
0000
0303
0000
0100
0000
0010
0000
1000
0100
0010
0100
,  // measure 34
1000
0000
0000
0000
0100
0000
0010
0000
0100
0000
1000
0000
0001
0100
0001
0100
,  // measure 35
0001
0000
0100
0010
0100
0000
0010
0100
0010
0100
0010
0000
0110
0000
0100
0000
,  // measure 36
0000
0000
0010
0000
0100
0000
0100
0000
0010
0000
1000
0010
0100
0000
0001
0000
,  // measure 37
0010
0000
0100
0000
0002
0000
0003
0100
0010
0000
0001
0000
1000
0001
1000
0010
,  // measure 38
2000
0000
0100
0000
3000
0000
0100
0000
1000
0000
0010
0100
0010
0000
0000
0000
,  // measure 39
0100
0000
0010
0000
0100
0010
0100
0000
0001
0010
0000
0001
0020
0000
0000
0000
,  // measure 40
0030
0000
0100
0000
0000
0000
1000
0000
0010
1000
0000
0010
0200
0000
0000
0000
,  // measure 41
0310
0000
0100
0000
0001
0000
0010
0000
0001
0000
0100
0000
0001
1000
0010
1000
,  // measure 42
0010
0000
0100
0000
0000
0000
0100
0000
0001
0000
0100
0000
0001
0100
0001
0000
,  // measure 43
0100
0000
0010
0000
0010
0000
0110
0000
0000
1010
0000
0010
2000
0000
0000
0000
,  // measure 44
3000
0000
0001
0000
0000
0000
1001
0000
0000
0101
0000
0000
1001
0000
0000
0000
,  // measure 45
0001
0000
1000
0000
0100
0000
0001
0000
0100
0000
1000
0000
0010
1000
0010
1000
,  // measure 46
0010
0000
0100
0000
0000
0000
0001
0000
0011
0000
0100
0000
0010
0100
0010
0100
,  // measure 47
0010
0000
0110
0000
0000
0000
0001
1000
0001
1000
0010
0000
1000
0000
0100
0010
,  // measure 48
0001
0000
0010
0001
1000
0000
1000
0001
0010
0000
0001
0000
0101
0000
0001
0100
,  // measure 49
0010
0000
1000
0100
1000
0000
0100
1000
0100
0000
0010
0000
1001
0000
0100
0001
,  // measure 50
0010
0000
0100
1000
0100
0000
1000
0100
1000
0000
0010
0000
0101
0000
0001
0010
,  // measure 51
0100
0000
0010
0001
0010
0000
0001
0010
0001
0000
1000
0000
1001
0000
0001
1000
,  // measure 52
0010
0000
0100
0010
0100
0000
0010
0100
0010
0000
0100
0000
0110
0000
0010
1000
,  // measure 53
0001
0000
1000
0010
1000
0000
0010
1000
0010
0000
0100
0000
0010
0000
0100
0001
,  // measure 54
0010
0000
0001
1000
0001
0000
1000
0001
1000
0000
0001
0000
0101
0000
0100
0001
,  // measure 55
1000
0000
0010
0100
0010
0000
0100
0010
0100
0000
0001
0000
0101
0000
0100
0001
,  // measure 56
1000
0000
0010
0100
0010
0000
0100
0010
0100
0000
0001
0000
1000
0000
0001
0010
,  // measure 57
0100
0000
0000
0000
0010
0001
0010
0001
0000
0000
0000
0000
0000
0000
0000
0000
;
