#VERSION:0.83;
#TITLE:Tettoutetsubi Thrive at Perfect Fourth;
#SUBTITLE:;
#ARTIST:DTO vs PON shouri no houteishiki;
#TITLETRANSLIT:;
#SUBTITLETRANSLIT:;
#ARTISTTRANSLIT:;
#GENRE:;
#ORIGIN:;
#CREDIT:from pop n music 22 Lapistoria;
#BANNER:LT_Tettoutetsubi_Thrive_at_Perfect_Fourth.png;
#BACKGROUND:;
#PREVIEWVID:;
#JACKET:;
#CDIMAGE:;
#DISCIMAGE:;
#LYRICSPATH:;
#CDTITLE:;
#MUSIC:Tettoutetsubi_Thrive_at_Perfect_Fourth.ogg;
#OFFSET:-0.155000;
#SAMPLESTART:61.998001;
#SAMPLELENGTH:17.000000;
#SELECTABLE:YES;
#BPMS:0.000=178.506;
#STOPS:;
#DELAYS:;
#WARPS:;
#TIMESIGNATURES:0.000=4=4;
#TICKCOUNTS:0.000=4;
#COMBOS:0.000=1;
#SPEEDS:0.000=1.000=0.000=0;
#SCROLLS:0.000=1.000;
#FAKES:;
#LABELS:0.000=Song Start;
#BGCHANGES:;
#KEYSOUNDS:;
#ATTACKS:
;

//---------------dance-single - ----------------
#NOTEDATA:;
#CHARTNAME:;
#STEPSTYPE:dance-single;
#DESCRIPTION:;
#CHARTSTYLE:;
#DIFFICULTY:Beginner;
#METER:4;
#RADARVALUES:0.178681,0.252435,0.136945,0.082167,0.000000,137.000000,122.000000,15.000000,9.000000,0.000000,0.000000,0.000000,0.000000,0.000000,0.178681,0.252435,0.136945,0.082167,0.000000,137.000000,122.000000,15.000000,9.000000,0.000000,0.000000,0.000000,0.000000,0.000000;
#CREDIT:;
#NOTES:
0000
0000
0000
0000
,
0000
0000
0000
0000
,
0000
0000
0000
0000
,
0001
0000
0000
0000
,
1001
0000
0000
0000
,
1000
0000
0000
0000
,
0101
0000
0000
0000
,
0001
0000
0000
0000
,
0011
0000
0000
0000
,
1000
0000
0000
0000
,
1010
0000
0000
0000
,
0100
0000
0000
0000
,
0010
0000
0000
0000
,
0100
0000
0000
0000
,
0001
0000
0000
0000
,
1001
0000
0000
0000
,
1000
0000
0000
0000
,
0001
0000
0000
0000
,
0100
0000
0100
0000
,
0100
0000
0000
0000
,
0110
0000
0000
0000
,
0010
0000
0010
0000
,
0010
0000
0000
0000
,
0011
0000
0000
0000
,
0100
0000
0100
0000
,
0010
0000
0000
0000
,
1100
0000
0000
0000
,
0002
0000
0000
0000
,
0203
0000
0000
0000
,
0310
0000
0000
0000
,
1000
0000
0001
0000
,
1000
0000
0010
0000
,
2000
0000
3000
0000
,
0001
0000
0010
0000
,
0001
0000
0100
0000
,
0001
0000
0100
0000
,
0010
0000
0100
0000
,
0020
0000
0030
0000
,
0100
0000
0000
0000
,
0110
0000
0000
0000
,
0100
0000
0010
0000
,
0100
0000
0001
0000
,
1000
0000
0010
0000
,
1000
0000
0001
0000
,
1000
0000
0001
0000
,
0001
0000
0000
0000
,
0110
0000
0100
0000
,
0010
0000
0010
0000
,
1001
0000
1000
0000
,
0001
0000
0001
0000
,
1100
0000
0001
0000
,
1100
0000
0001
0000
,
0100
0000
0010
0000
,
0100
0000
0001
0000
,
2000
0000
0000
0000
,
3001
0000
0001
0000
,
0001
0000
1000
0000
,
1001
0000
0000
0000
,
0001
0000
0100
0000
,
0001
0000
0100
0000
,
0010
0000
1000
0000
,
0010
0000
0100
0000
,
0002
0000
0003
0000
,
2000
0000
3000
0000
,
0002
0000
0003
0000
,
0100
0000
0100
0000
,
0110
0000
0010
0000
,
0010
0000
1000
0000
,
0001
0000
1000
0000
,
0002
0000
0000
0000
,
0103
0000
0000
0000
,
0100
0100
0100
0100
,
0100
0000
0001
0000
,
1000
1000
1000
1000
,
1000
0000
0001
0000
,
0100
0000
0010
0000
,
1000
0000
0001
0000
,
0001
1000
0001
1000
,
0001
0000
0000
0000
,
0100
0000
0000
0000
;

//---------------dance-single - ----------------
#NOTEDATA:;
#CHARTNAME:;
#STEPSTYPE:dance-single;
#DESCRIPTION:;
#CHARTSTYLE:;
#DIFFICULTY:Easy;
#METER:7;
#RADARVALUES:0.310409,0.356057,0.191723,0.283020,0.000000,238.000000,217.000000,21.000000,31.000000,0.000000,0.000000,0.000000,0.000000,0.000000,0.310409,0.356057,0.191723,0.283020,0.000000,238.000000,217.000000,21.000000,31.000000,0.000000,0.000000,0.000000,0.000000,0.000000;
#CREDIT:;
#NOTES:
0000
0000
0000
0000
,
0000
0000
0000
0000
,
0000
0000
0000
0000
,
0100
0001
0000
0001
,
1000
0010
0000
0010
,
1000
0100
0000
0100
,
1000
0001
0100
0100
,
0020
0030
0100
0000
,
0001
0000
1000
0000
0000
1000
0001
0000
,
0001
0000
0100
0000
0000
0010
0100
0000
,
0010
0000
0000
0100
0000
0000
0001
0000
,
0000
1000
0000
0001
,
0100
0000
0001
0000
0000
0100
0001
0000
,
0100
0000
0001
0000
0000
1000
0001
0000
,
1000
0000
0000
0100
0000
0000
0010
0000
,
0000
0001
0000
1000
,
0010
0100
0001
1000
,
0001
0010
0100
1000
,
0001
0000
0000
0001
0000
0000
0001
0000
,
0000
1000
0010
0100
,
0001
1000
0010
0100
,
0001
1000
0100
0010
,
0001
1000
0100
0010
,
0001
0000
2001
0000
,
3002
0000
0103
0000
,
0110
0010
0100
0000
,
0110
0100
0001
0000
,
1001
0000
1000
0001
,
1000
0001
1000
1000
,
1000
0001
0100
0001
,
0200
0000
0320
0000
,
1030
0001
1000
0001
,
0100
0000
0010
0100
,
0020
0000
1030
0001
,
2000
0000
3001
0100
,
0000
0000
0200
0000
,
0010
0000
0010
0000
,
0320
0000
0130
0000
,
0010
0000
1000
0000
,
0001
0000
1000
0001
,
0100
0000
0001
0000
,
2002
0000
3003
0000
,
0020
0000
0130
0000
,
0002
0000
1003
0000
,
2000
0000
3010
0000
,
0100
0000
0000
0000
,
0100
0010
0100
0010
,
0220
0330
1000
0001
,
0011
0001
1000
0000
,
2002
3003
0001
0100
,
0020
0000
0130
0100
,
0100
0000
0220
0330
,
1001
0000
1100
0000
,
2000
3000
0002
0003
,
0202
0000
0303
0000
,
0100
0010
0100
0000
,
0010
0000
1001
0001
,
0001
0000
1100
0000
,
1000
0010
0100
0010
,
2000
0000
3001
0100
,
0101
0000
1010
0000
,
0100
0001
0100
0001
,
0100
0000
0000
0000
0010
0000
0000
0100
,
0000
0010
0000
0100
0000
0010
0000
0000
,
1001
0000
0001
0000
1000
0000
0000
0001
,
0000
1000
0000
0010
0000
1000
0000
0001
,
0000
0000
0100
0000
0000
0010
0000
0100
,
0000
0001
0000
0100
0000
0100
0000
0000
,
0020
0030
1000
0001
,
0101
0000
0001
1000
,
0000
0000
1100
0000
1100
0000
0000
1000
,
0000
0001
0100
0010
,
0000
0000
0110
0000
0000
0100
0000
0010
,
0000
0100
0000
0010
0000
2000
0000
0000
,
3000
0001
0100
0001
,
0100
0010
1000
0010
,
1000
0000
0002
0003
,
0200
0300
0020
0000
,
0130
0000
0000
0000
;

//---------------dance-single - ----------------
#NOTEDATA:;
#CHARTNAME:;
#STEPSTYPE:dance-single;
#DESCRIPTION:;
#CHARTSTYLE:;
#DIFFICULTY:Medium;
#METER:10;
#RADARVALUES:0.457788,0.534086,0.255631,0.401705,0.009130,351.000000,323.000000,28.000000,44.000000,0.000000,0.000000,0.000000,0.000000,0.000000,0.457788,0.534086,0.255631,0.401705,0.009130,351.000000,323.000000,28.000000,44.000000,0.000000,0.000000,0.000000,0.000000,0.000000;
#CREDIT:;
#NOTES:
// measure 0
0000
0000
0000
0000
,  // measure 1
0000
0000
0000
0000
,  // measure 2
0000
0000
0000
0000
,  // measure 3
0110
0000
0010
0000
0000
0100
0000
0000
,  // measure 4
0010
0100
0010
0000
1000
0010
0000
0000
,  // measure 5
1001
0000
0100
0020
0030
0010
0200
0300
,  // measure 6
0002
0000
0013
0200
0000
1300
0020
0000
,  // measure 7
0130
0010
0100
0000
0000
0001
1000
0000
,  // measure 8
0001
0100
0010
1000
0000
1000
0001
0000
,  // measure 9
0010
0100
0010
0000
0000
0100
1000
0000
,  // measure 10
0011
0000
0000
0011
0000
0000
1001
0000
,  // measure 11
0100
0010
1000
0000
0000
0001
0100
0000
,  // measure 12
0010
1000
0010
0000
0000
1000
0010
0000
,  // measure 13
0100
0010
1000
0000
0000
0100
0010
0000
,  // measure 14
0001
0100
0001
0100
0000
0010
0100
0000
,  // measure 15
0110
0000
1000
0000
0000
0001
1000
0000
,  // measure 16
0010
0100
0010
0100
0000
0010
0100
0000
,  // measure 17
0001
0010
0100
0010
0000
0010
0100
0000
,  // measure 18
2000
0000
3000
0020
0000
0030
0200
0000
,  // measure 19
0301
0100
0001
0100
0000
0100
0001
0000
,  // measure 20
1000
0010
1000
0010
0000
0010
1000
0001
,  // measure 21
0100
0100
0001
0200
0000
0310
0010
0000
,  // measure 22
0010
1000
0001
0100
0100
0001
0100
0000
,  // measure 23
0001
0010
0100
0000
0001
0010
0100
1000
,  // measure 24
0001
0010
0100
0000
0001
0010
0100
1000
,  // measure 25
0001
0000
0000
0001
0000
0000
0001
0000
0000
0001
0000
0000
1000
0000
0000
0000
,  // measure 26
0020
0030
0200
0300
,  // measure 27
0020
0000
0130
0000
,  // measure 28
1002
0000
1003
1000
,  // measure 29
0020
0000
0000
0130
,  // measure 30
0002
0000
0023
0030
,  // measure 31
0100
1000
0100
0010
,  // measure 32
0002
0000
1003
0000
,  // measure 33
0200
0000
0300
0010
,  // measure 34
0002
0003
1000
0001
,  // measure 35
0000
0000
0210
0300
,  // measure 36
0020
0030
0210
0300
,  // measure 37
0020
0000
0030
0000
,  // measure 38
2010
0000
3000
0000
,  // measure 39
0102
0000
0003
0000
,  // measure 40
0210
0000
0301
0000
,  // measure 41
0110
0000
0101
0000
,  // measure 42
1010
1000
0100
0010
,  // measure 43
0100
0000
1000
0000
0010
0100
0001
0000
,  // measure 44
0010
0001
0010
0000
0100
1000
0001
0000
,  // measure 45
0000
0000
0000
0000
,  // measure 46
0110
0000
0010
0100
0020
0000
0031
0000
,  // measure 47
2000
0000
3010
0000
0100
0010
0100
0000
,  // measure 48
0220
0000
0330
0000
1000
0001
1000
0000
,  // measure 49
2200
0000
3300
0000
0001
0010
0001
0000
,  // measure 50
0220
0000
0330
0000
1000
0010
1000
0000
,  // measure 51
0022
0000
0033
0000
0010
0001
0010
0000
,  // measure 52
0100
0001
0100
0000
1000
0001
0100
0000
,  // measure 53
2000
0000
3020
0000
,  // measure 54
0130
0000
0010
1000
0001
0000
1000
0010
,  // measure 55
0100
0000
0001
0000
0010
0100
1000
0000
,  // measure 56
1000
0100
0010
0000
0001
0010
0100
0000
,  // measure 57
0010
0001
0010
0000
0001
0010
0100
0000
,  // measure 58
0010
0100
1000
0000
0002
0000
0003
0000
,  // measure 59
2000
3000
0101
0010
,  // measure 60
0110
0000
0000
0000
0100
0100
0001
0000
,  // measure 61
0100
0100
0010
0000
2000
0000
3002
0000
,  // measure 62
0003
0000
0101
0000
0001
1000
0000
0110
,  // measure 63
0000
1001
0000
0010
0000
1000
0000
0000
,  // measure 64
0000
0000
1000
0000
0100
0010
0000
0001
,  // measure 65
0000
0100
0000
0001
0000
1000
0010
0100
,  // measure 66
0001
0000
1001
0000
0001
0010
0000
0001
,  // measure 67
0000
0010
0000
0100
0000
1000
0010
0000
,  // measure 68
0010
0100
0010
0001
0010
0000
0100
0010
,  // measure 69
0100
1000
0100
0000
0010
0000
0210
0000
,  // measure 70
0300
0000
0001
0000
1000
0010
0000
0010
,  // measure 71
0000
0000
1000
0001
1000
0000
0100
0001
,  // measure 72
0100
0000
1000
0100
0010
0100
0000
0010
,  // measure 73
0000
0001
0010
1000
0000
0010
0000
0000
,  // measure 74
0001
0000
0100
0000
0110
0000
0010
0100
,  // measure 75
0010
0100
0100
0000
0010
1000
0010
1000
,  // measure 76
1000
0000
0100
0010
0100
0010
0010
0000
,  // measure 77
0100
0001
0100
0001
0001
0000
0200
0000
,  // measure 78
1300
0000
0000
0000
;

//---------------dance-single - ----------------
#NOTEDATA:;
#CHARTNAME:;
#STEPSTYPE:dance-single;
#DESCRIPTION:;
#CHARTSTYLE:;
#DIFFICULTY:Challenge;
#METER:16;
#RADARVALUES:0.820366,1.032565,0.392576,0.273890,0.502132,629.000000,586.000000,43.000000,30.000000,0.000000,0.000000,0.000000,0.000000,0.000000,0.820366,1.032565,0.392576,0.273890,0.502132,629.000000,586.000000,43.000000,30.000000,0.000000,0.000000,0.000000,0.000000,0.000000;
#CREDIT:;
#NOTES:
0000
0000
0000
0000
,
0000
0000
0000
0000
,
0000
0000
0000
0000
,
1001
0000
0000
0000
0001
0100
0001
0100
0001
0000
0010
0001
0100
0001
0010
0000
,
0101
0000
0001
0000
0100
0010
1000
0001
1000
0000
0001
0010
0100
1000
0001
0000
,
2000
0000
3001
0002
0000
0100
0203
0300
,
0201
0000
0301
1001
0000
1100
1010
0000
,
0010
0100
0010
0000
0100
0100
0001
0000
,
1000
0010
1010
0000
0100
0100
0101
0000
,
1001
1000
0100
0000
0100
0010
0011
0000
,
0022
0033
0001
0100
0000
0010
1000
0000
,
0001
0100
0001
1000
0010
1000
1010
0000
,
0100
0010
0100
0001
0001
0100
0110
0000
,
0100
0010
1000
0100
0010
0001
0011
0000
,
1000
0001
1000
0002
0003
0001
0200
0000
,
0310
0100
0001
0000
0000
1000
1100
0000
,
0100
0010
0001
1000
0000
1000
1001
0000
,
0100
0010
0110
0000
0010
0100
0010
0000
,
1000
0000
0001
0100
0001
0000
1000
0010
1000
0000
0001
0000
0100
0001
0100
0000
,
0101
0001
0001
1100
0110
0011
1001
0000
,
1000
0010
0110
0010
1000
0001
0101
0000
,
0001
0010
0100
2000
3000
0100
0010
0000
,
0001
0000
1000
0000
0010
0000
1000
0000
0001
0000
0100
0010
0100
0000
0000
0000
,
0010
0100
0010
0100
0001
0000
1000
0000
0010
0000
1000
0000
0010
0000
0100
0000
,
0001
0100
0001
0100
0001
0000
1000
0010
1000
0000
0001
0000
0100
0000
0010
0000
,
0101
0000
0100
0001
0000
0001
0100
0000
0010
1000
0000
0000
1000
0000
0100
0000
,
0010
0001
0010
0001
1000
0100
1000
0000
0001
0100
0001
0100
0001
0000
0100
0000
,
0020
0100
1000
0130
,
0002
0023
0230
0320
0032
0003
1000
0000
,
0002
0000
0000
0000
0100
0000
0103
0010
,
2000
0000
3001
0100
0002
0003
0010
0000
,
0100
1000
0100
0001
,
0010
0100
1000
0000
,
0001
0100
0001
0100
,
2000
3000
0100
0000
0001
0000
1000
0000
,
0010
0100
0100
0100
,
0001
0001
0001
1000
,
0002
0000
0000
0000
1003
0100
0010
0001
,
2000
0000
0000
0001
3001
0100
0001
0100
,
0020
0000
0000
0000
1030
0001
1000
0000
,
0002
0000
0103
0010
,
0101
0000
0001
0100
0000
0100
0010
0000
,
1000
0000
0001
0100
0000
0010
0100
0000
,
0001
0000
1001
0000
1000
0100
0010
0000
,
0001
0010
0001
0010
0001
0010
0100
1000
,
0000
0000
0000
0000
,
0100
0010
0100
0001
1000
0010
1000
0010
,
0001
0010
1000
0000
0010
0001
0010
0000
,
1000
0100
1000
0100
0010
0001
1000
0010
,
0110
0000
0000
0000
0010
0100
0010
0000
0100
0010
0100
0000
0010
0100
0010
0000
,
1000
0001
1000
0100
0010
0100
0001
0100
,
1000
0000
0000
0000
0010
0100
0010
0000
0100
0000
0010
0000
1000
0001
1000
0000
,
0001
0000
0010
0000
0100
0010
0001
0000
1000
0000
0001
0000
0100
0010
1000
0000
,
1001
0000
0000
0000
0100
0000
0000
0000
0100
0010
0100
0000
0001
1000
0001
1000
,
0001
1000
0001
0100
0001
0100
1000
0100
,
0001
0000
0100
1000
0200
0000
0320
0100
,
0130
0001
1010
0100
0001
0100
0010
1000
,
1100
0011
1100
0000
0011
0101
1010
1000
,
0001
1000
0100
0001
0100
0010
0001
1000
,
0200
0000
1300
0001
0020
0000
0031
0100
,
0020
0000
0000
0000
0130
0000
0001
0000
1000
0100
0010
0000
0001
0000
0100
0000
,
0001
0100
0001
0000
1000
0010
1000
0000
0002
0000
0000
0000
0203
0000
0000
0000
,
0310
0000
0100
0000
0010
0000
0100
0000
0001
1000
0001
1000
0001
0000
1000
0010
,
0100
0010
1000
0000
0001
0000
0100
0010
0100
0000
0010
0100
0010
1000
0010
1000
,
0010
0000
0000
0000
0100
0010
0100
0000
0001
0010
0001
0010
0001
0000
1000
0100
,
1000
0100
1000
0000
0001
0010
0001
0010
0001
1000
0100
1000
0100
0010
0001
0010
,
0001
0000
0000
0000
0011
0000
1000
0000
0001
0100
0001
0000
1000
0100
0010
0001
,
1000
0001
1000
0001
1000
0000
0001
0100
0010
0100
0001
0010
0001
1000
0010
0100
,
0001
0000
0000
0000
1001
0000
0010
0100
0010
0100
0010
0000
0110
0000
0001
0100
,
0001
0100
0001
0000
0010
0001
0010
0100
0010
0001
0010
0000
0001
0100
0010
0100
,
0010
0000
0000
0000
0110
0000
0000
0000
1000
0000
0001
0000
0100
0001
0100
0000
,
0001
0100
0010
0100
0001
0000
1000
0100
0010
0100
1000
0000
0001
0100
0001
0100
,
0010
1000
0100
1000
0100
0000
0010
0000
0100
0000
1000
0000
0101
0000
0110
0000
,
0010
0100
0010
1000
0010
0000
0100
0000
0010
0100
0001
0100
0010
1000
0100
0010
,
0001
0000
0000
0000
1100
0000
0000
0000
0100
0000
1000
0000
0001
0010
0100
1000
,
0100
0010
0100
0000
0010
0001
0010
0001
1000
0000
0001
0000
0100
0010
0100
0001
,
0100
0000
0010
0000
1000
0100
1000
0100
1000
0100
1000
0000
0001
0000
0010
0001
,
0010
0001
1000
0100
1000
0100
0010
0001
0010
0100
0010
0001
0010
0001
1000
0100
,
0010
0000
0000
0000
;

//---------------dance-single - ----------------
#NOTEDATA:;
#CHARTNAME:;
#STEPSTYPE:dance-single;
#DESCRIPTION:;
#CHARTSTYLE:;
#DIFFICULTY:Hard;
#METER:14;
#RADARVALUES:0.671683,0.783326,0.474743,0.310409,0.100426,515.000000,463.000000,52.000000,34.000000,0.000000,0.000000,0.000000,0.000000,0.000000,0.671683,0.783326,0.474743,0.310409,0.100426,515.000000,463.000000,52.000000,34.000000,0.000000,0.000000,0.000000,0.000000,0.000000;
#CREDIT:;
#NOTES:
0000
0000
0000
0000
,
0000
0000
0000
0000
,
0000
0000
0000
0000
,
0110
0000
0010
0100
0001
0100
0010
1000
,
0001
0010
0011
0000
1000
0010
0100
0001
,
1001
0000
0100
0110
0000
0010
0110
0000
,
2100
0000
3010
0200
0000
0301
0020
0000
,
0031
0010
0110
0000
0000
1000
1100
0000
,
0001
0100
0011
0000
0001
1000
0110
0000
,
0010
0010
1010
0000
0000
0100
0001
0100
,
0110
0000
0010
1001
0000
0100
2010
0000
,
3001
0010
0011
0000
0000
0100
0101
0000
,
0010
0010
1010
0000
0000
0001
0101
0000
,
0010
1000
0010
0100
0000
0100
0110
0000
,
0001
0100
0001
0101
0000
0100
0001
1000
,
0010
0100
0110
0000
0001
1000
1100
0000
,
0110
0010
0100
0010
0000
0010
0100
0000
,
0011
0001
0001
0011
0000
1000
0100
0010
,
0002
0000
1003
0020
0000
0130
0002
0000
,
1003
0100
0001
0100
1000
0010
0001
0000
,
0010
1000
0100
0010
0001
1000
0110
0010
,
0001
1000
0001
0200
0300
0010
0110
0000
,
0010
0000
1000
0000
0001
0000
0100
0001
0100
0000
0001
0000
0100
0000
0001
0000
,
0010
0000
0100
0000
1000
0000
0001
0100
0001
0000
1000
0000
0100
0000
0010
0000
,
0001
1000
0001
1001
0000
0001
0100
0010
,
0101
0000
0000
0101
0000
0000
0101
0000
0000
0001
0000
0000
0010
0000
1000
0000
,
0010
0100
2000
0000
0010
0000
3002
0000
,
0100
0100
0013
0001
,
1000
0000
0010
0100
0001
0000
1000
0000
,
0020
1000
1000
0130
,
0002
0010
0203
0300
,
0010
0000
0001
0000
1000
0100
0010
0001
,
0020
0000
0100
0000
1030
0000
0100
1000
,
0002
0000
0010
0000
0103
0000
0010
1000
,
0020
1000
1030
0001
,
0100
0010
0100
0000
0020
0000
0030
0000
,
0200
0300
0002
0003
,
2002
0000
3003
0000
,
0020
0000
0100
0000
1030
0000
0001
0100
,
0002
1000
1003
0010
,
0200
0000
0010
0000
0301
0000
1000
0100
,
0010
0000
0011
0000
0001
0010
0100
0000
,
2000
0000
3100
0000
0100
0010
0001
0010
,
0100
0000
1000
0010
0100
0010
1000
0000
,
0011
0000
0001
0010
0100
0010
0001
0000
,
0000
0000
0000
0000
,
0110
0000
0010
0100
0010
0100
0001
0010
,
0011
0000
0001
0000
0010
0000
0000
0000
0001
0000
1000
0000
0010
0100
0010
0000
,
0110
0000
0100
0010
0100
0001
1000
0010
,
1010
1000
0100
0010
0001
0000
0001
0010
,
0110
0100
1000
0010
0001
0010
1000
0100
,
0020
0000
0001
0000
0031
1000
0010
0100
,
0002
0000
0100
0000
1003
0010
0100
0001
,
2001
0000
0001
0001
3001
0000
0200
0000
,
0310
0100
0010
1000
0001
0100
0010
1000
,
1000
0001
0001
0000
0100
0100
0010
0010
,
2000
0000
3001
0010
0001
0010
0100
1000
,
1100
0100
0010
0001
0011
0001
1000
0010
,
0110
0001
1000
0000
0101
0001
1000
0100
,
1000
0100
0100
0001
0100
1000
0010
0100
,
0002
0000
0000
0000
0103
0000
0001
0000
0100
0010
0100
0000
0001
0000
0100
0000
,
0001
0000
0100
0000
0010
0100
0010
0000
2000
0000
0000
0000
3002
0000
0000
0000
,
0003
0000
0101
0000
0001
1000
0010
0110
,
0000
0001
0000
0010
0000
1000
0010
0000
,
0100
0000
1000
0100
0010
0001
1000
0001
,
0000
0100
0000
0010
0000
0010
1000
0001
,
0101
0000
0000
0000
0001
0000
0010
0000
0001
0000
0010
0001
0010
0000
0001
0000
,
1000
0000
0100
0000
1000
0000
0100
1000
0100
0000
1000
0000
0001
0000
0100
0000
,
0010
0000
0100
0010
0100
0000
0001
0000
1000
0000
0010
0000
0100
0000
0010
1000
,
0010
0000
0100
0000
0001
0000
0010
0000
0100
0000
1000
0010
0100
0010
1000
0000
,
0000
0000
0101
0000
0010
0210
0000
0010
,
0000
0000
0300
0000
0010
0000
1000
0000
0001
0000
0100
0001
0100
0000
0001
0000
,
1000
0000
1100
1000
1000
1100
0000
0001
,
0000
0000
0100
0000
0000
0000
0010
0000
1000
0000
0001
0000
0100
0000
0010
0100
,
0010
0000
0000
0000
0110
0000
0000
0000
0100
0000
0000
0000
0010
0000
0100
0010
,
0100
0000
0010
0000
0100
0000
0001
0000
1000
0000
0100
1000
0010
0000
0100
0000
,
0001
0000
0010
0000
0001
0000
1000
0001
1000
0000
0001
0000
0100
0000
0010
0000
,
0100
0000
0001
0010
0100
0000
1000
0000
0001
0000
0010
0001
0010
0001
0010
0001
,
0010
0000
0000
0000
;
