#VERSION:0.83;
#TITLE:Test Of Time;
#SUBTITLE:;
#ARTIST:Nate Evans;
#TITLETRANSLIT:;
#SUBTITLETRANSLIT:;
#ARTISTTRANSLIT:;
#GENRE:;
#ORIGIN:;
#CREDIT:;
#BANNER:;
#BACKGROUND:;
#PREVIEWVID:;
#JACKET:;
#CDIMAGE:;
#DISCIMAGE:;
#LYRICSPATH:;
#CDTITLE:;
#MUSIC:Nate-Evans - Test-Of-Time By-G_J-HOT-RnB.ogg;
#OFFSET:-0.025000;
#SAMPLESTART:29.558001;
#SAMPLELENGTH:20.200001;
#SELECTABLE:YES;
#BPMS:0.000=130.000;
#STOPS:;
#DELAYS:;
#WARPS:;
#TIMESIGNATURES:0.000=4=4;
#TICKCOUNTS:0.000=4;
#COMBOS:0.000=1;
#SPEEDS:0.000=1.000=0.000=0;
#SCROLLS:0.000=1.000;
#FAKES:;
#LABELS:0.000=Song Start;
#BGCHANGES:;
#KEYSOUNDS:;
#ATTACKS:
;

//---------------dance-single - ----------------
#NOTEDATA:;
#CHARTNAME:;
#STEPSTYPE:dance-single;
#DESCRIPTION:;
#CHARTSTYLE:;
#DIFFICULTY:Beginner;
#METER:2;
#RADARVALUES:0.081266,0.128389,0.000000,0.047405,0.000000,72.000000,72.000000,0.000000,6.000000,0.000000,0.000000,0.000000,0.000000,0.000000,0.081266,0.128389,0.000000,0.047405,0.000000,72.000000,72.000000,0.000000,6.000000,0.000000,0.000000,0.000000,0.000000,0.000000;
#CREDIT:;
#NOTES:
0000
0000
0000
0000
,
0000
0000
0000
0000
,
0000
0000
0000
0000
,
0000
0000
0000
0000
,
0100
0000
0001
0000
,
1000
0000
0000
0000
,
0001
0000
1000
0000
,
0001
0000
0000
0000
,
1000
0000
0000
0000
,
0001
0000
0000
0000
,
1000
0000
0000
0000
,
0010
0000
0000
0000
,
0100
0000
0000
0000
,
0001
0000
0000
0000
,
2000
0000
0000
0000
,
3000
0000
0000
0000
,
0001
0000
0000
0000
,
1000
0000
0000
0000
,
0010
0000
0000
0000
,
0010
0000
0100
0000
,
0010
0000
0000
0000
,
1000
0000
0000
0000
,
0002
0000
0003
0000
,
1000
0000
0000
0000
,
1000
0000
0000
0000
,
0100
0000
0000
0000
,
1000
0000
0000
0000
,
0001
0000
0000
0000
,
0100
0000
0010
0000
,
0100
0000
0000
0000
,
0020
0000
0030
0000
,
1000
0000
0000
0000
,
0001
0000
0001
0000
,
0001
0000
0000
0000
,
1000
0000
0001
0000
,
1000
0000
0000
0000
,
0010
0000
0010
0000
,
0010
0000
0000
0000
,
0100
0000
0001
0000
,
0100
0000
0000
0000
,
0010
0000
0010
0000
,
0010
0000
0010
0000
,
1000
0000
0000
0000
,
0001
0000
0000
0000
,
1000
0000
1000
0000
,
0001
0000
0000
0000
,
2000
0000
0000
0000
,
3000
0000
0000
0000
,
0001
0000
0000
0000
,
1000
0000
0000
0000
,
0001
0000
0000
0000
,
0100
0000
0000
0000
,
0001
0000
0000
0000
,
0010
0000
0000
0000
,
0002
0000
0003
0000
,
1000
0000
0000
0000
,
0100
0000
0000
0000
,
0100
0000
0000
0000
,
0100
0000
0100
0000
,
0100
0000
0000
0000
,
0010
0000
0000
0000
,
0010
0000
0000
0000
,
0001
0000
1000
0000
,
0001
0000
0000
0000
,
2000
0000
0000
0000
,
3000
0000
0000
0000
;

//---------------dance-single - ----------------
#NOTEDATA:;
#CHARTNAME:;
#STEPSTYPE:dance-single;
#DESCRIPTION:;
#CHARTSTYLE:;
#DIFFICULTY:Easy;
#METER:5;
#RADARVALUES:0.229126,0.308135,0.094811,0.071108,0.000000,203.000000,191.000000,12.000000,9.000000,0.000000,0.000000,0.000000,0.000000,0.000000,0.229126,0.308135,0.094811,0.071108,0.000000,203.000000,191.000000,12.000000,9.000000,0.000000,0.000000,0.000000,0.000000,0.000000;
#CREDIT:;
#NOTES:
0000
0000
0000
0000
,
0000
0000
0000
0000
,
0000
0000
0000
0000
,
0000
0000
0000
0000
,
1000
0001
1000
0000
,
0001
0000
0100
0000
,
0001
0000
1000
0000
,
2000
0000
3001
0000
,
1000
0001
1000
0000
,
0001
0100
0001
0000
,
1000
0010
1000
0000
,
0001
0100
0001
1000
,
0001
0000
1000
0010
,
1000
0000
0001
0100
,
0020
0000
1030
0001
,
1000
0000
0000
0000
,
1001
0010
0100
0010
,
0110
1000
0001
1000
,
1001
0001
0100
0010
,
1000
0100
0100
0000
,
0100
0010
0001
1000
,
0001
0100
0001
1000
,
0020
0000
0130
0001
,
0001
0000
1000
0000
,
1001
0001
0100
0010
,
0110
1000
0100
0100
,
1000
0001
0001
0100
,
0010
0000
1000
0001
,
1001
0001
1000
0001
,
0100
0010
0010
1000
,
2000
0000
3002
0000
,
0103
0010
0100
0001
,
1000
0000
0010
0000
,
0100
0001
1000
0000
,
1001
0000
0100
0000
,
0010
0100
0010
0000
,
1000
0001
1000
0100
,
0010
0000
0001
0000
,
0001
0010
0100
0010
,
0001
0000
0001
1000
,
0001
0010
0100
0000
,
1000
0100
0010
0000
,
0001
0010
0100
0000
,
1000
0001
1000
0001
,
1001
1000
1000
0010
,
0100
0001
1000
0001
,
0200
0000
0320
0100
,
0130
0000
0000
0000
,
1001
0001
0100
0001
,
1000
0010
0100
0010
,
0010
1000
0001
0100
,
0001
0000
1000
0000
,
0110
0100
0001
1000
,
0100
0001
0100
1000
,
0002
0000
0203
0000
,
0310
0000
0100
0010
,
0110
0000
1000
0001
,
0100
0000
0100
0001
,
1000
0010
1010
0000
,
0100
0010
1000
0000
,
0001
0001
0001
0000
,
1000
0100
1000
0001
,
1000
1000
1000
0000
,
0001
0000
0100
0000
,
0001
0000
1000
0000
,
0010
0000
0000
0000
;

//---------------dance-single - ----------------
#NOTEDATA:;
#CHARTNAME:;
#STEPSTYPE:dance-single;
#DESCRIPTION:;
#CHARTSTYLE:;
#DIFFICULTY:Medium;
#METER:7;
#RADARVALUES:0.300234,0.308135,0.086910,0.063207,0.000000,266.000000,255.000000,11.000000,8.000000,0.000000,0.000000,0.000000,0.000000,0.000000,0.300234,0.308135,0.086910,0.063207,0.000000,266.000000,255.000000,11.000000,8.000000,0.000000,0.000000,0.000000,0.000000,0.000000;
#CREDIT:;
#NOTES:
0000
0000
0000
0000
,
0000
0000
0000
0000
,
0000
0000
0000
0000
,
0000
0000
0000
0000
,
0110
0000
1000
0000
0001
0000
0001
1000
,
0000
1000
0000
0001
0000
0100
0000
0010
,
0100
0000
0001
0000
0101
0000
0000
0001
,
0000
1000
0000
0001
0000
1000
0001
0000
,
0100
0000
0110
0000
0010
0000
0100
0010
,
0000
0100
0000
0001
0000
1000
0000
0000
,
0001
0000
1000
0000
1100
0000
0100
1000
,
0000
0001
0000
0100
0000
0010
0000
0000
,
1000
0000
0001
0000
1001
0000
0001
1000
,
0000
0001
0000
1000
0000
0001
0000
1000
,
0001
0000
0100
0000
0100
0000
0010
0200
,
0000
0000
0300
0000
,
0110
0000
0001
0000
1000
0000
0001
0100
,
0000
0001
0000
0100
0000
0001
0000
0100
,
0001
0000
1000
0000
0010
0000
1000
0001
,
0000
0010
0000
0001
0000
1000
0010
0000
,
0110
0000
0001
0000
1000
0000
0001
0100
,
0000
0010
0000
0100
0000
0001
0000
1000
,
0010
0000
0100
0000
0001
0000
1000
0001
,
0000
0001
0000
1000
0000
0001
1000
0001
,
1000
0000
0001
0000
1000
0000
0001
0100
,
0000
0001
0000
0100
0000
0001
0000
1000
,
0001
0000
0100
0000
0110
0000
0010
0100
,
0000
0001
0000
1000
0000
0010
0000
1000
,
0001
0000
0100
0000
0101
0000
0001
1000
,
0000
0001
0000
1000
0000
0001
0000
0100
,
0010
0100
0010
1000
,
0001
0000
0001
0000
1000
0000
0010
1000
,
0020
0000
0130
0001
,
1000
0010
0000
0100
0000
0001
0000
0000
,
1000
0000
0010
0000
1010
0000
0000
0100
,
0000
0010
0000
0100
0000
0000
0010
0000
,
1000
0000
0001
0100
0001
0000
0000
0100
,
0000
0100
0000
0010
0000
0010
0000
1000
,
0001
0000
1000
0000
0001
0000
0000
1000
,
0000
0100
0000
1000
0000
0001
0000
0100
,
0001
0000
1000
0000
0010
0000
0100
0010
,
0100
0000
0001
0000
1000
0000
0001
1000
,
0001
0000
1000
0000
0010
0000
0100
0010
,
0000
0100
0000
0010
0000
1000
0001
1000
,
0001
0000
1000
0000
1000
0000
0001
0100
,
0001
0000
1000
0000
0001
0000
1000
0010
,
1000
0000
0001
0000
0100
0000
0010
0100
,
0002
0000
0003
0000
,
1001
1000
0100
0010
,
0001
1000
0100
0010
,
0001
0010
0001
0010
,
0100
0000
0010
0000
0100
1000
0100
0000
,
1000
0001
0100
0010
,
1000
0001
1000
0001
,
0200
0000
0320
1000
,
1030
0000
0001
1000
,
0010
0000
0100
0000
0010
0000
0000
1000
,
0000
0001
0000
1000
0000
0001
0000
1000
,
0001
0000
1000
0000
0010
0000
0000
0100
,
0000
0010
0000
1000
0000
0001
1000
0001
,
1000
0000
0001
0000
0010
0000
0000
0010
,
0000
0001
0000
1000
0000
0001
0000
1000
,
0002
0000
0100
0000
0103
0000
0001
1000
,
0000
0001
0000
1000
0001
0000
0100
0010
,
0200
0000
0320
0000
,
0030
0000
0000
0000
;

//---------------dance-single - ----------------
#NOTEDATA:;
#CHARTNAME:;
#STEPSTYPE:dance-single;
#DESCRIPTION:;
#CHARTSTYLE:;
#DIFFICULTY:Hard;
#METER:11;
#RADARVALUES:0.417619,0.515533,0.118513,0.118513,0.098761,370.000000,355.000000,15.000000,15.000000,0.000000,0.000000,0.000000,0.000000,0.000000,0.417619,0.515533,0.118513,0.118513,0.098761,370.000000,355.000000,15.000000,15.000000,0.000000,0.000000,0.000000,0.000000,0.000000;
#CREDIT:;
#NOTES:
// measure 0
0000
0000
0000
0000
,  // measure 1
0000
0000
0000
0000
,  // measure 2
0000
0000
0000
0000
,  // measure 3
0000
0000
0000
0000
,  // measure 4
0100
0000
0010
0000
1000
0000
0001
0000
0100
0000
0000
0010
0000
0000
1000
0000
,  // measure 5
0000
0001
0000
0001
0000
0100
0000
0200
,  // measure 6
0000
0000
0001
0000
0310
0000
0010
1000
,  // measure 7
0000
1000
0000
0001
0000
1000
0001
0100
,  // measure 8
0010
0000
0000
0100
0000
0000
0010
0000
0000
0000
0010
0000
0000
0000
1000
0000
,  // measure 9
0100
0000
0000
0010
0000
0000
0001
0000
0000
0000
1000
0000
0001
0000
0000
0000
,  // measure 10
0001
0010
0001
0100
0010
1000
0100
0100
,  // measure 11
0000
0010
0000
0001
0000
0010
0100
0000
,  // measure 12
1010
0000
0001
0100
0000
0001
1000
0100
,  // measure 13
0000
0100
1000
0010
0000
1000
0000
0001
,  // measure 14
0200
0000
0001
0000
0301
0000
1000
0010
,  // measure 15
0000
0100
0000
0001
0000
0000
0000
0000
,  // measure 16
0110
0000
0001
1000
0000
0001
0000
0100
,  // measure 17
0010
0000
1000
0010
0000
0001
0000
1000
,  // measure 18
0001
0000
1000
0010
0000
0100
0000
0001
,  // measure 19
1000
0010
0000
1000
0000
0001
0010
0100
,  // measure 20
1000
0000
0001
0100
0000
1000
0000
0001
,  // measure 21
0000
0100
0001
0100
0000
0010
0000
1000
,  // measure 22
0002
0000
0000
0200
0003
0000
0300
0020
,  // measure 23
0000
0000
0030
1000
0000
0001
0100
0010
,  // measure 24
0100
0000
0001
1000
0000
0001
0000
0100
,  // measure 25
0000
0010
0100
0010
0000
1000
0001
0100
,  // measure 26
0000
0001
0000
0010
0000
0100
0000
1000
,  // measure 27
0000
0001
0000
0100
0000
0010
0100
0010
,  // measure 28
1000
0000
0001
0100
0000
0010
0100
0001
,  // measure 29
0000
0000
1000
0001
1000
0001
0000
0100
,  // measure 30
0020
0000
0100
0000
1030
0000
0001
0100
,  // measure 31
0000
0010
0000
1000
0001
0000
1000
0001
,  // measure 32
1001
0100
0010
1000
,  // measure 33
0001
0000
0100
0001
0000
0001
0100
0000
0001
0000
1000
0000
0010
0000
0000
0000
,  // measure 34
1000
0000
0010
0100
0000
0010
0100
0000
0001
0000
0000
1000
0000
0000
0001
0000
,  // measure 35
1000
0000
0000
0010
0000
0000
1000
0000
0001
0000
0000
0100
0000
0000
0010
0000
,  // measure 36
0000
0000
0100
0010
0100
0010
0100
0010
0100
0000
0010
0000
0100
0000
0000
0001
,  // measure 37
0000
1000
0000
0001
1000
0000
0001
0100
0001
0000
1000
0000
0001
0000
0000
0000
,  // measure 38
1000
0000
0010
1000
0000
0001
1000
0000
0010
0000
0100
0000
0110
0000
0000
0000
,  // measure 39
0001
0000
0010
0001
0010
0000
0001
0010
0001
0000
1000
0001
0000
1000
0000
0000
,  // measure 40
0001
0100
0000
0010
1000
0001
0100
0001
,  // measure 41
0000
0100
0010
1000
0001
0101
0000
0001
,  // measure 42
1000
0010
0010
0100
0100
0001
1000
0001
,  // measure 43
0000
1000
0010
1000
0100
0010
0011
0001
,  // measure 44
0011
0000
0001
1000
0000
0010
0000
0100
,  // measure 45
0000
0001
1000
0010
0000
0010
1000
0200
,  // measure 46
0000
0310
0001
0002
0000
1003
0100
2000
,  // measure 47
0000
3010
0000
0100
0000
0001
0000
0000
,  // measure 48
1100
0000
1000
0010
0000
0100
0000
0001
,  // measure 49
1000
0010
0000
1000
0100
0010
0001
1000
,  // measure 50
0000
0001
0000
0100
1000
0001
0010
0100
,  // measure 51
0000
0001
1000
0010
0000
0100
0110
0010
,  // measure 52
0110
0000
0010
1000
0000
0001
0100
0001
,  // measure 53
0000
1000
0010
0100
0000
0001
0000
1000
,  // measure 54
0002
0000
1000
0000
0103
0000
0010
0100
,  // measure 55
0000
0100
0010
0001
1001
0000
0100
0010
,  // measure 56
1010
0000
0001
0100
0010
0010
0000
1000
,  // measure 57
0100
0000
0010
0000
0000
0000
0001
0000
0010
0000
0001
0000
0100
0000
0001
1000
,  // measure 58
0001
0000
1000
0010
0100
0000
0001
0010
,  // measure 59
0000
0010
0001
1000
0001
0100
0110
0010
,  // measure 60
0110
0000
1000
0100
0010
0000
0010
0001
,  // measure 61
0100
0000
0100
0000
0000
0000
0010
0000
1000
0000
0001
0000
0100
0000
0001
0100
,  // measure 62
0001
0000
1000
0001
1000
0100
1000
0001
,  // measure 63
0210
0000
0320
0000
1030
0000
0001
0100
,  // measure 64
0002
0000
1003
0010
2000
0000
3001
0100
,  // measure 65
0002
0003
0000
0000
;
