#TITLE:Tenbukyoku ~Hysteric Rondo~;
#SUBTITLE:;
#ARTIST:miu~myu;
#TITLETRANSLIT:;
#SUBTITLETRANSLIT:;
#ARTISTTRANSLIT:;
#GENRE:RONDO;
#CREDIT:from pop n music 9 / 7 CS;
#BANNER:CS7_RONDO.png;
#BACKGROUND:;
#LYRICSPATH:;
#CDTITLE:Popn_music_9_logo_small.png;
#MUSIC:miu~myu - Tenbukyoku -Hysteric Rondo.mp3;
#OFFSET:-0.089000;
#SAMPLESTART:12.454000;
#SAMPLELENGTH:16.100000;
#SELECTABLE:YES;
#BPMS:0.000000=80.000000
,63.500000=160.000000
,93.875000=80.000000
;
#STOPS:
;
#BGCHANGES:;
#KEYSOUNDS:;
#ATTACKS:;

//---------------dance-single - Vincado----------------
#NOTES:
     dance-single:
     Vincado:
     Beginner:
     4:
     0.174821,0.218078,0.146431,0.073216,0.026148,117.000000,103.000000,14.000000,7.000000,0.000000,0.000000,0.174821,0.218078,0.146431,0.073216,0.026148,117.000000,103.000000,14.000000,7.000000,0.000000,0.000000:
0000
0000
0000
0000
,
0000
0000
0001
0000
0000
0001
0000
0000
,
1000
0000
0000
0001
0000
0000
0100
0000
,
0000
0010
0000
0000
0100
0000
0000
0000
,
0000
0000
0110
0000
0001
1000
0000
1000
,
0001
0000
0100
0100
0000
0001
0001
0000
,
1000
1000
0000
0001
0001
0000
0000
0100
,
0000
0000
0110
0000
0010
0010
0000
0100
,
0100
0000
0010
0010
0000
0100
0100
0000
,
0000
0002
0000
0003
2000
0000
3000
0001
,
0000
0000
0100
0000
0000
0010
0000
0000
,
0100
0000
0001
0001
0000
1000
1000
0000
,
0000
0001
0000
0000
1001
0000
0000
1000
,
0000
0000
1001
0000
0001
0001
0000
1000
,
1000
0000
0001
0001
0000
0100
0100
0000
,
0000
0010
0000
0000
1000
0000
0000
0002
,
0000
0000
0003
0000
0000
1001
0000
0000
,
0000
0000
0000
1000
0000
0000
0000
0000
,
0000
0110
0000
0000
0000
0000
0000
0000
0000
0000
0000
0000
0000
0011
0000
0000
,
0000
0000
0000
0000
0000
0000
0000
0000
0000
1000
0000
0000
0000
0000
0000
0000
,
0000
0110
0000
0000
,
0001
0000
0000
0001
0000
0000
0000
0000
,
0000
2000
0000
0000
0000
0000
3000
0000
0000
0000
0000
0000
0000
0010
0000
0000
,
0000
0000
0000
0010
0000
0000
1001
0000
,
0000
0010
0100
1000
0001
0000
0010
0100
,
0000
0000
0110
0000
0000
1001
0000
0000
,
0100
0000
0000
0010
0000
0000
0110
0000
,
0000
0001
0000
1000
0001
0000
0000
0100
,
0000
0100
0010
0000
0000
0100
0000
0000
,
0010
0000
0000
0100
0000
0001
1000
0000
,
0001
1000
0000
0000
1001
0000
0000
0100
,
0000
0000
0110
0000
0000
0010
0000
0000
,
2000
0000
3000
0001
0000
0000
0001
0000
,
0000
0200
0000
0300
0001
0000
0000
2000
,
0000
3000
0010
0000
0000
0000
0100
0000
;

//---------------dance-single - Vincado----------------
#NOTES:
     dance-single:
     Vincado:
     Easy:
     6:
     0.248037,0.290771,0.219647,0.125513,0.067986,166.000000,145.000000,21.000000,12.000000,0.000000,0.000000,0.248037,0.290771,0.219647,0.125513,0.067986,166.000000,145.000000,21.000000,12.000000,0.000000,0.000000:
0000
0000
0000
0000
0000
0000
0000
1000
,
0001
1000
0001
0000
0100
0001
0000
0001
,
1000
0000
0100
0001
0000
1000
0001
0000
,
0100
0100
0010
0010
0010
0000
0000
0000
,
0000
0000
0110
0000
0001
1000
0000
0001
,
1000
0000
0100
0001
0000
1000
0001
0000
,
1000
0100
0000
0010
0001
0000
0100
0010
,
0100
0010
0110
0000
0010
0100
0000
0001
,
0100
0000
0010
0001
0000
0001
0100
0000
,
0010
1000
0000
0010
2000
0000
3001
0001
,
0000
0100
0110
0000
0010
0110
0000
0100
,
0010
0000
0010
0100
0000
0010
0110
0000
,
1000
0001
0000
0001
1000
0000
0010
1000
,
0000
0110
0110
0000
0001
1000
0000
0100
,
0010
0000
1000
0001
0000
0100
0010
0000
,
0010
1000
0000
0000
2000
3000
0000
0002
,
0000
0000
0003
1000
0000
1001
0000
0000
,
0001
0000
0000
0000
0000
0000
0000
0000
0000
0000
0000
1000
0000
0000
0000
0000
0000
0000
0000
0000
0000
0000
0000
0001
0000
0000
0000
0000
0000
0000
0000
0000
,
0000
0110
0000
0000
0000
0000
0000
1000
0000
0000
0000
0000
0000
0001
0000
0000
,
0000
0000
0000
0000
0000
0100
0000
0000
0000
0000
0000
0000
0000
0000
0000
0000
0000
0001
0000
0000
0000
0000
0000
0000
0000
0000
0000
0000
0000
1000
0000
0000
,
0000
0000
0110
0000
0000
0001
0000
0000
,
1000
0000
0000
0000
0000
0000
0000
0000
0000
0000
0000
0001
0000
0000
0000
0000
0000
0000
0000
0000
0000
0000
0000
1001
0000
0000
0000
0000
0000
0000
0000
0000
,
0000
1000
0000
0000
0000
0000
0000
1001
0000
0000
0000
0000
0000
0010
0000
0000
,
0000
0000
0000
0010
0000
0000
2000
0000
,
3000
0010
0100
0010
0200
0000
0301
0010
,
0000
0100
2000
3000
0000
0002
0003
0000
,
0200
0300
0000
0010
0000
0000
0110
0000
,
0000
1001
0000
1000
0001
0000
0100
0110
,
0000
0001
1001
0000
0001
0100
0001
0100
,
0101
0000
0000
0100
0000
0001
1000
0001
,
1000
0000
0000
0000
1002
0000
0003
0200
,
0000
0300
0020
0000
0030
1000
0000
0000
,
1001
0000
0000
0110
0000
0000
0011
0000
,
0000
0002
0000
0003
1000
0001
0000
1000
,
0010
0000
0100
0000
0100
0100
0100
0000
;

//---------------dance-single - Vincado----------------
#NOTES:
     dance-single:
     Vincado:
     Medium:
     8:
     0.312287,0.345290,0.251025,0.230106,0.067986,209.000000,185.000000,24.000000,22.000000,0.000000,0.000000,0.312287,0.345290,0.251025,0.230106,0.067986,209.000000,185.000000,24.000000,22.000000,0.000000,0.000000:
0000
0000
0000
0000
0000
0000
0000
1000
,
0001
1000
0100
1000
0100
0001
0100
0001
,
0100
1000
0100
0010
0100
0100
0010
0001
,
0100
0010
0010
0010
0110
0000
0000
0000
,
0000
0110
0110
0000
0001
1000
0100
0001
,
1000
0100
0001
1000
0010
0100
0001
0000
,
1000
0100
0010
0010
0001
0000
0100
0010
,
0100
0110
1001
0000
0001
0100
1000
0001
,
0100
1000
0001
0100
0001
1000
0100
0010
,
0010
0001
0001
1000
0002
0000
1003
0001
,
0100
0110
1001
0000
0010
0110
0000
1000
,
1001
0000
0010
0110
0000
0001
1001
0000
,
1000
0100
0000
0010
0001
0000
0001
1000
,
0000
1100
1100
0000
0001
1000
0010
0100
,
0101
0000
1000
0100
0010
0100
0011
0000
,
0010
0100
0010
0100
2000
3000
0000
0002
,
0000
1000
0003
0100
0000
0110
0000
0000
,
0001
0000
0000
0000
0000
0000
0000
0000
0000
0000
0000
1000
0000
0000
0000
0000
0000
0000
0000
0000
0000
0000
0000
0001
0000
0000
0000
0000
0000
0000
0000
0000
,
0000
0100
0000
0000
0000
0000
0000
1000
0000
0000
0000
0000
0000
0110
0000
0000
,
0000
0000
0000
0000
0000
0100
0000
0000
0000
0000
0000
0000
0000
0000
0000
0000
0000
0001
0000
0000
0000
0000
0000
0000
0000
0000
0000
0000
1000
0000
0000
0000
,
0000
0000
0110
0000
0000
0200
0000
0300
,
0020
0000
0000
0000
0000
0000
0000
0000
0030
0000
0000
0100
0000
0000
0000
0000
0000
0000
0000
0000
0000
0000
0000
1001
0000
0000
0000
0000
0000
0000
0000
0000
,
0000
0001
0000
0000
0000
0000
0000
0110
0000
0000
0000
0000
0000
0010
0000
0000
,
0100
0000
0000
0000
0000
0000
0010
0000
0000
0000
0000
0000
0200
0000
0000
0000
0000
0000
0000
0300
0000
0000
0000
0000
0020
0000
0000
0000
0000
0000
0000
0000
,
0030
0010
0100
0010
0200
0001
0301
0010
,
0011
0000
2000
3020
0030
0200
0320
0030
,
0200
0320
0030
0010
0200
0300
0110
0000
,
0001
1000
0000
1000
0001
0000
0100
0010
,
0100
0010
1001
0000
0001
0100
0001
1000
,
0010
0000
0100
0100
0000
0001
1000
0001
,
0100
0010
0000
0100
0002
1000
0003
0200
,
0010
0300
2000
0001
3000
1000
0002
0000
,
1003
0000
0100
0010
0001
0010
0100
0000
,
1000
2000
0000
3100
0200
0000
0310
0001
,
0000
1000
0200
0300
0000
0000
0110
0000
;

//---------------dance-single - Vincado----------------
#NOTES:
     dance-single:
     Vincado:
     Hard:
     10:
     0.434811,0.417983,0.292863,0.198728,0.381767,291.000000,263.000000,28.000000,19.000000,0.000000,0.000000,0.434811,0.417983,0.292863,0.198728,0.381767,291.000000,263.000000,28.000000,19.000000,0.000000,0.000000:
// measure 0
0000
0000
0000
0000
0000
0000
0000
1000
,  // measure 1
0001
1000
0110
0010
0001
0001
0100
0001
,  // measure 2
0110
0010
1000
0010
0100
0100
0101
0001
,  // measure 3
0010
0000
0000
0000
0100
0000
0000
0000
0010
0000
0000
0000
0100
0000
0000
1000
0100
0000
0000
0000
0000
0000
0000
0000
0000
0000
0000
0000
0000
0000
0000
0000
,  // measure 4
0000
0000
0110
0000
1001
0000
0000
0000
0001
0000
1000
0000
0100
0010
0001
0000
,  // measure 5
1000
0000
0110
0000
0001
0000
1000
0000
0100
0000
0100
0010
0001
0000
0000
0000
,  // measure 6
1000
0000
0100
0000
0110
0000
0010
0000
0001
0000
0001
0000
0100
0000
0010
0100
,  // measure 7
0000
0100
0001
0100
0001
0000
0000
0000
0001
0010
0100
0000
1000
0000
0100
0010
,  // measure 8
0001
0000
1000
0000
0001
0100
0001
0000
0001
0000
1000
0100
1000
0000
0010
0000
,  // measure 9
0010
0001
0010
1000
0200
0320
0032
0103
,  // measure 10
0010
0100
0010
0000
0110
0000
0000
0000
0010
0000
1000
0000
0100
0000
1000
0000
,  // measure 11
0010
0000
0000
0000
0010
0000
0100
0000
0001
0010
0001
0010
0001
0000
0000
0000
,  // measure 12
1000
0110
0001
0010
1001
0000
0001
1000
,  // measure 13
0001
1000
0010
1000
0001
0000
0000
0000
0001
0000
1001
0000
0010
0000
0100
0000
,  // measure 14
0110
0010
1000
1100
0010
0001
0011
0001
,  // measure 15
0010
0100
1000
0001
0100
0010
0100
0002
,  // measure 16
0000
0000
0000
0000
1000
0000
0000
0000
0003
0000
0000
0000
0100
0000
0000
0000
0000
0000
0000
0000
0110
0000
0000
0000
0000
0000
0000
0000
0000
0000
0000
0001
,  // measure 17
0000
0000
0000
1000
0000
0000
0000
1000
0000
0000
0000
0100
0000
0000
0000
0010
0000
0000
0000
0001
0000
0000
0000
0001
0000
0000
0000
0000
0000
0000
0001
0000
,  // measure 18
0000
0100
0000
0000
0000
0010
0000
2000
0000
0000
0000
3000
0000
0110
0000
0000
,  // measure 19
0000
0100
0000
0000
0000
0001
0000
0000
0000
0000
0000
0000
0000
0001
0000
0000
0000
0010
0000
0000
0000
0100
0000
0000
0000
1000
0000
0000
0000
0000
0000
0000
,  // measure 20
0000
0001
0000
0000
0000
0010
0000
0000
0000
0100
0000
0000
0000
0000
0000
0000
0100
0000
0000
0000
2000
0000
0000
0000
0000
0000
0000
0000
3000
0000
0000
0000
,  // measure 21
0010
0000
0000
0000
0000
0000
0000
0000
0000
0000
0000
0000
0000
0000
0000
0000
0100
0000
0000
0000
0000
0000
0000
0000
0000
0000
0000
0000
0000
0000
0000
0000
0010
0000
0000
0000
0000
0000
0000
0000
0000
0000
0000
0000
0000
0000
0000
0000
0100
0000
0000
0000
0000
0000
0000
0000
0000
0000
0000
0000
0000
0000
0000
0000
0000
0000
0010
0000
0000
0000
0000
0000
0000
0000
0000
0000
0000
0000
0000
0000
0000
0000
0000
0000
0000
0000
0000
0000
0000
0000
1000
0000
0000
0000
0000
0000
0000
0000
0000
0000
0000
0000
0000
0000
0000
0000
0000
0000
0000
0000
0000
0000
0000
0000
0001
0000
0000
0000
0000
0000
0000
0000
0000
0000
0000
0000
0000
0000
0000
0000
0000
0000
0000
0000
0000
0000
0000
0000
1001
0000
0000
0000
0000
0000
0000
0000
0000
0000
0000
0000
0000
0000
0000
0000
0000
0000
0000
0000
0000
0000
0000
0000
0000
0000
0000
0000
0000
0000
0000
0000
0000
0000
0000
0000
0000
0000
0000
0000
0000
0000
0000
0000
0000
0000
0000
0000
0000
0000
0000
0000
0000
0000
,  // measure 22
0000
0001
0000
0010
0000
0100
0000
1100
0000
0000
0000
0000
0000
0110
0000
0000
,  // measure 23
0101
0000
0000
0000
0000
0000
1010
0000
0000
0000
0000
0000
0200
0000
0000
0000
0000
0000
0000
0300
0000
0000
0000
0000
0020
0000
0000
0000
0000
0000
0000
0000
,  // measure 24
0030
0000
0010
0000
1000
0000
0010
0100
0002
0000
1003
0000
0001
0010
0100
0000
,  // measure 25
1100
0000
0000
0010
0001
0010
0002
0000
0003
1000
0001
1000
0002
0000
0003
0000
,  // measure 26
0100
0010
0200
0000
0300
0000
0010
0000
0100
0010
0100
0000
0110
0000
0000
0000
,  // measure 27
0001
0000
1000
0001
0100
0000
0100
0000
0001
0010
0000
0100
1000
0000
0110
0000
,  // measure 28
0100
0010
0100
0010
0200
0000
0301
0000
0010
0000
0100
0000
1000
0001
0010
0000
,  // measure 29
0200
0300
0001
0010
0100
1000
0010
0100
,  // measure 30
0001
0000
0010
0000
0100
0000
1000
0000
0001
0100
0002
0000
0003
0000
0100
0000
,  // measure 31
0010
0100
0010
0000
1000
0001
2000
0000
3000
0001
0100
0001
0020
0000
0030
0000
,  // measure 32
0110
0000
0000
0000
0100
0000
1000
0000
0001
0100
0001
0000
0200
0000
0000
0000
,  // measure 33
0301
0100
0001
0000
1000
0000
0010
0100
0002
0000
0003
0000
0010
0000
0110
0000
,  // measure 34
1000
0010
1000
0000
1100
0000
0000
0100
0010
0100
0010
0000
0110
0000
0000
0000
;
