#VERSION:0.83;
#TITLE:Temptation (Khadisma Remix);
#SUBTITLE:;
#ARTIST:Chloe Martini;
#TITLETRANSLIT:;
#SUBTITLETRANSLIT:;
#ARTISTTRANSLIT:;
#GENRE:;
#ORIGIN:;
#CREDIT:;
#BANNER:;
#BACKGROUND:;
#PREVIEWVID:;
#JACKET:;
#CDIMAGE:;
#DISCIMAGE:;
#LYRICSPATH:;
#CDTITLE:;
#MUSIC:Chloe Martini - Temptation (Khadisma Remix).ogg;
#OFFSET:-0.039000;
#SAMPLESTART:27.073999;
#SAMPLELENGTH:17.799999;
#SELECTABLE:YES;
#BPMS:0.000=142.029;
#STOPS:;
#DELAYS:;
#WARPS:;
#TIMESIGNATURES:0.000=4=4;
#TICKCOUNTS:0.000=4;
#COMBOS:0.000=1;
#SPEEDS:0.000=1.000=0.000=0;
#SCROLLS:0.000=1.000;
#FAKES:;
#LABELS:0.000=Song Start;
#BGCHANGES:;
#KEYSOUNDS:;
#ATTACKS:
;

//---------------dance-single - ----------------
#NOTEDATA:;
#CHARTNAME:;
#STEPSTYPE:dance-single;
#DESCRIPTION:;
#CHARTSTYLE:;
#DIFFICULTY:Beginner;
#METER:2;
#RADARVALUES:0.066157,0.135173,0.049266,0.019706,0.000000,47.000000,42.000000,5.000000,2.000000,0.000000,0.000000,0.000000,0.000000,0.000000,0.066157,0.135173,0.049266,0.019706,0.000000,47.000000,42.000000,5.000000,2.000000,0.000000,0.000000,0.000000,0.000000,0.000000;
#CREDIT:;
#NOTES:
0000
0000
0000
0000
,
0000
0000
0000
0000
,
0000
0000
0000
0000
,
0000
0000
0000
0000
,
1000
0000
0000
0000
,
1000
0000
0000
0000
,
0001
0000
0000
0000
,
0001
0000
0000
0000
,
1000
0000
0000
0000
,
1000
0000
0000
0000
,
1000
0000
0000
0000
,
0001
0000
0000
0000
,
0001
0000
0000
0000
,
0001
0000
0000
0000
,
0100
0000
0000
0000
,
0100
0000
0000
0000
,
0110
0000
0000
0000
,
0010
0000
0000
0000
,
0010
0000
0000
0000
,
0000
0000
0000
0000
,
1100
0000
0000
0000
,
1000
0000
0000
0000
,
1000
0000
0000
0000
,
0000
0000
0000
0000
,
0011
0000
0000
0000
,
0001
0000
0000
0000
,
0001
0000
0000
0000
,
0000
0000
0000
0000
,
1001
0000
0000
0000
,
0001
0000
0000
0000
,
1000
0000
0000
0000
,
0001
0000
0000
0000
,
0000
0000
0000
0000
,
0000
0000
0000
0000
,
0000
0000
0000
0000
,
0000
0000
0000
0000
,
0000
0000
0000
0000
,
0000
0000
0000
0000
,
0200
0000
0000
0000
,
0000
0000
0000
0000
,
0300
0000
0000
0000
,
0100
0000
0000
0000
,
0100
0000
0000
0000
,
0200
0000
0000
0000
,
0000
0000
0300
0000
,
0000
0001
0000
1000
0000
0000
0000
0000
,
0000
1000
0000
0000
0000
0000
0000
0000
,
0001
0000
0000
0000
,
0000
0000
0000
0000
,
0110
0000
0000
0000
,
0100
0000
0100
0000
,
0100
0000
0000
0000
,
0000
0000
0000
0010
0000
0000
0000
0000
,
0000
0010
0000
0000
0000
0000
0000
1000
,
0000
0000
0000
0001
0000
0000
0000
0100
;

//---------------dance-single - ----------------
#NOTEDATA:;
#CHARTNAME:;
#STEPSTYPE:dance-single;
#DESCRIPTION:;
#CHARTSTYLE:;
#DIFFICULTY:Easy;
#METER:5;
#RADARVALUES:0.161874,0.249409,0.147798,0.147798,0.000000,115.000000,100.000000,15.000000,15.000000,0.000000,0.000000,0.000000,0.000000,0.000000,0.161874,0.249409,0.147798,0.147798,0.000000,115.000000,100.000000,15.000000,15.000000,0.000000,0.000000,0.000000,0.000000,0.000000;
#CREDIT:;
#NOTES:
0000
0000
0000
0000
,
0000
0000
0000
0000
,
2000
0000
0000
3000
,
0002
0000
0000
0003
,
2000
0000
0000
3000
,
0200
0000
0000
0300
,
0020
0000
0000
0030
,
0002
0000
0000
0003
,
0010
0000
0100
0000
,
1000
0000
0100
0000
,
0010
0000
0001
0000
,
0100
0000
0001
0000
,
1000
0000
0100
0000
,
0010
0000
0001
0000
,
0010
0000
0100
0000
,
1000
0000
0000
0000
,
0100
0000
0110
0000
,
0010
0000
1001
0000
,
0010
0000
0101
0000
,
0001
0000
1001
0000
,
1000
0100
0000
1000
,
0010
0100
0000
0010
,
1000
0001
0000
1000
,
0100
0010
0000
0000
,
0010
0000
0011
0000
,
0001
0000
0101
0000
,
0001
0000
1010
0000
,
0100
0000
1001
0000
,
0001
0100
0000
0001
,
0100
1000
0000
0100
,
0001
0100
0000
0001
,
0100
1000
0100
0001
,
0000
0000
0000
0000
,
0000
0000
0000
0000
0000
0000
0000
2000
,
0000
0000
0000
0000
0000
0000
0000
0020
,
0000
0000
0000
0000
0000
3000
0000
0000
,
0000
0000
0000
0000
0000
0000
0000
0200
,
0000
0030
0000
0000
0000
0000
0000
0000
,
0000
0002
0000
0000
0000
0300
0000
0000
,
0000
0000
0000
0000
0000
0003
0000
2000
,
0000
0000
0000
0000
0000
0000
0000
0020
,
0000
0000
0000
0000
0000
3000
0000
0000
,
0000
0000
0000
0200
0000
0030
0000
0000
,
0000
0000
0000
0000
0000
0002
0000
0300
,
0000
0000
0000
0000
0000
1003
0000
0000
,
0000
0001
0000
0000
1000
0000
0000
0100
,
0000
1000
0000
0100
0000
0011
0000
0011
,
0000
0000
0000
0001
,
0000
1000
0010
0100
,
0101
0000
0000
0001
,
0101
0000
0100
0010
,
0100
0000
0010
1000
,
0010
0000
0000
0100
0000
0001
0000
0101
,
0000
0000
0000
0000
0020
0000
0030
1000
,
0000
0100
0010
0001
,
0000
0000
0110
0000
,
0000
0110
0000
0000
;

//---------------dance-single - ----------------
#NOTEDATA:;
#CHARTNAME:;
#STEPSTYPE:dance-single;
#DESCRIPTION:;
#CHARTSTYLE:;
#DIFFICULTY:Medium;
#METER:9;
#RADARVALUES:0.326563,0.443393,0.137945,0.256183,0.039413,232.000000,218.000000,14.000000,26.000000,0.000000,0.000000,0.000000,0.000000,0.000000,0.326563,0.443393,0.137945,0.256183,0.039413,232.000000,218.000000,14.000000,26.000000,0.000000,0.000000,0.000000,0.000000,0.000000;
#CREDIT:;
#NOTES:
0000
0000
0000
0000
,
1001
0000
0000
1000
0000
0000
1000
0000
1000
0000
0000
0000
0100
0000
0100
0000
,
2000
0000
0000
0010
0010
0000
3000
0001
,
0002
0000
0000
0100
0100
0000
0003
0000
,
2010
0000
0000
0010
0010
0000
3000
0001
,
0002
0000
0000
0100
0100
0000
0003
0010
,
0020
0000
0000
0001
0001
0000
0030
0000
,
2000
3000
0020
0030
,
0100
0010
0100
0010
0100
0000
0010
1000
,
0100
0000
0000
0100
0000
0000
0100
0000
0100
0000
0000
0000
0010
0000
0001
0000
,
0010
0000
0001
1000
0100
1000
0001
0100
,
0010
1000
0001
1000
0100
0010
0100
1000
,
0020
0000
0000
0130
0200
0000
0000
0301
,
0010
0000
0000
0010
0000
0000
0010
0000
0010
0000
0000
0000
0000
0000
0001
0000
,
2000
0000
0000
0100
3200
0000
0000
0310
,
0020
0000
0032
0000
,
0103
0000
0010
0100
0010
0000
1000
0001
,
0100
0000
0000
0100
0000
0000
0100
0000
0100
0000
0000
0000
0010
0000
0100
0000
,
0001
0000
1000
0000
1001
0000
0001
0010
,
0200
0000
1300
0100
0000
0100
0010
0000
,
0012
0000
0100
0103
0000
0000
0010
0010
,
0000
0000
1000
1000
0000
0000
0001
0100
,
0010
0100
0001
1000
0100
0000
1000
0100
,
0001
0100
1000
0010
0010
0000
0000
0000
,
0110
0000
0010
0100
0010
0000
1000
0001
,
1000
0000
0000
1000
0000
0000
1000
0000
1000
0000
0000
0000
0000
0000
0000
0000
,
0202
0000
0303
0000
1010
0000
1000
0010
,
1000
0000
0001
0100
0000
0100
0001
0000
,
0001
0000
0100
0010
0000
0000
0010
1000
,
0000
0000
1000
0100
0000
0000
0100
0010
,
0001
1000
0001
1000
0001
0000
1000
0010
,
0100
0010
0100
0001
1000
0000
0000
0000
,
0020
0000
0100
0000
,
0100
0030
0000
0000
0000
0000
0000
2000
,
0000
0000
0000
0000
0010
0000
0000
0010
,
0000
0000
0000
3010
0000
0000
0000
0200
,
0000
0000
0000
0000
0000
0300
0000
0010
,
0000
0000
0000
0100
0000
0000
0100
0000
,
0000
0001
0000
1000
,
0000
1000
0000
2000
,
0000
0010
3000
0010
,
0000
0100
0000
0120
,
0000
0100
0000
0130
,
0000
0000
0010
0000
0000
2000
0000
0000
,
0000
3000
0000
0000
0000
1000
0000
0010
,
0000
1001
0000
0000
1000
0000
0010
0100
,
0010
1000
0000
0100
0010
0001
0000
0010
,
0001
1000
0000
0000
0000
0000
0101
0000
,
0000
0000
0000
0000
0000
1000
0000
0000
0010
0000
0000
0000
0100
0000
0010
0000
,
0100
0000
0001
1000
0100
1000
0001
0010
,
0001
0000
0000
1100
0000
0000
0000
0010
,
0000
0000
0000
0101
0000
0000
0000
0000
0000
0000
0000
0000
2000
0000
0000
0000
,
0000
0000
3000
0100
0010
0001
0000
0100
,
0000
0010
0010
0000
1000
0000
0000
1001
,
0000
0000
0000
0000
0200
0000
0000
0000
0000
0000
0000
0000
0300
0010
0000
0000
,
0000
0000
2001
0000
,
3000
0001
0000
0000
;

//---------------dance-single - ----------------
#NOTEDATA:;
#CHARTNAME:;
#STEPSTYPE:dance-single;
#DESCRIPTION:;
#CHARTSTYLE:;
#DIFFICULTY:Hard;
#METER:13;
#RADARVALUES:0.485621,0.581954,0.295596,0.423687,0.310375,345.000000,315.000000,30.000000,43.000000,0.000000,0.000000,0.000000,0.000000,0.000000,0.485621,0.581954,0.295596,0.423687,0.310375,345.000000,315.000000,30.000000,43.000000,0.000000,0.000000,0.000000,0.000000,0.000000;
#CREDIT:;
#NOTES:
// measure 0
0000
0000
0000
0000
0000
0000
0000
1001
,  // measure 1
1001
0000
0000
0001
0000
0000
1000
0000
0001
0000
0100
0001
0100
0000
0010
0000
,  // measure 2
1010
0000
0000
0100
0110
0000
0000
0010
,  // measure 3
0200
0000
0000
0000
0000
0000
0000
0000
0310
0000
0100
0001
0100
0000
0010
0000
,  // measure 4
1010
0000
0100
0010
0110
0000
0010
0100
,  // measure 5
1001
0000
0000
1000
0000
0000
0001
0000
0000
0000
0010
0000
0001
0000
0010
0000
,  // measure 6
1000
0000
0010
0000
0002
0000
0000
1003
,  // measure 7
0200
0000
0000
0000
0320
0000
0001
0030
,  // measure 8
0100
0000
0010
0000
1000
0000
0010
1000
0010
0000
0000
0000
1000
0000
0100
0000
,  // measure 9
1100
0000
0000
0100
0000
0000
0010
0000
0001
0000
0000
0000
1000
0000
0010
0000
,  // measure 10
1010
0000
0001
0010
0001
1000
0100
1000
,  // measure 11
0010
0000
0110
0000
0100
0000
1001
0000
1001
0000
0001
0010
0001
0000
1000
0000
,  // measure 12
0200
0000
0310
0002
0100
0003
1000
0200
,  // measure 13
0010
0000
0300
0001
0000
0000
1000
0000
0001
0000
0100
0000
1010
0000
1000
0000
,  // measure 14
1010
0100
0020
0000
,  // measure 15
1000
0030
0200
0000
0000
0000
0000
0300
,  // measure 16
0110
0010
0100
0010
0100
0000
0001
0010
,  // measure 17
0011
0000
0000
0001
0000
0000
1000
0000
1010
0000
0000
0000
0100
0000
0010
0000
,  // measure 18
0110
0000
0000
0000
0010
0100
0010
0000
0100
0000
0000
0000
0010
0000
1000
0000
,  // measure 19
0002
0000
0000
0000
1003
0000
0200
0000
0000
0000
0310
0001
0010
0000
0000
0000
,  // measure 20
0002
0000
0103
0200
0000
0300
0010
0020
,  // measure 21
0000
0030
0100
0010
0100
0000
0010
1000
,  // measure 22
0001
0000
0001
0010
0100
0000
0100
0010
,  // measure 23
0001
0000
1000
0100
0220
0000
0000
0330
,  // measure 24
0010
0000
0001
0000
1000
0100
0010
0000
0001
0000
0100
0000
0010
0000
1000
0000
,  // measure 25
0001
0000
0000
1000
0000
0000
1000
0000
0001
0000
0000
0000
0100
0000
0010
0000
,  // measure 26
0110
0000
0010
0010
1001
0000
0100
0100
,  // measure 27
1001
0000
0000
0000
0100
0000
0020
0000
0000
0000
1030
0100
1000
0000
0001
0000
,  // measure 28
0200
0000
0310
0020
0000
0030
1000
2000
,  // measure 29
0000
3000
0001
0002
0000
0003
1000
0100
,  // measure 30
0010
0001
0100
0010
0100
0010
1000
0100
,  // measure 31
0010
0001
1000
0100
0100
0010
0001
0010
,  // measure 32
0002
0000
0000
0000
,  // measure 33
0003
0000
2000
0000
0000
0000
0000
3200
,  // measure 34
0000
0000
0000
0000
0320
0000
0000
0032
,  // measure 35
0000
0000
0000
0000
0000
0000
1003
0000
0000
0000
0100
0000
1000
0100
2000
0000
,  // measure 36
0000
0000
0000
0000
3000
0000
0001
0200
,  // measure 37
0000
0000
0000
0000
0300
0000
0000
0020
0000
0000
0000
0000
0000
1000
0030
0000
,  // measure 38
1000
0000
0100
1000
0020
0000
0000
0000
0000
0000
0030
0000
0000
0110
0000
0000
,  // measure 39
0020
0000
0000
0000
0000
0000
0000
0000
0130
0000
0000
0000
0000
0002
0000
0000
,  // measure 40
0000
0000
0000
0000
1003
0010
1000
0000
0000
0000
0001
0000
0010
0000
0000
0100
,  // measure 41
0000
0000
1000
0000
0100
0000
0000
0010
0000
0000
0001
0000
2000
0000
0000
0100
,  // measure 42
3000
0000
0100
0010
0001
0000
0000
0020
0000
0000
0000
0130
0000
0000
0000
0000
,  // measure 43
0000
1000
0010
0000
0000
0000
0000
0001
0100
0000
0000
0001
0100
0001
0100
0002
,  // measure 44
0000
0000
0000
0003
0000
1000
0000
0100
,  // measure 45
0010
0000
0011
0000
0000
0000
1000
0100
1000
0000
0000
0000
0001
0000
0010
0000
,  // measure 46
0100
0010
0100
0000
0000
0000
1000
0000
0020
0000
0130
0000
0000
0200
0000
0010
,  // measure 47
0300
0010
0000
0000
0100
0010
0000
0100
0000
0000
0000
0000
1001
0000
0000
0010
,  // measure 48
0001
0010
0001
0000
0000
0000
0000
0000
0011
0000
0000
0000
0100
0001
0100
0000
,  // measure 49
0101
0000
0000
0000
0002
0000
0000
0000
0003
0000
1000
0000
0100
0000
1000
0010
,  // measure 50
0100
0000
0000
0000
0000
0000
0001
0000
0200
0000
0300
0020
0000
0100
0030
0100
,  // measure 51
0000
0000
0000
0012
0000
0000
0000
0000
0003
0000
1000
0100
1000
0100
0010
0000
,  // measure 52
0000
0000
0001
0010
0001
0010
0100
0000
0000
0000
1000
0010
0100
0001
0200
0000
,  // measure 53
0000
0000
0310
0100
0020
0000
0000
0030
0100
0000
0010
0000
1000
0100
0010
0000
,  // measure 54
0000
0000
0000
0000
0001
0000
0011
0000
0000
0010
0000
0001
0000
0011
0000
0000
,  // measure 55
0000
0100
0000
0000
0000
0000
0000
0000
1000
0010
1000
0001
0100
0000
0000
0000
,  // measure 56
0001
0010
0001
0100
0010
0000
0000
0000
0000
0000
0000
0000
0000
0000
0000
0000
;
