#VERSION:0.83;
#TITLE:Tell Me More;
#SUBTITLE:;
#ARTIST:Togo-chef feat. Aki Asahina;
#TITLETRANSLIT:;
#SUBTITLETRANSLIT:;
#ARTISTTRANSLIT:;
#GENRE:;
#ORIGIN:;
#CREDIT:from pop n music 10 cs;
#BANNER:Togo-chef feat. Aki Asahina - Tell Me More (mp3cut.net).png;
#BACKGROUND:;
#PREVIEWVID:;
#JACKET:;
#CDIMAGE:;
#DISCIMAGE:;
#LYRICSPATH:;
#CDTITLE:;
#MUSIC:Togo-chef feat. Aki Asahina - Tell Me More (mp3cut.net).mp3;
#OFFSET:-0.333000;
#SAMPLESTART:54.310001;
#SAMPLELENGTH:12.000000;
#SELECTABLE:YES;
#BPMS:0.000=180.000;
#STOPS:;
#DELAYS:;
#WARPS:;
#TIMESIGNATURES:0.000=4=4;
#TICKCOUNTS:0.000=4;
#COMBOS:0.000=1;
#SPEEDS:0.000=1.000=0.000=0;
#SCROLLS:0.000=1.000;
#FAKES:;
#LABELS:0.000=Song Start;
#BGCHANGES:;
#KEYSOUNDS:;
#ATTACKS:
;

//---------------dance-single - ----------------
#NOTEDATA:;
#CHARTNAME:;
#STEPSTYPE:dance-single;
#DESCRIPTION:;
#CHARTSTYLE:;
#DIFFICULTY:Beginner;
#METER:3;
#RADARVALUES:0.156133,0.218023,0.101406,0.011267,0.000000,97.000000,88.000000,9.000000,1.000000,0.000000,0.000000,0.000000,0.000000,0.000000,0.156133,0.218023,0.101406,0.011267,0.000000,97.000000,88.000000,9.000000,1.000000,0.000000,0.000000,0.000000,0.000000,0.000000;
#CREDIT:;
#NOTES:
0000
0000
0000
0000
,
0000
0000
0000
0000
,
0000
0000
0000
0000
,
0000
0000
0000
0000
,
0000
0000
0100
0000
,
0001
0000
1000
0000
,
0010
0000
0100
0000
,
0001
0000
0001
0000
,
0000
0000
1000
0000
,
0010
0000
0010
0000
,
1000
0000
0001
0000
,
0001
0000
0100
0000
,
0000
0000
0011
0000
,
0001
0000
1000
0000
,
0000
0000
1000
0000
,
0001
0000
0001
0000
,
0000
0000
1000
0000
,
0100
0000
1000
0000
,
0100
0000
1000
0000
,
0000
0000
0001
0000
,
0000
0000
1100
0000
,
0000
0000
1000
0000
,
0001
0000
1000
0000
,
0000
0000
0001
0000
,
0010
0000
0100
0000
,
0000
0000
0010
0000
,
0001
0000
0010
0000
,
0000
0000
0100
0000
,
0000
0000
1000
0000
,
0001
0000
1000
0000
,
0001
0000
1001
0000
,
0000
0000
1000
0000
,
0000
0000
0001
0000
,
0010
0000
0100
0000
,
0000
0000
0010
0000
,
0000
0000
0011
0000
,
0000
0000
1000
0000
,
0001
0000
0100
0000
,
0000
0000
0010
0000
,
0100
0000
0010
0000
,
0000
0000
0110
0000
,
0000
0000
0001
0000
,
1000
0000
0001
0000
,
0000
0000
2000
0000
,
3000
0000
0001
0000
,
0001
0000
1000
0000
,
0000
0000
1000
0000
,
0100
0000
1000
0000
,
0000
0000
1001
0000
,
1000
0000
0001
0000
,
0000
0000
1000
0000
,
0001
0000
1000
0000
,
0000
0000
1000
0000
,
1000
0000
0001
0000
,
0001
0000
1000
0000
,
0100
0000
1000
0000
,
0000
0000
0001
0000
,
0000
0000
0011
0000
,
0000
0000
1000
0000
,
0000
0000
1000
0000
,
0000
0000
1100
0000
,
0000
0000
0001
0000
,
0010
0000
0100
0000
,
0000
0000
0010
0000
,
0000
0000
0110
0000
;

//---------------dance-single - ----------------
#NOTEDATA:;
#CHARTNAME:;
#STEPSTYPE:dance-single;
#DESCRIPTION:;
#CHARTSTYLE:;
#DIFFICULTY:Easy;
#METER:4;
#RADARVALUES:0.196374,0.256332,0.112674,0.045069,0.000000,122.000000,112.000000,10.000000,4.000000,0.000000,0.000000,0.000000,0.000000,0.000000,0.196374,0.256332,0.112674,0.045069,0.000000,122.000000,112.000000,10.000000,4.000000,0.000000,0.000000,0.000000,0.000000,0.000000;
#CREDIT:;
#NOTES:
0000
0000
0000
0000
,
0000
0000
0000
0000
,
0000
0000
0100
0000
,
0000
0000
0010
0000
,
0000
0000
0110
0000
,
1000
0000
0100
0000
,
1000
0100
0100
0000
,
0010
0000
0001
0000
,
0001
0001
0010
0000
,
0000
0000
0100
0000
,
0000
0000
0110
0000
,
1000
0000
0001
0000
,
1000
0000
1001
0000
,
0100
0000
0010
0000
,
0100
0000
0100
0000
,
0001
0000
0001
0000
,
1000
0000
0001
0100
,
0001
0000
1000
0000
,
0010
0000
0100
0000
,
0010
0000
0100
0000
,
0110
0000
0100
0000
,
0100
0000
0010
0000
,
0010
0000
1000
0000
,
0000
0000
0001
0000
,
0001
0000
1000
0000
,
0001
0000
1000
0000
,
0100
0000
0010
0000
,
0000
0000
1000
0000
,
0100
0000
0011
0000
,
1001
0000
1000
0000
,
0100
0000
0010
0000
,
0000
0000
1000
0000
,
0100
0000
0010
0000
,
0010
0000
0100
0000
,
0000
0000
1100
0000
,
0000
0000
0001
0000
,
1000
0000
0002
0000
,
2003
0000
3020
0000
,
0030
0000
1000
0000
,
0000
0000
0001
0000
,
0001
0000
1001
0000
,
1000
0100
1000
0000
,
0001
0000
0100
0000
,
0001
0000
0010
0000
,
0000
0000
1000
0000
,
0000
0000
0001
0000
,
1000
0000
0100
0000
,
0100
0100
0100
0000
,
0010
0000
0001
0000
,
1000
0000
0001
0000
,
0100
0000
0010
0000
,
0100
0010
0100
0000
,
0000
0000
1001
0000
,
1000
0000
0001
0000
,
1000
0000
0010
0000
,
0010
0000
0100
0000
,
0000
0000
0001
0000
,
1001
0000
0000
0000
,
1000
0000
0001
0000
,
1000
0000
0000
0000
,
0100
0000
1000
0000
,
0100
0000
0000
0000
,
0010
0000
0001
0000
,
0010
0000
0000
0000
,
0100
0000
0200
0000
,
0300
0000
0000
0000
;

//---------------dance-single - ----------------
#NOTEDATA:;
#CHARTNAME:;
#STEPSTYPE:dance-single;
#DESCRIPTION:;
#CHARTSTYLE:;
#DIFFICULTY:Medium;
#METER:8;
#RADARVALUES:0.420111,0.476961,0.202812,0.033802,0.000000,261.000000,243.000000,18.000000,3.000000,0.000000,0.000000,0.000000,0.000000,0.000000,0.420111,0.476961,0.202812,0.033802,0.000000,261.000000,243.000000,18.000000,3.000000,0.000000,0.000000,0.000000,0.000000,0.000000;
#CREDIT:;
#NOTES:
0000
0000
0000
0000
,
0000
0000
0000
0000
,
0000
0000
0100
0010
,
0100
0010
0110
0000
,
1000
0001
1000
0000
0010
0000
0100
0000
,
0001
0100
0000
0100
0000
0000
0001
0000
,
1000
0000
0001
0000
0100
0000
0001
0100
,
0000
0001
0000
0100
0000
0000
0000
0000
,
0001
0000
1000
0001
1000
0000
0001
0000
,
1000
0000
0001
0100
0001
0000
1000
0000
,
0010
0000
0000
0000
0010
0000
0000
1000
,
0000
0100
0100
0000
,
0000
0000
1001
0001
,
0100
0010
0000
0100
0000
0000
0000
0000
,
0100
0000
0001
0100
0001
0000
1000
0001
,
0000
1000
0002
0000
0000
0000
0003
0000
,
1000
0000
0001
0010
0001
0000
0100
0001
,
0100
0010
1000
0100
,
0010
0000
0001
0000
0100
0010
0100
0000
,
0010
0000
0000
0100
0000
0000
0000
0000
,
0110
0010
0110
0000
,
1000
0000
0000
0000
0001
0000
0100
0001
,
0100
0001
1000
0000
,
0100
0010
0000
0100
0010
0000
0000
0000
,
0001
1000
0001
1000
0001
0000
0000
0000
,
1000
0100
0010
0000
,
0001
0100
0001
0000
0100
0000
0001
1000
,
0001
0000
1000
0000
1000
0000
0100
0010
,
0100
0000
0010
0001
0010
0000
0001
0000
,
1001
1000
1100
0010
,
0011
0000
0001
0010
0001
0000
0001
0100
,
0000
0001
0000
0100
0000
0000
0010
0000
,
0100
0000
0110
0100
,
0110
0000
0010
0000
0100
0000
0001
1000
,
0001
1000
1001
0001
,
0101
1000
1001
0000
,
1000
0000
0001
0100
0001
0000
0000
0000
,
1000
0100
0010
0001
,
0001
1000
1000
0000
,
0001
0000
0100
0001
0100
0000
0001
0100
,
0001
0000
0000
0000
1000
0001
1000
0000
,
0100
0000
0100
1000
0000
0000
0001
0000
,
0100
0010
0100
0000
0110
0000
0000
0000
,
0100
0000
0010
0100
0000
0000
0100
0000
,
0000
0010
0000
0000
1001
0000
1000
0000
,
0001
0000
1000
0100
1000
0000
0100
0010
,
0100
0000
0000
0000
0011
0000
0000
0100
,
0000
0001
0100
0001
,
0010
0000
1001
1000
,
1000
0000
0001
1000
,
0100
1000
0010
0000
,
0100
0000
0010
0100
0010
0000
0000
0000
,
0100
0010
0100
0000
0110
0000
0000
0000
,
0001
0000
1000
0001
1000
0000
0001
1000
,
0001
0000
0000
0000
1000
0000
0010
0100
,
0000
0010
0100
0000
0000
0000
0000
0000
,
0001
1000
0001
1000
0001
0000
0000
0000
,
1000
0100
0010
0001
,
0010
0001
0100
0001
,
1000
0100
0110
0000
,
0002
0000
1003
0001
,
0010
0001
1000
0100
,
0010
0100
1000
0001
,
0010
0001
0100
0001
,
0100
0100
0200
0000
,
0000
0300
0000
0000
0000
0000
0000
0000
;

//---------------dance-single - ----------------
#NOTEDATA:;
#CHARTNAME:;
#STEPSTYPE:dance-single;
#DESCRIPTION:;
#CHARTSTYLE:;
#DIFFICULTY:Hard;
#METER:12;
#RADARVALUES:0.597170,0.587029,0.259149,0.225347,0.005634,371.000000,348.000000,23.000000,20.000000,0.000000,0.000000,0.000000,0.000000,0.000000,0.597170,0.587029,0.259149,0.225347,0.005634,371.000000,348.000000,23.000000,20.000000,0.000000,0.000000,0.000000,0.000000,0.000000;
#CREDIT:;
#NOTES:
// measure 0
0000
0000
0000
0000
0100
0000
0010
0100
,  // measure 1
0010
0000
1000
0001
1000
0000
0001
0010
,  // measure 2
0100
0000
0010
0100
1000
0000
0010
0100
,  // measure 3
0001
0000
1000
0000
0001
1000
0000
0000
,  // measure 4
1000
0001
0100
0010
1000
0000
1000
0100
,  // measure 5
0010
0000
0100
0000
0000
0000
0011
0000
0000
0000
0100
0001
0100
0000
0000
0000
,  // measure 6
1010
0000
1000
0100
0010
0000
0001
0010
,  // measure 7
0000
0001
1000
0101
0000
0000
0100
0001
,  // measure 8
1000
0000
1000
0100
0110
0000
0010
0001
,  // measure 9
1000
0001
0100
0001
0000
1001
1000
1000
,  // measure 10
0001
0000
0010
0001
0001
0000
0100
0010
,  // measure 11
0000
0100
0010
0000
2000
0000
3000
0000
,  // measure 12
0000
0100
2000
3001
,  // measure 13
0100
0101
0000
0010
0000
0010
0001
0001
,  // measure 14
0010
0000
0001
0010
0100
0000
0001
0200
,  // measure 15
0000
0310
0110
0000
0000
0001
1000
0001
,  // measure 16
0000
0010
0010
0001
0100
0000
0001
0002
,  // measure 17
0000
2003
0000
3020
0000
0130
0001
0010
,  // measure 18
0100
0010
0100
1000
0010
0000
1000
0200
,  // measure 19
0000
2300
0000
3002
0000
0100
0003
0010
,  // measure 20
0000
0000
0100
0010
1000
0000
0100
0010
,  // measure 21
0002
0103
0200
0300
,  // measure 22
1001
0010
0101
0001
,  // measure 23
1000
0100
0010
0002
0000
0003
0100
0001
,  // measure 24
0010
0001
1000
0000
1010
0000
1000
0100
,  // measure 25
0010
0010
0000
0001
0011
0000
0100
0000
,  // measure 26
1000
0100
1000
0100
0010
0000
0001
1000
,  // measure 27
0002
0000
0003
0200
0000
0300
0001
0000
,  // measure 28
0000
0100
0010
0100
1001
0000
0010
1000
,  // measure 29
0100
0010
0001
0200
0000
0301
1000
0000
,  // measure 30
1000
0010
0100
0010
1000
0000
0100
0010
,  // measure 31
0000
0001
0000
1000
0010
0100
0001
0000
,  // measure 32
2000
0000
0000
3000
0001
1000
0001
1000
,  // measure 33
0100
0010
0001
2000
0000
3000
0001
0010
,  // measure 34
0000
0100
0010
0001
0000
0001
0010
0200
,  // measure 35
0000
0310
0001
1000
0000
0001
0100
0001
,  // measure 36
0000
0000
0000
0100
0010
0000
0001
1000
,  // measure 37
0001
0000
0010
0000
1000
0000
0001
0100
,  // measure 38
0001
0000
1000
0100
0110
0000
0001
0001
,  // measure 39
1000
0000
0010
0100
0010
0100
0001
0000
,  // measure 40
1000
0010
1000
0000
1010
0000
0100
0000
,  // measure 41
0001
0000
1000
0001
0000
0001
1000
0000
,  // measure 42
0001
0100
0010
0001
0010
0000
0010
1000
,  // measure 43
0001
0000
0001
0200
0000
0300
0001
0000
,  // measure 44
0000
1001
0000
0001
0010
0000
0100
0010
,  // measure 45
0001
0000
0100
0001
1000
0000
0010
0100
,  // measure 46
0100
0000
0000
0000
1000
0000
0100
0010
,  // measure 47
0000
0100
0001
0000
0110
0000
0000
0000
,  // measure 48
1000
0001
1000
0000
0101
0000
0010
0001
,  // measure 49
0100
0000
0010
0100
0000
0100
0001
0000
,  // measure 50
0100
0001
0100
0000
0001
0000
0100
0001
,  // measure 51
0010
0000
0001
1000
0000
0000
0001
0000
,  // measure 52
0000
1001
0000
1000
1001
0000
0001
0100
,  // measure 53
0001
0000
1000
0100
0010
0000
0010
0100
,  // measure 54
1000
0000
0100
0000
0010
0000
0001
0100
,  // measure 55
0000
0100
0001
0000
0101
0000
0010
0000
,  // measure 56
0100
0010
0100
0001
0100
0000
0010
1000
,  // measure 57
0001
0001
1000
0100
0100
0000
0010
0001
,  // measure 58
1000
0001
0001
0000
0101
0000
0010
0100
,  // measure 59
0010
0100
0010
0000
0100
0010
0000
0000
,  // measure 60
1000
0010
0100
0001
1001
0000
0001
0010
,  // measure 61
0100
0000
0010
0001
0100
0000
0001
0010
,  // measure 62
0100
0000
0010
0100
1000
0000
0001
0010
,  // measure 63
0100
0010
0001
0000
1000
0100
0000
0000
,  // measure 64
1000
0001
0100
0001
0201
0000
0000
0000
,  // measure 65
0000
0300
0000
0000
0000
0000
0000
0000
;
