#TITLE:Tears;
#SUBTITLE:;
#ARTIST:Celine Farach x Hoaprox;
#TITLETRANSLIT:;
#SUBTITLETRANSLIT:;
#ARTISTTRANSLIT:;
#GENRE:;
#CREDIT:;
#BANNER:;
#BACKGROUND:;
#LYRICSPATH:;
#CDTITLE:;
#MUSIC:Tears III Celine Farach x Hoaprox Official Lyric Video 128k.ogg;
#OFFSET:-0.173000;
#SAMPLESTART:38.417999;
#SAMPLELENGTH:12.100000;
#SELECTABLE:YES;
#BPMS:0.000000=160.000000
;
#STOPS:
;
#BGCHANGES:;
#KEYSOUNDS:;
#ATTACKS:;

//---------------dance-single - ----------------
#NOTES:
     dance-single:
     :
     Hard:
     13:
     0.520792,0.689394,0.431589,0.045914,0.068871,397.000000,350.000000,47.000000,5.000000,0.000000,0.000000,0.520792,0.689394,0.431589,0.045914,0.068871,397.000000,350.000000,47.000000,5.000000,0.000000,0.000000:
// measure 0
0000
0000
0000
0000
,  // measure 1
0000
0000
0110
0000
,  // measure 2
0000
0000
0001
0000
,  // measure 3
0000
0000
1000
0000
,  // measure 4
0000
0000
0000
0000
,  // measure 5
0000
0001
1000
0100
0010
0000
0001
0000
,  // measure 6
0000
0000
1000
0001
,  // measure 7
0000
0000
0100
0000
,  // measure 8
0000
0000
0010
0000
,  // measure 9
0000
0000
1000
0001
0100
0000
0010
0100
,  // measure 10
0000
0010
1000
0000
0001
0000
0100
0000
,  // measure 11
0100
0000
0010
0100
0000
0000
0000
0000
,  // measure 12
0000
0000
0000
0000
0001
0000
1000
0001
,  // measure 13
1000
0000
0001
0100
0001
0000
1000
0100
,  // measure 14
0000
0000
0000
0000
0000
0100
0000
0000
0000
0000
0000
0000
0010
0000
0000
0000
,  // measure 15
0001
1000
0001
0000
0000
0000
1000
0001
,  // measure 16
0100
0000
0100
0001
1000
0000
0001
0010
,  // measure 17
0001
0000
1000
0000
1001
0000
0010
0100
,  // measure 18
0010
0000
0100
0000
0100
0010
0100
0000
,  // measure 19
0100
0000
0010
0000
1000
0000
0000
0000
0001
0000
0000
0000
0100
0000
0001
0100
,  // measure 20
0001
0000
1000
0000
0001
0000
0000
0000
1000
0000
0001
0000
0100
0000
0010
0100
,  // measure 21
0010
0000
1000
0000
0100
0000
0100
0010
,  // measure 22
0001
0000
1000
0000
0010
1000
0001
0000
,  // measure 23
0010
0000
0010
1000
0001
0000
0100
1000
,  // measure 24
0100
1000
0001
0010
0001
0000
0000
0000
,  // measure 25
1000
0000
0000
0000
0010
0100
0010
0000
0110
0000
0000
0000
1000
0000
0000
0000
,  // measure 26
0002
0003
0101
0010
0110
0010
0101
1000
,  // measure 27
0010
1000
0001
0000
0110
0000
1000
0000
,  // measure 28
1010
0000
0011
0001
1001
0100
1010
0100
,  // measure 29
0001
0000
1000
0100
0011
0000
0001
0100
,  // measure 30
1000
0000
0101
0010
1001
0100
0101
0001
,  // measure 31
1000
0100
0010
0000
0011
0000
0100
0000
,  // measure 32
0010
0000
0110
1000
0110
0010
0101
0001
,  // measure 33
1000
0000
0010
0100
0001
0000
0000
0000
,  // measure 34
0000
0000
0000
0000
,  // measure 35
0000
0000
0100
0010
0110
0000
0000
0000
,  // measure 36
1001
0000
1000
0010
0100
0000
0001
0000
,  // measure 37
0011
0000
0001
0010
0100
0000
1000
0000
,  // measure 38
0010
0000
0100
0001
0100
0000
0010
0100
,  // measure 39
0001
0000
1000
0001
1001
0000
0000
0000
,  // measure 40
0110
0000
1000
0100
0001
0000
0100
0000
,  // measure 41
1000
0000
0001
0100
1000
0000
0001
0000
,  // measure 42
0010
0000
1000
0100
0001
0000
1000
0000
,  // measure 43
1010
0000
0100
0000
0101
0000
0001
1000
,  // measure 44
0100
0000
0100
0010
0001
0010
0001
0000
,  // measure 45
1000
0010
0100
0001
1000
0000
0001
0000
,  // measure 46
0011
0000
0011
1000
1100
0000
1100
0000
,  // measure 47
1100
0010
0001
0000
0001
0010
1000
0010
,  // measure 48
0001
0000
1000
0100
0010
0001
0100
0000
,  // measure 49
0010
0000
0100
0000
0010
0000
0100
0000
0010
1000
0010
0000
1000
0001
1000
0000
,  // measure 50
0001
1000
0001
1000
0001
1000
0001
1000
0001
0000
0000
0000
0000
0000
0000
0000
,  // measure 51
0100
0000
0000
0000
0010
0100
0010
0000
0110
0000
0000
0000
1000
0000
0100
0000
,  // measure 52
1001
0000
0001
0000
0100
0000
0010
0000
0010
0000
0100
0000
0100
0000
0001
1000
,  // measure 53
0001
0000
2000
3000
1100
0000
0100
0010
,  // measure 54
0011
0000
0001
0000
1000
0000
0001
0000
0001
0000
0100
0000
0100
0000
0010
0100
,  // measure 55
0010
1000
0002
0003
0101
0000
0001
1000
,  // measure 56
0110
0000
1000
0000
0001
0000
1000
0000
1000
0000
0100
0000
0100
0000
0010
0001
,  // measure 57
0010
0000
0002
0003
1001
0000
0100
0010
,  // measure 58
0110
0000
0010
0000
0100
0000
0001
0000
0001
0000
1000
0000
1000
0000
0001
0100
,  // measure 59
0001
1000
0001
0000
0110
0000
0010
0000
,  // measure 60
1000
0000
0011
0001
0010
0001
1000
0100
,  // measure 61
1000
0010
0001
0000
1010
0000
0001
0000
,  // measure 62
0100
0000
0110
0010
0100
0010
1000
0001
,  // measure 63
1000
0000
0001
0010
0011
0000
0001
0000
,  // measure 64
1000
0000
0101
0001
0010
0100
0010
0001
,  // measure 65
1000
0100
0010
0100
1100
0000
0100
0000
,  // measure 66
0010
0000
1001
0001
0100
0010
1000
0010
,  // measure 67
0001
0000
0010
1000
0002
0000
0000
0000
,  // measure 68
0000
0003
0000
0000
;
