#TITLE:Tears in the Light;
#SUBTITLE:;
#ARTIST:Akino;
#TITLETRANSLIT:;
#SUBTITLETRANSLIT:;
#ARTISTTRANSLIT:;
#GENRE:;
#CREDIT:from pop n music 21 Sunny Park;
#BANNER:20140730054042!SP_ROMA_SWING.png;
#BACKGROUND:;
#LYRICSPATH:;
#CDTITLE:;
#MUSIC:Tears_In_The_Light.ogg;
#OFFSET:-0.167000;
#SAMPLESTART:35.224998;
#SAMPLELENGTH:15.400000;
#SELECTABLE:YES;
#BPMS:0.000000=140.000000
;
#STOPS:
;
#BGCHANGES:;
#KEYSOUNDS:;
#ATTACKS:;

//---------------dance-single - ----------------
#NOTES:
     dance-single:
     :
     Beginner:
     1:
     0.087392,0.139682,0.057096,0.048940,0.000000,75.000000,68.000000,7.000000,6.000000,0.000000,0.000000,0.087392,0.139682,0.057096,0.048940,0.000000,75.000000,68.000000,7.000000,6.000000,0.000000,0.000000:
0000
0000
0000
0000
,
0000
0000
0000
0000
,
0000
0000
0000
0000
,
0000
0000
0000
0000
,
0000
0000
0001
0000
,
0000
0000
1000
0000
,
0000
0000
0010
0000
,
0000
0000
0100
0000
,
0000
0000
0001
0000
,
0000
0000
1000
0000
,
0000
0000
0010
0000
,
0000
0000
0100
0000
,
0000
0000
0001
0000
,
0000
0000
0002
0000
,
0003
0000
1000
0000
,
0000
0000
2000
0000
,
3000
0000
0010
0000
,
0000
0000
0110
0000
,
0000
0000
0100
0000
,
0000
0000
0010
0000
,
0000
0000
1001
0000
,
0000
0000
0001
0000
,
0000
0000
1001
0000
,
0000
0000
1000
0000
,
0000
0000
1100
0000
,
0000
0000
0100
0000
,
0000
0000
0010
0000
,
0000
0000
0001
0000
,
0000
0000
1000
0000
,
0000
0000
1000
0000
,
0001
0000
1000
0000
,
0000
0000
0001
0000
,
1000
0000
0001
0000
,
0000
0000
0100
0000
,
0000
0000
0010
0000
,
0000
0000
1000
0000
,
0010
0000
1000
0000
,
0000
0000
0002
0000
,
0003
0000
0100
0000
,
0000
0000
0020
0000
,
0030
0000
1000
0000
,
0000
0000
0001
0000
,
0000
0000
0001
0000
,
0000
0000
1000
0000
,
0000
0000
1100
0000
,
0000
0000
0100
0000
,
0000
0000
1000
0000
,
0000
0000
0001
0000
,
0000
0000
0100
0000
,
0000
0000
0010
0000
,
0000
0000
0110
0000
,
0000
0000
0001
0000
,
0000
0000
1000
0000
,
0000
0000
0010
0000
,
0000
0000
1000
0000
,
0000
0000
0110
0000
,
0000
0000
0010
0000
,
0000
0000
1000
0000
,
0000
0000
0001
0000
,
0000
0000
0010
0000
,
0000
0000
1000
0000
,
0000
0000
0001
0000
,
0000
0000
1000
0000
,
0000
0000
0010
0000
,
0000
0000
0100
0000
,
0000
0000
0001
0000
,
0000
0000
2000
0000
,
3000
0000
0002
0000
,
0003
0000
1000
0000
;

//---------------dance-single - ----------------
#NOTES:
     dance-single:
     :
     Easy:
     6:
     0.311116,0.420575,0.318108,0.187602,0.000000,267.000000,228.000000,39.000000,23.000000,0.000000,0.000000,0.311116,0.420575,0.318108,0.187602,0.000000,267.000000,228.000000,39.000000,23.000000,0.000000,0.000000:
0000
0000
0000
0000
,
0000
0000
0000
0000
,
0000
0000
1000
0001
,
0100
0110
1000
0001
,
2000
3000
0001
0100
,
0010
1000
0001
0101
,
0010
1000
1001
0001
,
0100
0010
0100
0010
,
1000
0001
0101
0010
,
0100
1000
0001
0010
,
0100
0000
0200
0300
,
0020
0030
0001
1000
,
1001
0000
0102
0000
,
0103
0010
2000
0000
,
3001
0100
0002
0000
,
1003
0010
1010
0000
,
0100
0010
0210
0000
,
0310
1000
1010
0100
,
0101
0000
0001
1000
,
1100
0010
0001
1000
,
1000
0001
0001
0000
,
0100
0010
0101
0000
,
0001
0100
1010
0000
,
0100
0001
1000
0001
,
0100
0010
0110
0000
,
0100
0001
0101
0000
,
1000
0010
0100
0010
,
0100
0100
0002
0000
,
2003
3000
1010
0000
,
0101
0000
1000
0100
,
0010
0100
0010
0001
,
1001
0001
0100
0010
,
1000
0000
1001
0100
,
0010
1000
0001
1000
,
1000
0001
0011
0001
,
0010
0100
0010
0001
,
1000
0000
2000
0000
,
3100
0010
0002
0000
,
0013
1000
0020
0000
,
0130
1000
0002
0000
,
0103
1000
0100
0001
,
1000
0010
0100
0001
,
1100
0100
0011
1000
,
1100
0110
0011
0001
,
1100
0100
0010
0001
,
1000
0001
0100
0010
,
1000
0001
1002
0000
,
1003
0100
0010
0001
,
1000
0100
1100
0010
,
0100
0000
0002
0003
,
2000
3000
0001
0100
,
0001
1000
0010
1000
,
0100
0001
0100
1000
,
0020
0030
0011
0100
,
2000
3000
0101
0000
,
0100
0010
1010
1100
,
1000
0010
0100
0000
,
0001
1000
1100
0000
,
0100
0010
0011
1000
,
0010
0100
0020
0100
,
0130
0001
1001
1000
,
0001
0100
0010
0100
,
0001
0000
1100
1000
,
0010
0100
0010
1000
,
0002
0003
0110
0010
,
0100
0001
1001
1000
,
0001
1000
0001
0000
0220
0000
0330
0000
,
0001
0000
1000
0000
0001
0100
0001
0000
,
0100
0000
0200
0300
;

//---------------dance-single - ----------------
#NOTES:
     dance-single:
     :
     Medium:
     11:
     0.503379,0.560767,0.309951,0.350734,0.053018,432.000000,394.000000,38.000000,43.000000,0.000000,0.000000,0.503379,0.560767,0.309951,0.350734,0.053018,432.000000,394.000000,38.000000,43.000000,0.000000,0.000000:
0000
0000
0000
0000
,
0000
0000
0000
0000
,
0000
0000
0000
0000
1000
0000
0001
1000
,
0100
0010
0011
0000
1001
0001
1001
1000
,
2002
0000
0000
0000
3003
0000
0000
0000
0001
0000
0000
0100
0000
0000
0010
0000
,
1000
0000
0001
0000
1000
0000
0100
0000
0001
0000
0000
0100
0000
0000
0010
0000
,
0001
1000
0100
0100
0010
0010
0001
1000
,
1100
0010
0001
0100
0101
0010
0001
0010
,
0022
0000
0033
0000
0100
0000
0000
0000
0001
0000
0000
0100
0000
0000
0010
0000
,
0100
0000
0001
0000
1000
0000
0001
0000
0101
0000
0000
0010
0000
0000
1000
0000
,
1010
0000
0000
0010
0000
0000
1000
0000
2200
0000
0000
0000
3300
0000
0010
0000
,
0002
0000
0013
0000
0010
0100
1000
0010
,
2000
3000
0001
0100
0002
0000
0010
0000
,
0013
0000
0000
0000
0010
0000
0001
0000
2000
0000
0000
3010
0000
0000
0100
0000
,
0001
1000
0100
0001
0100
1000
0010
0000
,
1000
0001
0100
0001
1001
0100
0001
0100
,
0010
0110
0002
0103
,
0010
1000
0100
0000
0011
0000
0001
0010
,
0100
0000
0000
1000
0000
0000
0010
0000
0201
0000
0000
0000
0301
0000
0000
0000
,
1010
0000
0101
0000
0001
0100
0010
1000
,
0001
0100
0010
1000
0002
0003
0100
0010
,
0200
0301
0010
0001
0100
0010
1000
1000
,
0002
0103
0010
1000
0002
0003
0101
0000
,
0010
1000
0010
0001
0010
0000
2000
0000
,
3001
0100
0010
1000
0110
0000
0001
0010
,
0100
0010
0001
1000
1100
0000
0010
0001
,
1000
0010
0100
0001
0200
0300
0020
0030
,
1000
0001
1000
0000
0002
0000
0013
0100
,
0010
0001
1000
0100
0220
0000
0330
0000
,
0001
0100
0001
0000
1000
0100
1000
0100
,
0010
0100
0010
0001
0010
0000
0001
0010
,
0100
1000
0100
0000
1000
0010
0110
0000
,
0110
0000
0100
0001
1001
0000
0100
0010
,
0100
0001
1000
0100
0020
0000
0031
1000
,
1100
0000
0001
0010
0011
0000
0001
0100
,
0010
0000
0100
0001
0010
0000
0010
0001
,
0100
0000
0100
0010
2000
0000
0000
0000
,
3100
0010
0002
0000
,
1003
0100
2000
0000
,
3010
1000
0002
0000
,
0103
0010
0220
0330
,
1000
0001
1000
0001
0100
0000
0001
0100
,
0001
0100
0010
0000
2000
0000
3001
0100
,
0010
0000
0100
0010
0110
0000
0001
1000
,
1001
0000
0100
0000
0010
0100
0010
0000
,
1010
0000
0000
0000
0001
0000
0100
0000
0001
0000
0000
0200
0000
0000
0310
0000
,
1000
0001
0200
0000
0301
0000
1000
0001
,
1000
0010
0010
0000
0100
0001
0100
0001
,
0001
0000
0100
0010
0110
0000
0010
1000
,
0100
0000
0010
0001
0100
0000
0010
1000
,
0100
0000
0010
0001
0100
0000
0010
1000
,
0002
0000
2003
0000
3010
1000
0001
1000
,
0010
0000
0100
0001
0100
0000
0001
0000
,
0100
0020
0000
0030
0100
0001
0100
0010
,
1000
0001
1000
0000
0101
0000
0010
1000
,
0100
0000
0010
0001
0100
0000
0020
0000
,
1030
0001
1000
0001
0101
0000
0100
0010
,
0100
0020
0000
0030
1000
0001
0100
0001
,
0100
0000
0010
0100
1010
0000
0001
0100
,
0010
0200
0320
0100
,
0130
0000
0000
0000
0001
0000
1000
0000
1001
0000
0000
0001
0000
0000
1000
0000
,
0001
0000
0100
0000
0010
0000
0100
0000
0010
0000
0000
1000
0000
0000
0001
0000
,
1000
0000
0001
0000
1001
0000
0000
0000
1100
0000
0000
1000
0000
0000
0010
0000
,
0100
0001
0100
0010
0010
0000
2000
0000
,
3200
0000
0000
0000
0320
0000
0030
0000
0011
0000
0000
0001
0000
0000
0010
0000
,
0100
0010
0100
0010
0001
0000
1000
0010
,
0100
0000
0001
0000
0101
0000
0000
0000
0100
0000
0000
0010
0000
0000
0100
0000
,
0001
1000
0100
0010
0001
0100
0010
1000
,
0001
0100
0001
1000
0200
0000
0300
0000
;

//---------------dance-single - ----------------
#NOTES:
     dance-single:
     :
     Hard:
     14:
     0.692146,0.785073,0.407830,0.244698,0.375204,594.000000,544.000000,50.000000,30.000000,0.000000,0.000000,0.692146,0.785073,0.407830,0.244698,0.375204,594.000000,544.000000,50.000000,30.000000,0.000000,0.000000:
// measure 0
0000
0000
0000
0000
,  // measure 1
0000
0000
0000
0000
,  // measure 2
0000
0000
0000
0000
0000
0000
0000
0000
1000
0000
0000
0000
0001
0000
0100
0010
,  // measure 3
0100
0000
0010
0000
1000
0000
0010
1000
0010
0000
0100
0000
0100
0000
0100
0000
,  // measure 4
0020
0000
0030
0100
0010
0000
1000
0000
1100
0000
0000
1000
0100
0000
0010
0000
,  // measure 5
0001
0000
1000
0000
0010
0000
0100
0000
0001
0000
0000
0100
0010
0000
0000
0000
,  // measure 6
2000
3000
0001
0010
0100
0010
0001
1000
,  // measure 7
0010
0100
0001
1000
0110
0001
0010
0100
,  // measure 8
0110
0000
1000
0100
1000
0000
0000
0000
0101
0000
0000
0001
0010
0000
1000
0000
,  // measure 9
0010
0000
0001
0000
1000
0000
1000
0000
0001
0000
0000
0010
0000
0000
0100
0000
,  // measure 10
1000
0000
0100
0010
0001
0000
1000
0001
2000
0000
3000
0000
0010
0000
0100
0000
,  // measure 11
0010
0000
0100
0010
0100
0000
0000
0000
1000
0000
1100
0000
1100
0000
0100
0000
,  // measure 12
1000
0000
0001
0100
0120
0000
0130
0000
,  // measure 13
0010
0000
0010
0100
0010
0000
0000
0000
2000
0000
0000
0000
3010
0000
0100
0000
,  // measure 14
0001
0000
0100
0010
0100
0000
0000
0000
0002
0000
0000
0000
1003
0000
0000
0000
,  // measure 15
1000
0100
0010
0100
1000
0100
0010
0001
,  // measure 16
0100
0010
0110
0000
0210
0000
0301
1000
,  // measure 17
0010
0000
0100
0001
0100
0000
0010
0000
1001
0000
0100
0010
0100
0000
0010
0000
,  // measure 18
0110
0000
1000
0010
0100
0000
0001
0000
2000
0000
0000
0000
3020
0000
0230
0000
,  // measure 19
0320
0000
1030
0001
0101
0101
1000
1010
,  // measure 20
1010
0100
0001
0101
0101
0000
0001
1000
,  // measure 21
0100
1000
0100
1000
0100
0000
1000
0000
0001
0000
0100
0010
0100
0000
0001
0000
,  // measure 22
0010
0100
1000
0001
0010
0000
0001
0000
1000
0000
0000
0000
0101
0000
0000
0000
,  // measure 23
0100
0000
0000
0100
0001
0000
0000
0000
1000
0000
0000
0001
1000
0000
0000
0000
,  // measure 24
0100
0000
0010
0000
0011
0000
0000
0000
0110
0000
0010
0100
0010
0000
0100
0000
,  // measure 25
0001
1000
0010
0100
0101
0000
1000
0001
,  // measure 26
1000
0010
1000
0010
1000
0000
0000
0000
0001
0000
0000
0000
0011
0000
0000
0000
,  // measure 27
0100
1000
0100
0010
0002
0000
1000
0000
,  // measure 28
1003
0000
0010
0000
0100
0010
0100
0010
0100
0000
0001
0000
1000
0000
0010
0000
,  // measure 29
0110
0000
0100
0000
0001
0000
1000
0010
1000
0000
0010
0000
0100
0000
0001
0000
,  // measure 30
0010
0000
0001
0010
0001
0000
0010
0000
0100
0000
0010
0000
0001
0000
0010
0000
,  // measure 31
0100
0000
0010
0001
0010
0000
0100
0000
1000
0000
0001
0010
0001
0010
0001
0010
,  // measure 32
0001
0000
1000
0100
1000
0100
1000
0000
0002
0000
0003
0000
0100
0000
0010
0000
,  // measure 33
0010
0000
0100
0001
1000
0000
0001
0000
1000
0001
1000
0001
1000
0000
0010
0000
,  // measure 34
1010
0000
0000
0000
0100
0001
0010
0000
0001
0000
0100
0000
0101
0000
1000
0000
,  // measure 35
1010
0000
0000
0000
0200
0000
0300
0000
0010
1000
0010
1000
0100
0000
0010
0000
,  // measure 36
0001
0000
1000
0100
0010
0000
0000
0000
0002
0000
0000
0000
0000
0000
0000
0000
,  // measure 37
0103
0000
0010
0100
0002
0000
1000
0000
,  // measure 38
1003
0100
0010
0001
0012
0000
0000
0000
,  // measure 39
0103
0000
0010
1000
0002
0103
0020
1030
,  // measure 40
0002
0003
1000
0100
2200
0000
3300
0000
,  // measure 41
0002
0000
0003
0000
0010
0000
0100
0000
0010
0000
0000
0001
1000
0000
0100
0000
,  // measure 42
0110
0000
0000
0001
0010
0000
0001
0000
2000
0000
0000
0000
0010
0000
0000
0000
,  // measure 43
3010
0000
0100
0010
0101
0001
1000
0001
,  // measure 44
1001
0000
0000
0000
1000
0100
0010
0001
1000
0000
0000
0000
0001
0000
0100
0000
,  // measure 45
1000
0000
0100
0000
0001
0000
0000
0000
1000
0000
0010
0100
0010
0000
0100
0000
,  // measure 46
0001
0000
1000
0001
1000
0000
0001
0000
0020
0000
0000
0000
0130
0000
1000
0000
,  // measure 47
1000
0000
0001
0010
0001
0000
1000
0000
0010
0000
0010
0000
0100
0000
0010
0000
,  // measure 48
2010
0010
3010
0000
1002
0000
0103
0010
,  // measure 49
0100
0000
0001
0100
0001
0000
1000
0000
1010
0000
1000
0010
1000
0000
0010
0000
,  // measure 50
0100
0000
0010
0100
0010
0000
0100
0000
0002
0000
0000
0000
1003
0000
0010
0000
,  // measure 51
0001
0000
1000
0000
0100
0001
0100
0001
,  // measure 52
1000
0000
0010
0100
0010
0100
0010
0000
0110
0000
0010
0100
0010
1000
0100
1000
,  // measure 53
0100
0000
0110
0000
0011
0000
0001
0000
0010
0000
0100
1000
0100
0000
1000
0000
,  // measure 54
0001
0100
0010
0100
0001
0000
1000
0000
1100
0000
0010
0000
0001
0000
0100
0000
,  // measure 55
0101
0000
0010
0000
1000
0000
0010
0000
1010
0000
0010
1000
0100
0000
0010
0001
,  // measure 56
0010
0000
0001
0010
0001
0000
0001
0000
0011
0000
0100
1000
0100
0010
0001
0100
,  // measure 57
0001
0000
0101
0000
1010
0000
0100
0000
0110
0000
1000
0010
0100
0000
0001
0000
,  // measure 58
0100
0010
0100
0010
1000
0000
0001
0000
0011
0000
0001
0010
0100
0000
1000
0000
,  // measure 59
0010
0000
0100
0001
0100
0000
0001
0000
0200
0000
0300
0000
0110
0000
0100
0000
,  // measure 60
0010
0100
0001
0100
0001
0000
1000
0100
0010
0000
0001
1000
0000
0000
0001
0000
,  // measure 61
0100
0000
0010
0000
0100
0000
0001
0000
0010
0000
0100
0010
0100
0000
1000
0000
,  // measure 62
0001
0000
0101
0000
1010
0000
0100
0010
0100
0000
0010
0100
0000
0000
0001
0000
,  // measure 63
0010
0000
0100
0000
0010
0000
0001
0000
1000
0000
0001
0100
0001
0000
1000
0000
,  // measure 64
0100
0000
0010
0001
0010
0001
0100
0000
0101
0000
0001
0100
0000
0000
0010
0000
,  // measure 65
0110
0000
0100
0000
0001
0000
1000
0000
0001
0000
1000
0010
1000
0000
0001
0010
,  // measure 66
0001
0000
1000
0000
0001
0010
0001
0010
0100
0000
1000
0100
0000
0000
0010
0000
,  // measure 67
0001
0000
0100
0000
1000
0000
0100
0000
0001
0000
0100
0010
0100
0010
0100
0000
,  // measure 68
0001
0010
0100
1000
0001
0000
0100
0000
0020
0000
0000
0000
0030
0000
0000
0000
;
