#VERSION:0.83;
#TITLE:Take You Down;
#SUBTITLE:;
#ARTIST:Sam Hook;
#TITLETRANSLIT:;
#SUBTITLETRANSLIT:;
#ARTISTTRANSLIT:;
#GENRE:;
#ORIGIN:;
#CREDIT:;
#BANNER:;
#BACKGROUND:;
#PREVIEWVID:;
#JACKET:;
#CDIMAGE:;
#DISCIMAGE:;
#LYRICSPATH:;
#CDTITLE:;
#MUSIC:Sam Hook - Take-You-Down 2010.ogg;
#OFFSET:-0.323000;
#SAMPLESTART:50.012001;
#SAMPLELENGTH:18.100000;
#SELECTABLE:YES;
#BPMS:0.000=185.958;
#STOPS:;
#DELAYS:;
#WARPS:;
#TIMESIGNATURES:0.000=4=4;
#TICKCOUNTS:0.000=4;
#COMBOS:0.000=1;
#SPEEDS:0.000=1.000=0.000=0;
#SCROLLS:0.000=1.000;
#FAKES:;
#LABELS:0.000=Song Start;
#BGCHANGES:;
#KEYSOUNDS:;
#ATTACKS:
;

//---------------dance-single - ----------------
#NOTEDATA:;
#CHARTNAME:;
#STEPSTYPE:dance-single;
#DESCRIPTION:;
#CHARTSTYLE:;
#DIFFICULTY:Beginner;
#METER:3;
#RADARVALUES:0.150314,0.185037,0.072210,0.000000,0.000000,102.000000,95.000000,7.000000,0.000000,0.000000,0.000000,0.000000,0.000000,0.000000,0.150314,0.185037,0.072210,0.000000,0.000000,102.000000,95.000000,7.000000,0.000000,0.000000,0.000000,0.000000,0.000000,0.000000;
#CREDIT:;
#NOTES:
0000
0000
0000
0000
,
0000
0000
0000
0000
,
0000
0000
0000
0000
,
0000
0000
0000
1001
,
0000
0001
0000
1000
,
0000
0000
0000
1000
,
0000
0001
0000
0100
,
0000
0000
0000
0110
,
0000
0010
0000
0000
,
0000
1010
0000
0000
,
0000
1001
0000
0000
,
0000
0001
0000
1000
,
0000
0001
0000
0000
,
0000
1000
0000
0010
,
0000
0100
0000
0000
,
0000
0001
0000
1000
,
0000
0001
0000
0000
,
0000
1000
0000
0010
,
0000
1000
0000
0000
,
0000
0001
0000
0001
,
0000
0100
0000
0000
,
0000
0010
0000
0010
,
0000
1000
0000
0000
,
0000
0001
0000
1000
,
0000
0000
0000
0000
,
0000
0000
0000
1001
,
0000
0000
0000
0000
,
0000
0000
0000
0110
,
0000
0000
0000
0001
,
0000
0000
0000
1000
,
0000
1000
0000
1000
,
0000
0000
0000
0001
,
0000
0001
0000
0001
,
0000
0000
0000
0100
,
0000
0100
0000
0100
,
0000
0000
0000
0010
,
0000
0100
0000
0010
,
0000
0100
0000
0010
,
0000
0000
0000
1000
,
0000
0000
0000
0001
,
0000
0010
0000
0001
,
0000
0000
0000
1000
,
0000
0100
0000
1000
,
0000
0000
0000
0100
,
0000
0100
0000
0100
,
0000
0000
0000
0010
,
0000
0010
0000
0001
,
0000
0000
0000
1000
,
0000
0001
0000
0100
,
0000
0000
0000
1000
,
0000
0001
0000
0100
,
0000
0000
0000
0001
,
0000
0010
0000
0100
,
0000
0000
0000
0100
,
0000
1000
0000
0100
,
0000
0000
0000
1000
,
0000
0000
0000
0001
,
0000
0000
0000
0110
,
0000
0000
0000
1000
,
0000
0001
0000
1000
,
0000
0000
0000
0001
,
0000
0100
0000
0001
,
0000
0000
0000
1000
,
0000
0001
0000
1000
,
0000
0000
0000
0001
,
0000
0000
0000
0100
,
0000
0000
0000
0010
,
0000
1000
0000
0001
,
0000
0000
0000
1000
,
0000
0001
0000
0100
,
0000
0001
0000
1000
,
0000
0000
0000
0001
;

//---------------dance-single - ----------------
#NOTEDATA:;
#CHARTNAME:;
#STEPSTYPE:dance-single;
#DESCRIPTION:;
#CHARTSTYLE:;
#DIFFICULTY:Easy;
#METER:5;
#RADARVALUES:0.254944,0.296059,0.134104,0.000000,0.000000,173.000000,160.000000,13.000000,0.000000,0.000000,0.000000,0.000000,0.000000,0.000000,0.254944,0.296059,0.134104,0.000000,0.000000,173.000000,160.000000,13.000000,0.000000,0.000000,0.000000,0.000000,0.000000,0.000000;
#CREDIT:;
#NOTES:
0000
0000
0000
0000
,
0000
0000
0000
0000
,
0000
0000
0000
0000
,
0000
0000
0000
0110
,
0000
0100
0000
0001
,
1000
0001
0000
1000
,
0000
0001
0000
0100
,
0010
0100
0010
1000
,
0000
0001
0000
0100
,
0001
0100
0000
0100
,
1000
0100
0000
0001
,
0100
0001
0000
0010
,
0001
0010
0000
0010
,
0100
0010
0000
1000
,
0000
0001
0000
1000
,
0100
0010
0000
0011
,
0000
1001
0000
1000
,
0001
1000
0000
0001
,
0100
0001
0000
1000
,
0010
1000
0000
0101
,
0000
1001
0000
1000
,
0010
1000
0000
0001
,
0100
0001
0000
0001
,
0010
0001
0000
1000
,
0000
0110
0000
0001
,
0000
0100
0000
0010
,
0000
1000
0000
0001
,
0100
0001
0100
0000
,
0001
0000
0000
1000
,
0000
0010
0000
0110
,
0000
0100
0000
0001
,
0000
1000
0000
0110
,
0000
0100
0000
0000
,
0000
0001
1000
0001
,
0000
1000
0000
0010
,
0000
1000
0000
1010
,
0000
0001
0000
0011
,
0000
0100
0000
1010
,
0000
0010
0000
0011
,
0000
0000
0000
0100
,
0000
0001
1000
0001
,
1000
0010
1000
0001
,
0000
1000
0000
0001
,
0100
0001
0000
1000
,
0100
0100
0000
0010
,
0000
0001
0000
0001
,
0010
0010
0000
0100
,
0000
1000
0000
1001
,
0000
0001
0000
0100
,
0010
0100
0000
0001
,
0000
1000
0000
0001
,
1000
0001
0000
1000
,
0000
0100
0000
0010
,
0001
0001
0000
1000
,
0000
0001
0000
0100
,
0010
0100
0010
0001
,
0000
1000
0000
0001
,
0000
0000
0000
0001
,
0000
1000
0000
0000
,
0000
0100
0000
0001
,
0000
0000
0100
0000
,
0000
0000
0010
0000
,
1000
0000
0001
0000
,
1000
0000
0001
1000
,
0000
0001
0001
0001
,
0000
0000
0000
1000
,
0000
1000
1000
1000
,
0000
0000
0000
0010
,
0000
0100
0010
0100
,
0000
0000
0000
0100
,
0000
0010
0100
0001
,
0000
0000
0000
1000
;

//---------------dance-single - ----------------
#NOTEDATA:;
#CHARTNAME:;
#STEPSTYPE:dance-single;
#DESCRIPTION:;
#CHARTSTYLE:;
#DIFFICULTY:Medium;
#METER:8;
#RADARVALUES:0.372837,0.444089,0.165051,0.061894,0.000000,253.000000,237.000000,16.000000,6.000000,0.000000,0.000000,0.000000,0.000000,0.000000,0.372837,0.444089,0.165051,0.061894,0.000000,253.000000,237.000000,16.000000,6.000000,0.000000,0.000000,0.000000,0.000000,0.000000;
#CREDIT:;
#NOTES:
0000
0000
0000
0000
,
0000
0000
0000
0000
,
0000
0000
0000
0000
,
0000
0000
0000
0110
,
0000
0000
1000
0000
0000
0001
0000
0000
,
0100
0010
0100
0110
,
0000
1000
0001
0100
,
0001
1000
0010
1010
,
0000
0100
0000
0001
,
1000
0001
0000
1000
0001
0000
0100
0000
,
0010
0100
0000
0000
0010
0000
1000
0000
,
0001
2000
0000
3001
,
0000
0100
0010
0100
,
0010
1000
0000
0000
0001
0000
1000
0000
,
0001
1000
0000
0000
0001
0000
1000
0000
,
0010
0200
0000
0301
,
0000
1000
0001
0100
,
0010
0100
0000
0000
0010
0000
1000
0000
,
0001
1000
0000
0000
0001
0000
1000
0000
,
0010
0100
0010
0110
,
0000
0001
0000
1000
,
0000
0001
0000
0000
1000
0000
0001
0000
,
0100
0010
0000
0000
0100
0000
0010
0000
,
0010
1000
1000
1001
,
0000
0011
0000
1000
,
0100
0010
0002
0003
,
0010
0000
0100
1000
,
0100
0010
0200
0300
,
0010
0000
0001
1000
,
0001
0000
1000
0000
0001
1000
0001
0000
,
1000
0010
0100
0001
,
1000
0000
0001
0100
0001
0000
0200
0000
,
0000
0310
0000
0010
,
0000
0000
1000
0010
1000
0000
0020
0000
,
0000
0130
0000
0001
,
1000
0001
0100
0010
,
0100
0010
0000
0100
0010
0000
1000
0000
,
0001
1000
0000
0001
1000
0000
0001
0000
,
0000
1000
0001
0001
,
0010
0100
1000
1001
,
0000
0101
0001
1000
,
0001
0010
0100
0010
,
0000
0001
1000
0100
,
0010
0001
1000
0010
,
0100
0110
0001
0000
,
0001
1000
0000
0100
,
0010
0001
0001
0000
,
1000
0001
0100
0110
,
0000
0000
0010
0000
1000
0000
0001
1000
,
0001
1000
0001
1001
,
1000
0000
0100
0000
0010
0000
0001
0100
,
0001
1000
0010
1010
,
0001
0000
1000
0000
1000
0000
0010
1000
,
0001
0100
0000
0110
,
0000
1001
0001
0010
,
0001
0010
0100
1000
,
0000
0100
0010
0000
,
0010
0001
1000
1010
,
0000
0010
0100
0000
,
0001
0010
0100
1100
,
0000
0100
0010
0000
,
0001
0000
1000
0001
,
0100
0001
1000
0100
,
0010
0001
0010
0001
,
0000
0000
1000
0000
0000
0100
0000
0010
,
0000
0001
0001
1000
,
0100
0000
0100
0000
0000
1000
0000
0010
,
0000
0100
0001
1000
,
0001
0000
1000
0000
0000
0001
0000
1000
,
0000
0001
0010
0010
,
0100
0010
0001
1000
,
0000
0001
0000
0100
;

//---------------dance-single - ----------------
#NOTEDATA:;
#CHARTNAME:;
#STEPSTYPE:dance-single;
#DESCRIPTION:;
#CHARTSTYLE:;
#DIFFICULTY:Hard;
#METER:11;
#RADARVALUES:0.484836,0.555111,0.175366,0.113472,0.000000,329.000000,312.000000,17.000000,11.000000,0.000000,0.000000,0.000000,0.000000,0.000000,0.484836,0.555111,0.175366,0.113472,0.000000,329.000000,312.000000,17.000000,11.000000,0.000000,0.000000,0.000000,0.000000,0.000000;
#CREDIT:;
#NOTES:
// measure 0
0000
0000
0000
0000
,  // measure 1
0000
0000
0000
0000
,  // measure 2
0000
0000
0000
0000
,  // measure 3
0000
0000
0000
0110
,  // measure 4
0100
0001
1000
0000
0001
0100
0000
0100
,  // measure 5
0010
0000
1000
0100
0010
0000
0001
0000
,  // measure 6
1000
1000
0001
0100
,  // measure 7
0001
1000
0010
1010
,  // measure 8
0000
0001
0100
0000
0000
1000
0001
0000
,  // measure 9
1000
0100
0000
0010
0001
0000
0100
0000
,  // measure 10
0010
0100
0000
0100
1000
0000
0100
0000
,  // measure 11
0001
2010
0000
3002
,  // measure 12
0000
0103
0010
0100
,  // measure 13
0010
1000
0000
0000
0001
0000
1001
0000
,  // measure 14
0001
1000
0000
0001
0100
0000
1000
0000
,  // measure 15
0100
0020
0000
0130
,  // measure 16
0001
0000
1000
0000
0001
0010
0100
0010
,  // measure 17
0100
1000
0000
0010
0000
0000
1000
0001
,  // measure 18
1000
0001
0000
0100
0001
0000
1000
0000
,  // measure 19
0010
1001
0100
0101
,  // measure 20
0000
0000
0001
0000
0000
1000
0010
0000
,  // measure 21
0010
0001
0000
0010
0000
0000
1000
0000
,  // measure 22
0100
0010
0000
0100
0000
0000
0010
0000
,  // measure 23
0001
1000
0010
0110
,  // measure 24
0000
0001
1000
0010
,  // measure 25
0100
0001
2000
3000
,  // measure 26
0020
0030
0100
0001
,  // measure 27
1000
0100
0020
0031
,  // measure 28
0002
0000
1003
0000
0010
0100
0000
0010
,  // measure 29
0100
0000
0001
0010
0001
1000
0100
0000
,  // measure 30
1000
0000
0001
0100
0000
0010
0000
1000
,  // measure 31
0000
0010
0100
0001
0010
0000
0002
0000
,  // measure 32
0000
1003
0000
0100
,  // measure 33
0010
0000
0001
0010
0100
1000
0001
0000
,  // measure 34
0000
2000
0000
3001
,  // measure 35
0100
0000
0101
0000
0001
1000
0001
0000
,  // measure 36
1000
0001
0000
0001
0001
0000
1000
0000
,  // measure 37
0010
0100
0000
0100
0100
0000
0001
0000
,  // measure 38
1000
0010
1000
0000
0001
0000
0100
0000
,  // measure 39
0010
1000
0001
0101
,  // measure 40
0000
1000
0010
0100
,  // measure 41
0001
1000
0010
0110
,  // measure 42
0000
1001
0001
0010
,  // measure 43
0100
1000
0010
0110
,  // measure 44
0010
0100
0010
0000
0100
0010
0000
1000
,  // measure 45
0001
0000
1000
0100
0010
0000
0001
0100
,  // measure 46
0001
0010
0001
0000
0100
0010
0000
0010
,  // measure 47
1000
0000
0001
0010
0001
0100
0001
0000
,  // measure 48
1000
0100
1000
0000
0001
0100
0001
1000
,  // measure 49
0001
2000
3001
0101
,  // measure 50
0010
0001
0100
0000
0010
1000
0100
0010
,  // measure 51
0001
0200
0310
1010
,  // measure 52
0001
0100
0010
0000
1000
0001
1000
0001
,  // measure 53
0100
0000
0010
1000
0001
1000
0001
0000
,  // measure 54
0100
0000
0010
0100
0010
0000
1000
0000
,  // measure 55
0010
0100
0001
1010
,  // measure 56
0000
0000
0001
0000
1000
0100
0000
1000
,  // measure 57
0100
0000
0010
0001
0010
0001
0100
0010
,  // measure 58
1000
0001
0011
0000
,  // measure 59
0100
0010
1000
1001
,  // measure 60
0001
0000
0100
0000
0010
0100
0000
0010
,  // measure 61
0100
0000
0001
1000
0100
0010
0001
1000
,  // measure 62
0001
1000
0010
0100
,  // measure 63
0001
0100
0001
0000
1000
0000
1000
0000
,  // measure 64
0001
0000
0100
0000
0010
0100
0000
0010
,  // measure 65
0000
0000
1000
0001
1000
0000
0100
0000
,  // measure 66
0010
0000
0001
0000
0001
1000
0000
0010
,  // measure 67
0000
0000
0100
0010
0100
0000
0001
0000
,  // measure 68
1000
0000
0010
0000
0100
0001
0000
1000
,  // measure 69
0000
0000
0010
0100
0001
0000
1000
0000
,  // measure 70
0001
0000
0100
0000
0010
0100
0000
0001
,  // measure 71
0000
0000
1000
0001
0100
0000
0100
0000
;
